osu file format v14

[General]
AudioFilename: audio.mp3
AudioLeadIn: 0
PreviewTime: 93212
Countdown: 0
SampleSet: Normal
StackLeniency: 0.7
Mode: 1
LetterboxInBreaks: 0
WidescreenStoryboard: 0

[Editor]
DistanceSpacing: 0.6
BeatDivisor: 4
GridSize: 4
TimelineZoom: 1

[Metadata]
Title:Casino
TitleUnicode:Casino
Artist:Azari
ArtistUnicode:Azari
Creator:neonat
Version:Kantan
Source:
Tags:vflower v_flower flower vocaloid electronic japanese jerry
BeatmapID:3515611
BeatmapSetID:1720271

[Difficulty]
HPDrainRate:8
CircleSize:5
OverallDifficulty:3
ApproachRate:5
SliderMultiplier:1.4
SliderTickRate:1

[Events]
//Background and Video events
0,0,"heart_kijiyakazu.png",0,120
//Break Periods
//Storyboard Layer 0 (Background)
//Storyboard Layer 1 (Fail)
//Storyboard Layer 2 (Pass)
//Storyboard Layer 3 (Foreground)
//Storyboard Layer 4 (Overlay)
//Storyboard Sound Samples

[TimingPoints]
1827.79020224146,461.538461538462,4,1,0,60,1,0
5520,461.538461538462,4,1,0,60,1,0
20289,-100,4,1,0,85,0,1
35058,-100,4,1,0,80,0,0
94135,-100,4,1,0,85,0,1
108443,-100,4,1,0,80,0,0
108904,-100,4,1,0,85,0,1
123673,-100,4,1,0,75,0,0
138673,-100,4,1,0,60,0,0

[HitObjects]
248,213,5520,5,8,0:0:0:0:
258,204,6443,1,0,0:0:0:0:
258,204,7366,1,8,0:0:0:0:
258,204,8750,1,0,0:0:0:0:
258,204,9212,1,8,0:0:0:0:
258,204,10135,1,8,0:0:0:0:
258,204,11058,1,0,0:0:0:0:
258,204,12443,1,0,0:0:0:0:
258,204,12904,1,8,0:0:0:0:
258,204,13827,1,0,0:0:0:0:
262,198,14750,1,8,0:0:0:0:
256,190,16135,1,0,0:0:0:0:
256,184,16596,1,8,0:0:0:0:
258,194,17520,1,8,0:0:0:0:
258,194,18443,1,0,0:0:0:0:
258,194,19135,1,0,0:0:0:0:
258,194,20289,1,12,0:0:0:0:
258,194,21212,1,8,0:0:0:0:
258,194,22135,1,8,0:0:0:0:
258,194,22596,1,0,0:0:0:0:
250,190,23981,1,8,0:0:0:0:
250,190,24904,1,0,0:0:0:0:
250,190,25827,1,0,0:0:0:0:
250,190,26289,1,8,0:0:0:0:
250,190,27212,1,0,0:0:0:0:
250,190,27673,1,8,0:0:0:0:
250,190,28596,1,8,0:0:0:0:
250,190,29520,1,8,0:0:0:0:
250,190,29981,1,0,0:0:0:0:
250,190,31366,1,8,0:0:0:0:
250,190,32289,1,0,0:0:0:0:
250,190,33212,1,0,0:0:0:0:
250,190,33673,1,8,0:0:0:0:
250,190,34135,1,8,0:0:0:0:
250,190,34596,1,8,0:0:0:0:
250,190,35058,1,0,0:0:0:0:
254,192,36443,1,0,0:0:0:0:
254,192,36904,1,0,0:0:0:0:
256,192,38289,1,8,0:0:0:0:
256,192,38750,1,0,0:0:0:0:
258,198,40135,1,8,0:0:0:0:
258,198,40596,1,8,0:0:0:0:
258,198,41520,1,0,0:0:0:0:
258,198,41981,1,8,0:0:0:0:
258,194,42443,1,0,0:0:0:0:
258,194,44289,1,0,0:0:0:0:
258,194,45673,1,8,0:0:0:0:
258,194,46135,1,0,0:0:0:0:
258,194,47520,1,8,0:0:0:0:
258,194,47981,1,8,0:0:0:0:
258,194,48904,1,8,0:0:0:0:
258,194,49366,1,8,0:0:0:0:
258,194,49827,1,0,0:0:0:0:
229,200,51212,1,0,0:0:0:0:
258,194,51673,1,0,0:0:0:0:
258,213,53058,1,8,0:0:0:0:
258,213,53520,1,0,0:0:0:0:
258,213,54904,1,8,0:0:0:0:
258,213,55366,1,8,0:0:0:0:
258,213,56289,1,0,0:0:0:0:
258,213,56750,1,8,0:0:0:0:
258,213,57212,1,0,0:0:0:0:
258,213,58596,1,0,0:0:0:0:
258,213,59058,1,0,0:0:0:0:
258,213,60443,1,8,0:0:0:0:
258,213,60904,1,0,0:0:0:0:
258,213,62289,1,8,0:0:0:0:
258,213,62750,1,8,0:0:0:0:
258,213,63673,1,0,0:0:0:0:
258,213,64135,1,8,0:0:0:0:
258,213,64596,1,8,0:0:0:0:
258,213,65520,1,0,0:0:0:0:
258,213,65981,1,0,0:0:0:0:
270,242,66443,1,8,0:0:0:0:
255,241,67366,1,0,0:0:0:0:
256,240,67827,1,0,0:0:0:0:
256,240,68289,1,8,0:0:0:0:
256,240,69212,1,8,0:0:0:0:
256,240,69673,1,0,0:0:0:0:
256,240,70135,1,8,0:0:0:0:
256,240,71520,1,0,0:0:0:0:
256,240,71981,1,8,0:0:0:0:
256,240,72904,1,0,0:0:0:0:
256,240,73366,1,0,0:0:0:0:
256,240,73827,1,8,0:0:0:0:
256,240,74750,1,0,0:0:0:0:
256,240,75212,1,0,0:0:0:0:
256,240,75673,1,8,0:0:0:0:
256,240,76596,1,8,0:0:0:0:
256,240,77058,1,0,0:0:0:0:
256,240,77520,1,8,0:0:0:0:
256,240,77981,1,8,0:0:0:0:
256,240,78443,1,0,0:0:0:0:
256,240,78904,1,8,0:0:0:0:
256,240,79366,2,0,P|246:171|287:275,1,560
256,240,83058,6,0,P|246:171|287:275,1,560
256,240,86750,6,0,P|246:171|287:275,1,560
256,240,90443,6,0,P|246:171|287:275,1,560
254,240,93212,1,0,0:0:0:0:
254,240,93673,5,8,0:0:0:0:
254,240,94135,1,12,0:0:0:0:
254,240,95058,1,8,0:0:0:0:
254,240,95981,1,8,0:0:0:0:
254,240,96443,1,0,0:0:0:0:
254,240,97827,1,8,0:0:0:0:
254,240,98750,1,0,0:0:0:0:
254,240,99673,1,0,0:0:0:0:
254,240,100135,1,8,0:0:0:0:
254,240,101058,1,0,0:0:0:0:
254,240,101520,1,8,0:0:0:0:
254,240,102443,1,8,0:0:0:0:
254,240,103366,1,8,0:0:0:0:
256,231,103827,1,0,0:0:0:0:
256,231,105212,1,8,0:0:0:0:
256,231,106135,1,0,0:0:0:0:
256,231,107058,1,0,0:0:0:0:
256,231,107520,1,8,0:0:0:0:
256,231,107981,1,0,0:0:0:0:
256,242,108443,1,8,0:0:0:0:
256,242,108904,1,12,0:0:0:0:
281,233,109827,1,8,0:0:0:0:
281,233,110289,1,8,0:0:0:0:
281,233,110750,1,8,0:0:0:0:
281,233,111212,1,0,0:0:0:0:
281,233,112596,1,8,0:0:0:0:
281,233,113520,1,0,0:0:0:0:
281,233,113981,1,0,0:0:0:0:
281,233,114443,1,0,0:0:0:0:
281,233,114904,1,8,0:0:0:0:
281,233,115827,1,0,0:0:0:0:
277,227,116289,1,8,0:0:0:0:
283,211,117212,1,8,0:0:0:0:
283,211,117673,1,8,0:0:0:0:
283,211,118135,1,8,0:0:0:0:
283,211,118596,1,0,0:0:0:0:
281,217,119981,1,8,0:0:0:0:
281,217,120904,1,0,0:0:0:0:
292,222,121366,1,8,0:0:0:0:
281,217,121827,1,0,0:0:0:0:
281,217,122289,1,8,0:0:0:0:
281,217,123212,1,8,0:0:0:0:
281,217,123673,1,0,0:0:0:0:
255,190,125520,1,0,0:0:0:0:
287,223,127366,1,0,0:0:0:0:
257,208,129212,1,0,0:0:0:0:
258,186,131058,1,0,0:0:0:0:
258,186,131520,1,8,0:0:0:0:
258,186,132443,1,8,0:0:0:0:
264,186,133366,1,8,0:0:0:0:
264,186,134289,1,8,0:0:0:0:
264,186,134750,1,0,0:0:0:0:
264,186,135212,1,8,0:0:0:0:
264,186,136135,1,8,0:0:0:0:
264,186,137058,1,8,0:0:0:0:
264,186,137981,1,8,0:0:0:0:
264,186,138443,1,0,0:0:0:0:
256,192,138673,12,0,141212,0:0:0:0:
