osu file format v14

[General]
AudioFilename: audio.ogg
AudioLeadIn: 0
PreviewTime:29115
Countdown: 0
SampleSet: Soft
StackLeniency: 1
Mode: 0
LetterboxInBreaks: 0
WidescreenStoryboard: 1

[Editor]
Bookmarks: 3100,18100,30100,42100,54100,66100,78100,90100,103600,115600,127600
DistanceSpacing: 0.5
BeatDivisor: 4
GridSize: 32
TimelineZoom: 1.199999

[Metadata]
Title:Black Out
TitleUnicode:Black Out
Artist:Azari
ArtistUnicode:Azari
Creator:Ryuusei Aika
Version:--
Source:
Tags:-Cronik Bekko O K U O_K_U DT Best Mod Teages normal hard insane v flower v-flower vocaloid ボーカロイド ボカロ japanese electronic pop j-pop jpop blackout sere
BeatmapID:4123742
BeatmapSetID:1965625

[Difficulty]
HPDrainRate:4
CircleSize:4
OverallDifficulty:6
ApproachRate:6.5
SliderMultiplier:1.6
SliderTickRate:1

[Events]
//Background and Video events
0,0,"bg.jpg",0,0
//Break Periods
//Storyboard Layer 0 (Background)
//Storyboard Layer 1 (Fail)
//Storyboard Layer 2 (Pass)
//Storyboard Layer 3 (Foreground)
//Storyboard Layer 4 (Overlay)
//Storyboard Sound Samples

[TimingPoints]
100,375,4,2,1,45,1,0
3100,-200,4,2,1,45,0,0
5350,-100,4,2,1,45,0,0
6100,-111.111111111111,4,2,1,45,0,0
18100,-105.263157894737,4,2,1,65,0,0
30100,-100,4,2,1,65,0,1
30193,-100,4,2,1,65,0,0
42100,-40.0255078419834,4,2,1,65,0,1
42193,-100,4,2,1,65,0,0
42287,-40.0255078419834,4,2,1,65,0,1
42381,-100,4,2,1,65,0,0
42475,-40.0255078419834,4,2,1,65,0,1
42662,-40.0255078419834,4,2,1,65,0,1
42756,-100,4,2,1,65,0,0
42850,-40.0255078419834,4,2,1,65,0,1
42943,-100,4,2,1,65,0,0
54100,-133.333333333333,4,2,1,40,0,0
57100,-125,4,2,1,50,0,0
66100,-111.111111111111,4,2,1,65,0,0
78100,-100,4,2,1,65,0,0
79600,-50,4,2,1,65,0,0
79975,-100,4,2,1,65,0,0
82600,-50,4,2,1,65,0,0
82975,-100,4,2,1,65,0,0
85600,-50,4,2,1,65,0,0
85975,-100,4,2,1,65,0,0
91600,-50,4,2,1,65,0,0
91975,-100,4,2,1,65,0,0
94600,-50,4,2,1,65,0,0
94975,-100,4,2,1,65,0,0
97600,-50,4,2,1,65,0,0
97975,-100,4,2,1,65,0,0
102662,-133.333333333333,4,2,1,65,0,0
103600,-100,4,2,1,65,0,1
103693,-100,4,2,1,65,0,0
115600,-39.4047420362435,4,2,1,65,0,1
115693,-100,4,2,1,65,0,0
115787,-39.4047420362435,4,2,1,65,0,1
115881,-100,4,2,1,65,0,0
115975,-39.4047420362435,4,2,1,65,0,1
116162,-39.4047420362435,4,2,1,65,0,1
116256,-100,4,2,1,65,0,0
116350,-39.4047420362435,4,2,1,65,0,1
116443,-100,4,2,1,65,0,0
127600,-133.333333333333,4,2,1,20,0,0
129100,-142.857142857143,4,2,1,20,0,0
130600,-153.846153846154,4,2,1,20,0,0
132100,-166.666666666667,4,2,1,20,0,0
133600,-200,4,2,1,20,0,0
134162,-50,4,2,1,20,0,0
134256,-222.222222222222,4,2,1,5,0,0

[Colours]
Combo1 : 128,0,128
Combo2 : 64,0,128

[HitObjects]
488,384,3100,6,0,L|479:331,3,40,2|2|2|2,0:2|0:2|0:2|0:2,0:0:0:0:
399,315,3850,6,0,L|408:262,3,40,2|2|2|2,0:2|0:2|0:2|0:2,0:0:0:0:
443,261,4600,2,0,L|452:208,3,40,2|2|2|2,0:2|0:2|0:2|0:2,0:0:0:0:
512,153,5350,5,2,0:2:0:0:
512,153,5537,2,0,B|507:173|507:173|368:191,1,160,2|0,0:1|0:2,0:2:0:0:
291,277,6100,5,2,3:2:0:0:
291,277,6287,1,2,0:2:0:0:
228,314,6475,2,0,P|197:298|163:285,1,71.9999978027344,2|2,0:1|0:2,0:0:0:0:
110,233,6850,1,2,1:2:0:0:
110,233,7037,2,0,P|47:250|42:343,1,143.999995605469,2|2,0:2|0:2,0:0:0:0:
71,378,7600,1,2,0:1:0:0:
190,295,7975,2,0,P|255:315|270:382,2,143.999995605469,2|2|2,3:2|1:2|0:2,0:2:0:0:
46,120,9100,5,2,3:2:0:0:
46,120,9287,1,2,0:2:0:0:
112,147,9475,2,0,P|143:131|177:118,1,71.9999978027344,2|2,0:1|0:2,0:0:0:0:
250,100,9850,1,2,1:2:0:0:
250,100,10037,1,2,0:2:0:0:
306,152,10225,1,2,0:2:0:0:
306,152,10412,2,0,P|339:164|371:181,1,71.9999978027344,2|2,0:2|0:1,0:2:0:0:
470,75,10975,2,0,P|402:50|338:16,1,143.999995605469,2|2,3:2|1:2,0:2:0:0:
338,16,11537,1,2,0:2:0:0:
222,198,12100,5,2,3:2:0:0:
222,198,12287,1,2,0:2:0:0:
268,253,12475,2,0,P|284:285|297:318,1,71.9999978027344,2|2,0:1|0:2,0:0:0:0:
363,358,12850,1,2,1:2:0:0:
363,357,13037,2,0,P|398:297|466:281,1,143.999995605469,2|2,0:2|0:2,0:0:0:0:
510,339,13600,1,2,0:1:0:0:
484,197,13975,2,0,P|448:136|380:120,2,143.999995605469,2|2|2,3:2|1:2|0:2,0:2:0:0:
304,265,15100,5,2,3:2:0:0:
304,265,15287,1,2,0:2:0:0:
235,293,15475,1,2,0:1:0:0:
235,293,15662,1,2,0:2:0:0:
171,327,15850,2,0,P|139:311|97:301,1,71.9999978027344,2|2,1:2|0:2,0:0:0:0:
76,235,16225,2,0,P|108:219|150:209,2,71.9999978027344,2|2|2,0:2|0:2|0:1,0:0:0:0:
133,102,16975,2,0,P|69:70|-15:50,1,143.999995605469,2|2,3:2|1:2,0:2:0:0:
0,51,17537,1,2,0:2:0:0:
198,152,18100,6,0,L|270:128,1,75.9999979705811,2|0,3:2|0:2,0:2:0:0:
324,182,18475,2,0,L|398:198,1,75.9999979705811,10|2,0:1|0:2,0:0:0:0:
414,272,18850,2,0,L|470:323,1,75.9999979705811,2|2,1:2|0:2,0:0:0:0:
330,319,19225,1,10,0:1:0:0:
330,319,19412,1,2,0:2:0:0:
273,369,19600,6,0,L|227:379,1,37.9999989852906,10|0,0:2|0:0,0:0:0:0:
164,287,19975,6,0,L|127:278,1,37.9999989852906,2|0,3:1|0:0,0:2:0:0:
260,180,20350,6,0,L|222:188,1,37.9999989852906,2|0,1:1|0:0,0:2:0:0:
134,114,20725,5,10,0:2:0:0:
62,88,20912,1,2,0:2:0:0:
0,170,21100,6,0,L|46:314,1,151.999995941162,2|10,3:2|0:1,0:2:0:0:
124,306,21662,1,2,0:2:0:0:
124,306,21850,2,0,L|179:356,1,75.9999979705811,2|0,1:2|0:2,0:2:0:0:
272,319,22225,1,10,0:1:0:0:
272,319,22412,1,0,0:2:0:0:
362,348,22600,6,0,L|408:358,1,37.9999989852906,10|0,0:2|0:0,0:0:0:0:
471,266,22975,6,0,L|508:257,1,37.9999989852906,2|0,3:1|0:0,0:2:0:0:
375,159,23350,6,0,L|413:167,1,37.9999989852906,2|0,1:1|0:0,0:0:0:0:
393,86,23537,1,2,0:2:0:0:
349,30,23725,1,8,0:2:0:0:
349,30,23912,1,2,0:2:0:0:
255,0,24100,6,0,L|231:72,1,75.9999979705811,2|2,3:2|0:2,0:0:0:0:
161,103,24475,2,0,L|177:177,1,75.9999979705811,10|0,0:1|0:2,0:2:0:0:
243,214,24850,2,0,L|294:270,1,75.9999979705811,2|2,1:2|0:2,0:0:0:0:
188,295,25225,1,10,0:1:0:0:
188,295,25413,1,2,0:2:0:0:
108,328,25600,6,0,L|99:291,1,37.9999989852906,10|0,0:2|0:0,0:0:0:0:
9,219,25975,6,0,L|17:181,1,37.9999989852906,2|0,3:1|0:0,0:2:0:0:
117,333,26350,5,2,1:1:0:0:
187,361,26537,1,2,0:2:0:0:
236,303,26725,1,10,0:2:0:0:
306,275,26912,1,2,0:2:0:0:
369,321,27100,6,0,L|447:301,1,75.9999979705811,2|2,3:2|0:2,0:0:0:0:
462,228,27475,2,0,L|384:208,1,75.9999979705811,10|2,0:1|0:2,0:0:0:0:
345,146,27850,1,2,1:2:0:0:
345,146,28037,1,2,0:2:0:0:
388,62,28225,2,0,P|446:61|498:138,1,151.999995941162,10|2,0:1|3:2,0:0:0:0:
497,131,28787,1,2,3:1:0:0:
259,207,29350,6,0,L|251:159,4,37.9999989852906,0|0|0|0|0,1:2|1:2|0:0|1:2|1:2,0:0:0:0:
273,281,29912,5,0,3:2:0:0:
204,343,30100,6,0,B|171:351|171:351|164:359|164:359|129:367,3,80,6|2|2|2,3:2|3:2|1:2|0:1,0:0:0:0:
57,285,30850,1,2,0:2:0:0:
57,285,31037,1,2,3:2:0:0:
94,205,31225,2,0,P|141:207|195:220,1,80,2|2,1:1|0:2,0:0:0:0:
260,147,31600,5,2,3:2:0:0:
260,147,31693,1,2,0:2:0:0:
260,147,31787,1,2,3:2:0:0:
316,214,31975,2,0,L|404:247,1,80,2|0,1:1|0:2,0:2:0:0:
461,53,32537,1,2,3:2:0:0:
372,50,32725,1,2,1:1:0:0:
284,47,32912,1,0,0:0:0:0:
185,94,33100,6,0,B|177:61|177:61|169:54|169:54|161:19,3,80,2|2|2|2,3:2|0:2|1:2|0:1,0:0:0:0:
78,104,33850,2,0,L|60:183,1,80,2|2,0:2|3:2,0:0:0:0:
141,217,34225,2,0,L|159:296,1,80,2|2,1:1|0:2,0:0:0:0:
250,341,34600,5,2,3:2:0:0:
250,341,34693,1,2,0:2:0:0:
250,341,34787,1,2,3:2:0:0:
328,301,34975,2,0,P|377:337|427:357,1,80,2|0,1:1|0:2,0:2:0:0:
489,167,35537,6,0,B|497:134|497:134|505:127|505:127|513:92,2,80,2|2|0,3:2|1:1|0:0,0:0:0:0:
401,208,36100,2,0,B|393:175|393:175|385:168|385:168|377:133,2,80,2|2|2,3:2|3:2|1:2,0:0:0:0:
496,155,36662,1,2,0:1:0:0:
471,70,36850,1,2,0:2:0:0:
471,70,37037,1,2,3:2:0:0:
414,1,37225,2,0,L|311:33,1,80,2|2,1:1|0:2,0:0:0:0:
255,88,37600,5,2,3:2:0:0:
255,88,37693,1,2,0:2:0:0:
255,88,37787,1,2,3:2:0:0:
190,148,37975,2,0,L|89:131,1,80,2|2,1:2|0:1,0:0:0:0:
25,288,38537,1,2,3:2:0:0:
25,288,38725,1,2,1:1:0:0:
104,250,38912,1,0,0:0:0:0:
188,333,39100,6,0,B|229:344|229:344|230:346|230:346|269:358,5,80,2|2|2|2|2|2,3:2|0:2|1:2|0:1|0:2|3:2,0:0:0:0:
280,252,40225,1,2,1:1:0:0:
230,179,40412,1,2,0:2:0:0:
277,104,40600,2,0,P|297:51|400:58,1,160,2|6,3:2|1:1,0:0:0:0:
502,182,41350,2,0,P|456:189|396:191,1,80,0|0,3:2|3:2,0:0:0:0:
389,286,41725,5,0,1:2:0:0:
389,286,41819,1,0,1:2:0:0:
389,286,41912,1,0,1:2:0:0:
389,286,42006,1,0,1:2:0:0:
389,286,42100,6,0,B|390:285|390:285|389:286|389:286|390:287|390:287|389:288|389:288|390:287|390:287|391:289|391:289|391:288|391:288|391:289|391:289|392:290|392:290|391:290|391:290|392:290|392:290|392:291|392:291|393:291|393:291|392:291|392:291|393:293|393:293|392:293|392:293|393:293|393:293|394:294|394:294|395:293|395:293|394:294|394:294|395:295|395:295|394:296|394:296|395:295|395:295|396:297|396:297|396:296|396:296|396:297|396:297|397:298|397:298|396:298|396:298|397:298|397:298|397:299|397:299|398:299|398:299|397:299|397:299|398:301|398:301|397:301|397:301|398:301|398:301|399:302|399:302|400:301|400:301|399:302|399:302|400:303|400:303|399:304|399:304|400:303|400:303|401:304|401:304|402:304|402:304|401:304|401:304|402:306|402:306|401:306|401:306|402:306|402:306|402:307|402:307|403:307|403:307|402:307|402:307|403:308|403:308|402:309|402:309|403:308|403:308|404:310|404:310|405:309|405:309|404:310|404:310|405:311|405:311|404:312|404:312|405:311|405:311|406:312|406:312|407:312|407:312|406:312|406:312|407:314|407:314|406:314|406:314|407:314|407:314|407:315|407:315|408:315|408:315|407:315|407:315|408:316|408:316|407:317|407:317|408:316|408:316|409:318|409:318|410:317|410:317|409:318|409:318|410:319|410:319|409:319|409:319|410:319|410:319|411:320|411:320|412:320|412:320|411:320|411:320|412:322|412:322|411:322|411:322|412:322|412:322|412:323|412:323|413:322|413:322|412:323|412:323|413:324|413:324|413:325|413:325|413:324|413:324|414:326|414:326|415:325|415:325|414:326|414:326|415:327|415:327|414:327|414:327|415:327|415:327|416:328|416:328|417:328|417:328|416:328|416:328|417:330|417:330|416:330|416:330|417:330|417:330|417:331|417:331|418:330|418:330|417:331|417:331|418:332|418:332|418:333|418:333|418:332|418:332|419:333|419:333|420:333|420:333|419:333|419:333|420:335|420:335|419:335|419:335|420:335|420:335|421:336|421:336|422:336|422:336|421:336|421:336|422:337|422:337|421:338|421:338|422:337|422:337|423:339|423:339|423:338|423:338|423:339|423:339|423:340|423:340|423:341|423:341|423:340|423:340|424:341|424:341|425:341|425:341|424:341|424:341|425:343|425:343|424:343|424:343|425:343|425:343|426:344|426:344|427:344|427:344|426:344|426:344|427:345|427:345|426:346|426:346|427:345|427:345|428:347|428:347|428:346|428:346|428:347|428:347|428:348|428:348|428:348|428:348|428:348|428:348|429:349|429:349|430:349|430:349|429:349|429:349|430:351|430:351|429:351|429:351|430:351|430:351|431:352|431:352|432:351|432:351|431:352|431:352|432:353|432:353|431:354|431:354|432:353|432:353|432:354,5,199.872542069502,6|2|2|2|2|2,3:2|3:2|1:2|0:2|3:2|0:2,0:2:0:0:
413,196,43225,2,0,L|312:212,1,80,2|2,1:1|0:1,0:0:0:0:
287,274,43600,6,0,L|163:238,1,120,2|0,3:2|3:2,0:2:0:0:
149,274,43975,2,0,L|62:302,5,80,2|2|2|2|2|2,1:2|0:2|3:2|0:2|1:1|0:1,0:0:0:0:
19,216,45100,6,0,L|7:110,5,80,2|2|2|2|2|2,3:2|3:2|1:2|0:2|3:2|0:2,0:2:0:0:
98,168,46225,1,2,1:1:0:0:
115,90,46412,1,2,0:1:0:0:
133,11,46600,6,0,B|140:2|140:2|274:36,1,120,2|0,3:2|3:2,0:2:0:0:
284,38,46975,2,0,L|320:139,4,80,2|2|2|2|2,1:2|0:2|3:2|0:2|1:1,0:0:0:0:
397,86,47912,1,2,0:1:0:0:
478,162,48100,6,0,L|458:248,1,80,2|2,3:2|3:2,0:0:0:0:
365,181,48475,2,0,L|383:258,1,80,2|2,1:2|0:2,0:0:0:0:
484,176,48850,2,0,L|464:262,1,80,2|2,3:2|0:2,0:0:0:0:
409,339,49225,1,2,1:1:0:0:
333,365,49412,1,2,0:1:0:0:
273,310,49600,6,0,B|234:297|234:297|227:287|227:287|150:297,1,120,2|0,3:2|3:2,0:0:0:0:
121,304,49975,2,0,L|99:386,1,80,2|2,1:2|0:1,0:0:0:0:
26,185,50537,1,2,0:2:0:0:
26,185,50725,1,2,1:1:0:0:
26,185,50912,1,2,0:1:0:0:
88,134,51100,6,0,L|184:120,5,80,2|2|2|2|2|2,3:2|3:2|1:2|0:2|3:2|0:2,0:2:0:0:
217,185,52225,2,0,L|313:199,1,80,2|2,1:1|0:1,0:0:0:0:
384,257,52600,6,0,P|422:216|393:117,1,160,10|10,0:2|0:1,0:0:0:0:
251,300,53537,5,2,3:1:0:0:
251,300,53912,1,2,0:1:0:0:
282,373,54100,5,2,0:2:0:0:
248,216,54475,1,2,0:2:0:0:
286,146,55225,5,2,0:1:0:0:
233,86,55975,5,2,0:1:0:0:
269,15,56350,2,0,L|354:1,2,60.0000022888184,0|2|0,0:2|0:2|0:2,0:0:0:0:
164,136,57100,6,0,B|97:132|97:132|89:123|89:123|19:102,2,128,2|2|2,3:2|3:1|3:2,0:2:0:0:
348,172,58225,1,2,3:2:0:0:
348,172,58600,6,0,B|380:163|380:163|419:195|419:195|493:206,2,128,2|2|2,3:2|3:1|3:2,0:2:0:0:
312,241,59537,1,0,0:0:0:0:
312,241,59725,1,2,3:2:0:0:
213,358,60100,6,0,P|165:368|132:296,2,128,2|2|2,3:2|3:1|3:2,0:2:0:0:
151,216,61225,1,2,3:2:0:0:
151,216,61600,6,0,P|126:161|66:166,2,128,2|2|2,3:2|3:1|3:2,0:2:0:0:
221,256,62537,1,0,0:0:0:0:
221,256,62725,1,2,3:2:0:0:
378,298,63100,6,0,L|482:392,1,128,2|2,3:2|3:1,0:2:0:0:
441,234,63850,2,0,L|470:96,1,128,2|2,3:2|3:1,0:2:0:0:
354,212,64600,2,0,L|220:254,1,128,2|2,3:2|3:1,0:2:0:0:
185,310,65162,5,8,0:2:0:0:
153,159,65537,1,8,0:2:0:0:
121,8,65912,1,8,0:2:0:0:
70,95,66100,6,0,P|30:102|-12:115,2,71.9999978027344,2|2|2,3:2|0:2|1:1,0:0:0:0:
129,147,66662,1,2,0:2:0:0:
194,102,66850,2,0,P|229:107|264:117,1,71.9999978027344,2|2,3:2|0:2,0:0:0:0:
307,51,67225,2,0,P|341:41|377:35,1,71.9999978027344,2|2,1:1|0:2,0:0:0:0:
476,15,67600,1,2,3:2:0:0:
476,15,67975,1,2,1:1:0:0:
511,85,68162,2,0,B|514:96|514:96|508:105|508:105|496:204|496:204|498:215|498:215|492:224,2,143.999995605469,8|8|10,0:2|0:2|0:2,0:0:0:0:
412,139,69100,6,0,P|341:150|271:171,1,143.999995605469,2|2,3:2|1:1,0:0:0:0:
201,208,69662,1,2,0:2:0:0:
240,276,69850,2,0,P|170:255|99:243,1,143.999995605469,2|2,3:2|1:1,0:0:0:0:
21,250,70412,1,2,0:2:0:0:
0,353,70600,1,2,3:2:0:0:
0,353,70975,1,8,1:2:0:0:
72,383,71162,2,0,B|81:377|81:377|92:379|92:379|191:367|191:367|200:361|200:361|211:364,2,143.999995605469,10|8|8,0:2|0:2|0:2,0:0:0:0:
89,286,72100,6,0,P|98:251|104:215,1,71.9999978027344,2|2,3:2|0:2,0:2:0:0:
175,178,72475,2,0,P|169:142|159:107,2,71.9999978027344,2|2|2,1:1|0:2|3:2,0:0:0:0:
228,236,73037,1,2,0:2:0:0:
291,188,73225,2,0,P|300:153|306:117,1,71.9999978027344,2|2,1:1|0:2,0:0:0:0:
258,23,73600,1,2,3:2:0:0:
258,23,73975,1,2,1:1:0:0:
179,34,74162,2,0,B|170:28|170:28|159:30|159:30|60:18|60:18|51:12|51:12|40:15,2,143.999995605469,10|10|10,0:2|0:2|0:2,0:0:0:0:
229,119,75100,6,0,P|238:153|244:189,1,71.9999978027344,2|2,3:2|0:2,0:0:0:0:
323,200,75475,2,0,P|332:234|338:270,1,71.9999978027344,2|2,1:1|0:2,0:0:0:0:
388,384,75850,2,0,P|393:348|403:313,1,71.9999978027344,2|2,3:2|0:2,0:0:0:0:
482,303,76225,2,0,P|494:228|514:156,1,143.999995605469,2|2,1:1|3:2,0:2:0:0:
512,162,76787,1,2,0:2:0:0:
494,9,77162,1,8,0:2:0:0:
494,9,77537,2,0,B|479:2|479:2|481:14|481:14|419:41,1,71.9999978027344,8|10,0:2|1:2,0:0:0:0:
224,171,78100,6,2,B|186:162|186:162|154:88|154:88|114:78,1,160,2|8,3:2|0:0,0:2:0:0:
18,25,78662,2,0,L|2:110,1,80,0|0,3:2|0:0,0:0:0:0:
54,187,79037,1,2,3:2:0:0:
54,187,79412,1,2,0:2:0:0:
0,253,79600,6,1,P|-8:261|12:261,8,40,2|0|1|1|1|1|1|0|2,3:2|3:2|3:2|3:2|3:2|3:2|3:2|3:0|1:1,0:2:0:0:
140,134,80350,1,0,0:2:0:0:
235,148,80537,1,2,3:2:0:0:
331,162,80725,2,0,B|326:123|375:113|366:44,1,120,2|0,1:1|0:0,0:2:0:0:
403,25,81100,6,2,B|441:34|441:34|473:108|473:108|512:117,1,160,2|8,3:2|0:0,0:2:0:0:
433,194,81662,2,0,L|418:272,1,80,0|0,3:2|0:0,0:0:0:0:
478,349,82037,1,2,3:2:0:0:
478,349,82412,1,2,0:2:0:0:
394,378,82600,6,1,P|367:368|340:396,8,40,2|0|1|1|1|1|1|0|2,3:2|3:2|3:2|3:2|3:2|3:2|3:2|3:0|1:1,3:2:0:0:
253,258,83350,1,0,0:2:0:0:
267,163,83537,1,2,3:2:0:0:
281,67,83725,2,0,L|198:32,1,80,2|0,1:1|0:2,0:0:0:0:
124,106,84100,6,0,B|114:145|114:145|40:177|40:177|31:215,1,160,0|8,3:2|0:0,0:0:0:0:
77,310,84662,2,0,L|165:330,1,80,0|0,3:2|0:0,0:0:0:0:
265,262,85037,2,0,L|187:245,1,80,0|8,3:2|0:0,0:0:0:0:
197,157,85412,1,2,0:2:0:0:
259,97,85600,6,1,P|260:67|278:43,8,40,2|0|1|1|1|1|1|0|2,3:2|3:2|3:2|3:2|3:2|3:2|3:2|3:0|1:1,3:2:0:0:
427,147,86350,1,0,0:2:0:0:
441,242,86537,1,2,3:2:0:0:
455,338,86725,2,0,B|389:337|408:381|322:374,1,120,2|0,1:1|0:0,0:2:0:0:
300,364,87100,6,2,B|290:324|290:324|216:292|216:292|207:254,1,160,2|8,3:2|0:0,0:2:0:0:
292,232,87662,2,0,B|282:192|282:192|208:160|208:160|199:122,1,160,0|2,0:0|3:2,0:0:0:0:
256,56,88225,1,2,1:1:0:0:
256,56,88412,1,2,0:2:0:0:
313,123,88600,6,2,B|304:161|304:161|230:193|230:193|220:232,1,160,2|8,3:2|0:0,0:2:0:0:
305,255,89162,2,0,B|296:293|296:293|258:309,1,80,0|8,0:0|0:2,0:0:0:0:
195,372,89537,2,0,B|204:332|204:332|240:316,1,80,0|8,3:0|0:2,0:0:0:0:
305,377,89912,1,8,0:2:0:0:
412,335,90100,6,0,B|432:314|432:314|415:286|415:286|421:187,1,160,2|8,3:2|0:0,0:0:0:0:
467,77,90662,2,0,B|448:88|448:88|390:84,1,80,0|0,3:0|0:2,0:0:0:0:
305,25,91037,1,2,3:2:0:0:
305,25,91412,1,2,0:2:0:0:
250,93,91600,6,1,L|261:162,8,40,2|0|1|1|1|1|1|0|2,3:2|3:2|3:2|3:2|3:2|3:2|3:2|3:0|1:1,3:2:0:0:
137,229,92350,5,0,0:2:0:0:
51,212,92538,1,2,3:2:0:0:
29,297,92725,2,0,B|68:364|83:307|142:364,1,120,2|0,1:1|0:0,0:2:0:0:
171,339,93100,6,2,B|192:318|192:318|219:335|219:335|318:329,1,160,2|8,3:2|0:0,0:2:0:0:
353,232,93662,2,0,B|338:216|338:216|281:205,1,80,0|0,3:0|0:2,0:0:0:0:
188,143,94037,1,2,3:2:0:0:
188,143,94412,1,2,0:2:0:0:
108,182,94600,6,1,L|49:193,8,40,2|0|1|1|1|1|1|0|2,3:2|3:2|3:2|3:2|3:2|3:2|3:2|3:0|1:1,3:2:0:0:
231,53,95350,5,0,0:2:0:0:
317,36,95538,1,2,3:2:0:0:
339,121,95725,2,0,L|424:141,1,80,2|2,1:1|0:2,0:0:0:0:
484,214,96100,6,0,B|504:235|504:235|487:262|487:262|493:361,1,160,2|8,3:2|0:0,0:2:0:0:
396,312,96662,2,0,B|380:326|380:326|369:383,1,80,0|2,3:2|0:2,0:0:0:0:
293,339,97037,1,0,3:2:0:0:
293,339,97412,1,2,3:2:0:0:
262,231,97600,6,1,L|248:157,8,40,2|0|1|1|1|1|1|0|2,3:2|3:2|3:2|3:2|3:2|3:2|3:2|3:0|1:1,3:2:0:0:
156,73,98350,5,0,0:2:0:0:
70,56,98538,1,2,3:2:0:0:
48,141,98725,2,0,B|95:166|69:210|123:236,1,120,2|0,1:1|0:0,0:2:0:0:
161,241,99100,6,2,B|200:231|200:231|232:157|232:157|270:148,1,160,6|8,3:2|0:0,0:2:0:0:
293,233,99662,2,0,B|332:223|332:223|364:149|364:149|402:140,1,160,0|2,0:0|3:2,0:0:0:0:
469,197,100225,1,2,1:1:0:0:
469,197,100412,1,2,0:2:0:0:
430,289,100600,6,0,B|392:280|392:280|375:242,1,80,8|8,3:2|0:2,0:0:0:0:
278,238,100975,6,0,B|266:200|266:200|291:167,1,80,8|8,1:2|3:2,0:0:0:0:
225,73,101350,6,0,B|251:44|251:44|292:49,1,80,8|8,3:2|0:2,0:0:0:0:
175,160,101725,6,0,B|148:188|148:188|107:183,1,80,8|8,1:2|0:2,0:0:0:0:
0,133,102100,5,6,3:2:0:0:
0,133,102287,1,0,3:2:0:0:
165,0,102662,6,0,L|345:0,1,180.000006866455,2|0,3:2|1:2,0:2:0:0:
512,164,103600,6,0,B|505:166|505:166|471:171|471:171|467:177|467:177|437:184,3,80,6|2|2|2,3:2|3:2|1:2|0:1,0:0:0:0:
386,291,104350,1,2,0:2:0:0:
386,291,104537,1,2,3:2:0:0:
307,331,104725,2,0,B|297:316|297:316|291:317|291:317|225:300,1,80,2|2,1:1|0:2,0:0:0:0:
192,205,105100,5,2,3:2:0:0:
192,205,105193,1,2,0:2:0:0:
192,205,105287,1,2,3:2:0:0:
248,137,105475,2,0,B|285:135|285:135|293:138|293:138|336:119,1,80,2|2,1:1|0:2,0:0:0:0:
184,17,106037,1,2,3:2:0:0:
108,63,106225,1,2,1:1:0:0:
83,147,106412,1,0,0:0:0:0:
117,262,106600,6,0,B|110:260|110:260|76:255|76:255|72:248|72:248|42:241,3,80,2|2|2|2,3:2|0:2|1:2|0:1,0:0:0:0:
13,370,107350,2,0,B|22:364|22:364|123:381,1,80,2|2,0:2|3:2,0:0:0:0:
165,329,107725,2,0,B|175:337|175:337|275:318,1,80,2|2,1:1|0:2,0:0:0:0:
350,367,108100,5,2,3:2:0:0:
350,367,108193,1,2,0:2:0:0:
350,367,108287,1,2,3:2:0:0:
407,299,108475,2,0,P|470:267|501:267,1,80,2|2,1:1|0:2,0:0:0:0:
305,196,109037,6,0,B|307:189|307:189|312:155|312:155|318:151|318:151|325:121,2,80,2|2|0,3:2|1:1|0:0,0:2:0:0:
226,137,109600,2,0,B|224:130|224:130|219:96|219:96|212:92|212:92|205:62,2,80,2|2|2,3:2|3:2|1:2,0:0:0:0:
319,196,110162,1,2,0:1:0:0:
306,286,110350,1,2,0:2:0:0:
306,286,110537,1,2,3:2:0:0:
219,266,110725,2,0,B|189:280|189:280|186:283|186:283|170:286|170:286|119:314,1,80,2|2,1:1|0:2,0:0:0:0:
61,250,111100,5,2,3:2:0:0:
61,250,111193,1,2,0:2:0:0:
61,250,111287,1,2,3:2:0:0:
77,163,111475,2,0,B|59:148|59:148|50:149|50:149|32:137|32:137|-23:115,1,80,2|2,1:1|0:2,0:0:0:0:
225,79,112037,1,2,3:2:0:0:
225,79,112225,1,2,1:1:0:0:
238,153,112412,1,0,0:0:0:0:
298,270,112600,6,0,L|219:289,5,80,2|2|2|2|2|2,3:2|0:2|1:2|0:1|0:2|3:2,0:0:0:0:
151,204,113725,1,2,1:1:0:0:
230,166,113912,1,2,0:2:0:0:
236,78,114100,2,0,P|218:16|112:39,1,160,2|2,3:2|1:1,0:0:0:0:
240,177,114850,2,0,L|300:193,2,40,0|0|0,3:2|3:2|3:2,0:0:0:0:
367,86,115225,5,0,1:2:0:0:
367,79,115318,1,0,1:2:0:0:
366,72,115412,1,0,1:2:0:0:
365,66,115506,1,0,1:2:0:0:
389,98,115600,6,0,B|390:99|390:99|389:98|389:98|390:97|390:97|389:96|389:96|390:97|390:97|391:95|391:95|391:96|391:96|391:95|391:95|392:94|392:94|391:94|391:94|392:94|392:94|392:93|392:93|393:93|393:93|392:93|392:93|393:91|393:91|392:91|392:91|393:91|393:91|394:90|394:90|395:91|395:91|394:90|394:90|395:89|395:89|394:88|394:88|395:89|395:89|396:87|396:87|396:88|396:88|396:87|396:87|397:86|397:86|396:86|396:86|397:86|397:86|397:85|397:85|398:85|398:85|397:85|397:85|398:83|398:83|397:83|397:83|398:83|398:83|399:82|399:82|400:83|400:83|399:82|399:82|400:81|400:81|399:80|399:80|400:81|400:81|401:80|401:80|401:80|401:80|401:80|401:80|402:78|402:78|401:78|401:78|402:78|402:78|402:77|402:77|403:77|403:77|402:77|402:77|403:76|403:76|402:75|402:75|403:76|403:76|404:74|404:74|405:75|405:75|404:74|404:74|405:73|405:73|404:72|404:72|405:73|405:73|406:72|406:72|406:72|406:72|406:72|406:72|407:70|407:70|406:70|406:70|407:70|407:70|407:69|407:69|408:69|408:69|407:69|407:69|408:68|408:68|407:67|407:67|408:68|408:68|409:66|409:66|410:67|410:67|409:66|409:66|410:65|410:65|409:64|409:64|410:65|410:65|411:64|411:64|412:64|412:64|411:64|411:64|412:62|412:62|411:62|411:62|412:62|412:62|412:61|412:61|413:62|413:62|412:61|412:61|413:60|413:60|412:59|412:59|413:60|413:60|414:58|414:58|415:59|415:59|414:58|414:58|415:57|415:57|414:57|414:57|415:57|415:57|416:56|416:56|417:56|417:56|416:56|416:56|417:54|417:54|416:54|416:54|417:54|417:54|417:53|417:53|418:54|418:54|417:53|417:53|418:52|418:52|417:51|417:51|418:52|418:52|419:50|419:50|420:51|420:51|419:50|419:50|420:49|420:49|419:49|419:49|420:49|420:49|421:48|421:48|422:48|422:48|421:48|421:48|422:46|422:46|421:46|421:46|422:46|422:46|422:45|422:45|423:46|423:46|422:45|422:45|423:44|423:44|422:43|422:43|423:44|423:44|424:43|424:43|425:43|425:43|424:43|424:43|425:41|425:41|424:41|424:41|425:41|425:41|426:40|426:40|427:40|427:40|426:40|426:40|427:39|427:39|426:38|426:38|427:39|427:39|427:37|427:37|428:38|428:38|427:37|427:37|428:36|428:36|427:35|427:35|428:36|428:36|429:35|429:35|430:35|430:35|429:35|429:35|430:33|430:33|429:33|429:33|430:33|430:33|431:32|431:32|432:32|432:32|431:32|431:32|432:31|432:31|431:30|431:30|432:31|432:31|432:30,5,203.021250402852,6|2|2|2|2|2,3:2|3:2|1:2|0:2|3:2|0:2,0:2:0:0:
413,188,116725,2,0,B|382:180|382:180|377:184|377:184|334:175,1,80,2|2,1:1|0:1,0:0:0:0:
287,110,117100,6,0,B|248:120|248:120|243:122|243:122|231:133|231:133|214:134|214:134|172:143,1,120,2|0,3:2|3:2,0:2:0:0:
149,110,117475,2,0,B|137:103|137:103|122:101|122:101|109:96|109:96|101:96|101:96|73:85,5,80,2|2|2|2|2|2,1:2|0:2|3:2|0:2|1:1|0:1,0:0:0:0:
19,168,118600,6,0,B|14:182|9:187|17:236|17:236|11:247,5,80,2|2|2|2|2|2,3:2|3:2|1:2|0:2|3:2|0:2,0:2:0:0:
98,216,119725,1,2,1:1:0:0:
115,294,119912,1,2,0:1:0:0:
133,373,120100,6,0,B|140:382|140:382|180:372|180:372|191:366|191:366|200:371|200:371|246:355,1,120,2|0,3:2|3:2,0:2:0:0:
284,346,120475,2,0,B|284:335|284:335|294:323|294:323|293:308|293:308|297:295|297:295|302:292|302:292|311:270,4,80,2|2|2|2|2,1:2|0:2|3:2|0:2|1:1,0:0:0:0:
397,298,121412,1,2,0:1:0:0:
478,222,121600,6,0,L|460:144,1,80,2|2,3:2|3:2,0:0:0:0:
365,203,121975,2,0,L|383:126,1,80,2|2,1:2|0:2,0:0:0:0:
484,208,122350,2,0,L|466:130,1,80,2|2,3:2|0:2,0:0:0:0:
409,45,122725,1,2,1:1:0:0:
333,19,122912,1,2,0:1:0:0:
273,74,123100,6,0,B|260:82|260:82|234:87|234:87|227:97|227:97|224:93|224:93|197:88|197:88|161:88,1,120,2|0,3:2|3:2,0:0:0:0:
121,80,123475,2,0,B|113:53|113:53|109:45|109:45|101:2,1,80,2|2,1:2|0:1,0:0:0:0:
26,199,124037,1,2,0:2:0:0:
26,199,124225,1,2,1:1:0:0:
26,199,124412,1,2,0:1:0:0:
93,266,124600,6,0,B|111:270|111:270|129:272|129:272|131:268|131:268|133:273|133:273|148:278|148:278|173:277,5,80,2|2|2|2|2|2,3:2|3:2|1:2|0:2|3:2|0:2,0:2:0:0:
222,215,125725,2,0,B|240:211|240:211|258:208|258:208|260:212|260:212|262:208|262:208|277:203|277:203|302:203,1,80,2|2,1:1|0:1,0:0:0:0:
381,134,126100,6,0,P|409:62|366:0,1,160,8|8,0:2|0:2,0:0:0:0:
366,0,126662,1,8,0:2:0:0:
281,46,126850,2,0,L|216:0,2,80,8|0|8,0:2|3:2|0:2,0:2:0:0:
287,204,127600,6,0,L|268:267,1,60.0000022888184,0|0,3:2|0:0,0:0:0:0:
270,261,128162,2,0,B|248:249|248:249|230:267|230:267|162:277,2,120.000004577637
357,151,129100,6,0,L|374:204,1,55.9999982910157,2|0,3:2|0:2,0:2:0:0:
375,204,129662,2,0,B|396:192|396:192|413:209|413:209|477:219,2,111.999996582031
290,249,130600,6,0,L|275:298,1,51.999997619629,2|0,3:2|0:2,0:2:0:0:
275,298,131162,2,0,B|256:287|256:287|241:303|241:303|182:311,2,103.999995239258
368,294,132100,6,0,L|382:339,1,47.9999985351563,2|0,3:2|0:2,0:2:0:0:
383,339,132662,2,0,B|401:329|401:329|415:343|415:343|470:351,2,95.9999970703126
289,337,133600,6,0,L|278:375,1,40,2|0,3:2|0:2,0:2:0:0:
278,375,134162,2,0,B|265:365|265:365|252:377|252:377|207:384,1,80,0|0,0:2|0:0,0:0:0:0:
