osu file format v14

[General]
AudioFilename: audio.mp3
AudioLeadIn: 0
PreviewTime: -1
Countdown: 1
SampleSet: None
StackLeniency: 0.7
Mode: 0
LetterboxInBreaks: 0
WidescreenStoryboard: 1

[Editor]
DistanceSpacing: 0.7
BeatDivisor: 4
GridSize: 4
TimelineZoom: 1

[Metadata]
Title:Kstati, Denis
TitleUnicode:Кстати, Денис
Artist:Ayyan Sea
ArtistUnicode:Ayyan Sea
Creator:Ayya Novak
Version:AR8 (for DT)
Source:
Tags:
BeatmapID:1655514
BeatmapSetID:788778

[Difficulty]
HPDrainRate:4
CircleSize:4
OverallDifficulty:8
ApproachRate:8
SliderMultiplier:1.8
SliderTickRate:2

[Events]
//Background and Video events
0,0,"bg.png",0,0
//Break Periods
//Storyboard Layer 0 (Background)
//Storyboard Layer 1 (Fail)
//Storyboard Layer 2 (Pass)
//Storyboard Layer 3 (Foreground)
//Storyboard Sound Samples

[TimingPoints]
0,500,4,1,0,100,1,0
0,-200,4,1,0,100,0,0
16000,-125,4,1,0,100,0,0
32000,-66.6666666666667,4,1,0,100,0,1
36000,-35.7142857142857,4,1,0,100,0,1
39000,-50,4,1,0,100,0,1
40000,-66.6666666666667,4,1,0,100,0,1
47250,-50,4,1,0,100,0,1
47750,-33.3333333333333,4,1,0,100,0,1
48000,-66.6666666666667,4,1,0,100,0,1
52000,-35.7142857142857,4,1,0,100,0,1
55000,-50,4,1,0,100,0,1
60000,-133.333333333333,4,1,0,100,0,0

[HitObjects]
64,108,0,6,0,P|140:80|116:232,1,315
124,156,2000,2,0,B|176:140|176:140|388:168|388:168|452:152,1,315
368,32,4000,2,0,L|408:360,1,315
196,264,6000,2,0,P|240:224|312:220,1,135
480,244,7000,2,0,P|436:284|364:288,1,135
440,168,8000,6,0,B|392:84|428:12|428:12|476:76|440:176,1,315
344,168,10000,2,0,B|212:100|180:244|44:156,1,315
212,276,12000,2,0,P|272:224|236:336,1,315
201,141,14000,6,0,L|212:280,1,135
344,168,15000,2,0,L|333:29,1,135
408,224,16000,5,0,0:0:0:0:
484,200,16125,1,0,0:0:0:0:
468,280,16250,1,0,0:0:0:0:
392,304,16375,1,0,0:0:0:0:
332,248,16500,2,0,L|284:232,1,36
212,272,16750,1,0,0:0:0:0:
212,272,16875,1,0,0:0:0:0:
216,148,17000,6,0,L|228:212,1,36
128,240,17250,2,0,L|116:176,1,36
210,112,17500,2,0,L|227:209,1,72
144,68,17875,1,0,0:0:0:0:
72,104,18000,5,0,0:0:0:0:
4,64,18125,1,0,0:0:0:0:
144,68,18250,1,0,0:0:0:0:
210,112,18375,1,0,0:0:0:0:
276,68,18500,6,0,L|280:20,1,36
320,152,18750,1,0,0:0:0:0:
320,152,18875,1,0,0:0:0:0:
404,104,19000,1,0,0:0:0:0:
444,172,19125,1,0,0:0:0:0:
420,276,19250,2,0,L|412:228,1,36
404,104,19500,1,0,0:0:0:0:
444,172,19625,1,0,0:0:0:0:
420,276,19750,2,0,L|412:228,1,36
484,104,20000,5,0,0:0:0:0:
372,340,20250,2,0,P|295:331|239:263,1,144
288,144,21000,2,0,L|280:224,1,72
196,224,21500,2,0,L|204:140,1,72
144,96,22000,5,0,0:0:0:0:
144,96,22250,1,0,0:0:0:0:
280,192,22750,5,0,0:0:0:0:
356,176,22875,1,0,0:0:0:0:
432,160,23000,1,0,0:0:0:0:
508,144,23125,1,0,0:0:0:0:
280,192,23250,1,0,0:0:0:0:
356,176,23375,1,0,0:0:0:0:
432,160,23500,1,0,0:0:0:0:
508,144,23625,1,0,0:0:0:0:
280,192,23750,2,0,L|276:252,1,36
312,336,24000,6,0,L|316:272,1,36
236,360,24250,1,0,0:0:0:0:
168,316,24375,1,0,0:0:0:0:
92,352,24500,2,0,L|96:272,1,72
60,208,24875,1,0,0:0:0:0:
92,352,25000,6,0,L|96:272,1,72
27,282,25375,2,0,P|68:290|115:258,1,72
136,176,25750,1,0,0:0:0:0:
228,228,26000,6,0,L|236:328,1,72
296,236,26375,2,0,P|254:239|214:215,1,72
272,152,26750,1,0,0:0:0:0:
364,328,27000,1,0,0:0:0:0:
496,200,27250,2,0,L|492:256,1,36
496,200,27750,2,0,L|492:256,1,36
336,112,28000,6,0,L|348:200,1,72
448,40,28500,2,0,L|439:136,1,72
336,112,29000,2,0,L|348:200,1,72
448,40,29500,2,0,L|439:136,1,72
256,192,30000,12,0,31750,0:0:0:0:
68,176,32000,6,0,L|84:280,1,67.5000025749208
156,104,32250,2,0,L|144:24,1,67.5000025749208
180,220,32500,2,0,P|220:232|268:224,1,67.5000025749208
320,180,32750,1,0,0:0:0:0:
404,216,32875,1,0,0:0:0:0:
308,88,33000,1,0,0:0:0:0:
392,124,33125,1,0,0:0:0:0:
156,104,33250,2,0,L|144:24,1,67.5000025749208
332,268,33500,6,0,L|348:360,1,67.5000025749208
476,160,33750,5,0,0:0:0:0:
476,160,33875,1,0,0:0:0:0:
380,36,34000,6,0,B|420:24|420:24|472:32,1,67.5000025749208
252,240,34250,2,0,B|212:252|212:252|160:244,1,67.5000025749208
476,160,34500,2,0,L|488:248,1,67.5000025749208
256,96,34750,1,0,0:0:0:0:
224,20,34875,1,0,0:0:0:0:
204,168,35000,1,0,0:0:0:0:
172,92,35125,1,0,0:0:0:0:
352,136,35250,2,0,L|344:232,1,67.5000025749208
180,315,35500,2,0,L|188:223,1,67.5000025749208
40,152,35750,5,0,0:0:0:0:
40,152,35875,1,0,0:0:0:0:
180,315,36000,6,0,L|196:144,1,125.999996154785
136,16,36250,2,0,L|120:187,1,125.999996154785
352,136,36500,2,0,P|292:100|208:116,1,125.999996154785
356,288,36750,2,0,P|416:275|460:231,1,125.999996154785
60,248,37000,5,0,0:0:0:0:
84,344,37125,1,0,0:0:0:0:
88,168,37250,1,0,0:0:0:0:
64,72,37375,1,0,0:0:0:0:
144,232,37500,1,0,0:0:0:0:
276,168,37625,1,0,0:0:0:0:
304,24,37750,1,0,0:0:0:0:
172,88,37875,1,0,0:0:0:0:
208,288,38000,5,0,0:0:0:0:
204,316,38125,1,0,0:0:0:0:
288,276,38250,1,0,0:0:0:0:
284,304,38375,1,0,0:0:0:0:
364,236,38500,5,0,0:0:0:0:
360,208,38625,1,0,0:0:0:0:
444,248,38750,1,0,0:0:0:0:
440,220,38875,1,0,0:0:0:0:
271,187,39000,2,0,L|291:295,1,90
408,144,39250,2,0,L|388:36,1,90
364,328,39500,2,0,P|412:356|476:348,1,90
320,116,39750,1,0,0:0:0:0:
320,116,39875,1,0,0:0:0:0:
184,160,40000,5,0,0:0:0:0:
148,156,40125,1,0,0:0:0:0:
112,152,40250,1,0,0:0:0:0:
76,148,40375,1,0,0:0:0:0:
88,228,40500,1,0,0:0:0:0:
124,232,40625,1,0,0:0:0:0:
160,236,40750,1,0,0:0:0:0:
196,240,40875,1,0,0:0:0:0:
264,196,41000,5,0,0:0:0:0:
300,200,41125,1,0,0:0:0:0:
336,204,41250,1,0,0:0:0:0:
372,208,41375,1,0,0:0:0:0:
384,288,41500,5,0,0:0:0:0:
348,284,41625,1,0,0:0:0:0:
312,280,41750,1,0,0:0:0:0:
276,276,41875,1,0,0:0:0:0:
372,208,42000,6,0,L|456:216,3,67.5000025749208
324,144,42500,1,0,0:0:0:0:
316,104,42625,1,0,0:0:0:0:
392,92,42750,1,0,0:0:0:0:
400,132,42875,1,0,0:0:0:0:
248,160,43000,6,0,L|232:64,3,67.5000025749208
200,224,43500,1,0,0:0:0:0:
208,264,43625,1,0,0:0:0:0:
136,264,43750,1,0,0:0:0:0:
128,224,43875,1,0,0:0:0:0:
48,160,44000,5,0,0:0:0:0:
72,172,44125,1,0,0:0:0:0:
59,196,44250,1,0,0:0:0:0:
35,184,44375,1,0,0:0:0:0:
108,76,44500,1,0,0:0:0:0:
100,101,44625,1,0,0:0:0:0:
126,109,44750,1,0,0:0:0:0:
135,83,44875,1,0,0:0:0:0:
184,160,45000,5,0,0:0:0:0:
228,172,45125,1,0,0:0:0:0:
268,148,45250,1,0,0:0:0:0:
220,132,45375,1,0,0:0:0:0:
372,212,45500,5,0,0:0:0:0:
328,200,45625,1,0,0:0:0:0:
288,224,45750,1,0,0:0:0:0:
336,240,45875,1,0,0:0:0:0:
344,124,46000,6,0,P|352:84|340:40,1,67.5000025749208
212,248,46250,2,0,P|207:281|215:313,1,67.5000025749208
268,148,46500,2,0,P|236:124|190:121,1,67.5000025749208
288,224,46750,2,0,P|324:252|369:255,1,67.5000025749208
408,208,47000,1,0,0:0:0:0:
408,208,47125,1,0,0:0:0:0:
152,180,47250,6,0,P|100:192|60:236,1,90
148,264,47500,2,0,P|108:300|96:358,1,90
114,91,47750,2,0,P|78:151|78:239,1,135.000005149842
288,224,48000,6,0,P|304:264|348:288,1,67.5000025749208
468,148,48250,2,0,P|480:108|472:68,1,67.5000025749208
308,40,48500,2,0,P|268:28|224:32,1,67.5000025749208
360,160,48750,1,0,0:0:0:0:
364,124,48875,1,0,0:0:0:0:
220,272,49000,1,0,0:0:0:0:
216,308,49125,1,0,0:0:0:0:
144,148,49250,2,0,P|100:152|60:180,1,67.5000025749208
344,288,49500,2,0,P|377:286|408:273,1,67.5000025749208
52,232,49750,1,0,0:0:0:0:
52,232,49875,1,0,0:0:0:0:
20,96,50000,6,0,L|28:8,1,67.5000025749208
222,240,50250,2,0,L|214:328,1,67.5000025749208
196,56,50500,2,0,B|232:44|232:44|272:52,1,67.5000025749208
404,144,50750,1,0,0:0:0:0:
412,176,50875,1,0,0:0:0:0:
132,160,51000,1,0,0:0:0:0:
124,128,51125,1,0,0:0:0:0:
280,300,51250,2,0,B|244:312|244:312|200:304,1,67.5000025749208
464,244,51500,2,0,L|456:320,1,67.5000025749208
372,28,51750,1,0,0:0:0:0:
372,28,51875,1,0,0:0:0:0:
211,181,52000,6,0,L|192:24,1,125.999996154785
471,185,52250,2,0,L|453:338,1,125.999996154785
324,88,52500,2,0,P|384:60|456:72,1,125.999996154785
332,284,52750,2,0,P|272:312|200:300,1,125.999996154785
372,184,53000,5,0,0:0:0:0:
472,232,53125,1,0,0:0:0:0:
268,200,53250,1,0,0:0:0:0:
168,152,53375,1,0,0:0:0:0:
72,208,53500,1,0,0:0:0:0:
116,348,53625,1,0,0:0:0:0:
268,200,53750,1,0,0:0:0:0:
224,56,53875,1,0,0:0:0:0:
244,324,54000,5,0,0:0:0:0:
276,332,54125,1,0,0:0:0:0:
368,276,54250,1,0,0:0:0:0:
336,268,54375,1,0,0:0:0:0:
268,200,54500,1,0,0:0:0:0:
236,192,54625,1,0,0:0:0:0:
328,136,54750,1,0,0:0:0:0:
360,144,54875,1,0,0:0:0:0:
232,92,55000,6,0,L|224:0,1,90
440,92,55250,2,0,L|448:184,1,90
141,25,55500,2,0,P|181:1|233:5,1,90
268,184,55750,1,0,0:0:0:0:
268,184,55875,1,0,0:0:0:0:
128,324,56000,5,0,0:0:0:0:
88,316,56125,1,0,0:0:0:0:
48,308,56250,1,0,0:0:0:0:
8,300,56375,1,0,0:0:0:0:
68,180,56500,1,0,0:0:0:0:
80,236,56625,1,0,0:0:0:0:
144,188,56750,1,0,0:0:0:0:
132,132,56875,1,0,0:0:0:0:
212,232,57000,5,0,0:0:0:0:
252,224,57125,1,0,0:0:0:0:
292,216,57250,1,0,0:0:0:0:
332,208,57375,1,0,0:0:0:0:
244,92,57500,1,0,0:0:0:0:
256,148,57625,1,0,0:0:0:0:
320,104,57750,1,0,0:0:0:0:
308,48,57875,1,0,0:0:0:0:
296,292,58000,5,0,0:0:0:0:
296,292,58125,1,0,0:0:0:0:
296,292,58250,1,0,0:0:0:0:
296,292,58375,1,0,0:0:0:0:
408,204,58500,1,0,0:0:0:0:
408,204,58625,1,0,0:0:0:0:
408,204,58750,1,0,0:0:0:0:
408,204,58875,1,0,0:0:0:0:
256,148,59000,5,0,0:0:0:0:
256,148,59125,1,0,0:0:0:0:
256,148,59250,1,0,0:0:0:0:
256,148,59375,1,0,0:0:0:0:
152,260,59500,1,0,0:0:0:0:
152,260,59625,1,0,0:0:0:0:
152,260,59750,1,0,0:0:0:0:
152,260,59875,1,0,0:0:0:0:
52,196,60000,6,0,L|44:124,1,67.5000025749208
136,96,60500,2,0,L|143:163,1,67.5000025749208
224,204,61000,2,0,P|264:212|304:204,1,67.5000025749208
428,152,61500,2,0,P|388:144|348:152,1,67.5000025749208
272,304,62000,5,0,0:0:0:0:
280,336,62250,1,0,0:0:0:0:
290,208,62500,1,0,0:0:0:0:
180,272,62750,1,0,0:0:0:0:
64,208,63000,1,0,0:0:0:0:
56,176,63250,1,0,0:0:0:0:
148,188,63500,1,0,0:0:0:0:
148,188,63750,1,0,0:0:0:0:
0,268,64000,5,0,0:0:0:0:
