osu file format v14

[General]
AudioFilename: audio.mp3
AudioLeadIn: 0
PreviewTime: 60964
Countdown: 1
SampleSet: Soft
StackLeniency: 0.7
Mode: 0
LetterboxInBreaks: 0
WidescreenStoryboard: 0

[Editor]
DistanceSpacing: 0.7
BeatDivisor: 4
GridSize: 8
TimelineZoom: 2.4

[Metadata]
Title:crazy blood to you
TitleUnicode:crazy blood to you
Artist:Ayumi.
ArtistUnicode:Ayumi.
Creator:Cellina
Version:Autumn Love
Source:アキウソ -The only neat thing to do-
Tags:
BeatmapID:1130135
BeatmapSetID:533459

[Difficulty]
HPDrainRate:6
CircleSize:4
OverallDifficulty:8.5
ApproachRate:9.2
SliderMultiplier:1.8
SliderTickRate:1

[Events]
//Background and Video events
0,0,"maxresdefault.jpg",0,0
//Break Periods
//Storyboard Layer 0 (Background)
//Storyboard Layer 1 (Fail)
//Storyboard Layer 2 (Pass)
//Storyboard Layer 3 (Foreground)
//Storyboard Sound Samples

[TimingPoints]
1126,329.67032967033,4,2,1,30,1,0
1126,-125,4,2,1,30,0,0
5576,-125,4,2,1,40,0,0
6400,-100,4,2,1,60,0,0
16950,-111.111111111111,4,2,1,30,0,0
26675,-100,4,2,1,50,0,0
38049,-111.111111111111,4,2,1,40,0,0
48598,-125,4,2,1,40,0,0
53873,-100,4,2,1,50,0,0
56840,-111.111111111111,4,2,1,50,0,0
60961,-133.333333333333,4,2,1,50,0,0
61785,-90.9090909090909,4,2,1,70,0,0
88158,-100,4,2,1,50,0,0
96071,-125,4,2,1,50,0,0

[HitObjects]
184,243,1126,5,2,0:0:0:0:
246,311,1290,1,0,0:0:0:0:
350,214,1455,2,0,P|310:223|256:230,1,72,0|2,0:0|0:0,0:0:0:0:
96,160,1785,1,0,0:0:0:0:
175,99,1950,2,0,P|210:104|245:112,1,72,0|2,0:0|0:0,0:0:0:0:
259,120,2444,6,0,L|266:35,1,72,2|0,0:0|0:0,0:0:0:0:
399,172,2774,1,0,0:0:0:0:
334,230,2939,1,0,0:0:0:0:
248,217,3104,2,0,P|190:210|147:207,1,72,2|0,0:0|0:0,0:0:0:0:
363,305,3433,2,0,P|398:301|434:296,1,72,2|0,0:0|0:0,0:0:0:0:
269,371,3763,6,0,P|270:321|280:279,1,72,2|0,0:0|0:0,0:0:0:0:
248,217,4093,2,0,P|247:167|237:125,1,72,0|2,0:0|0:0,0:0:0:0:
321,76,4422,2,0,P|364:79|408:83,1,72
225,39,4752,1,2,0:0:0:0:
210,50,5082,5,2,0:0:0:0:
82,108,5246,2,0,P|95:151|108:201,1,72
132,349,5576,1,6,0:0:0:0:
42,241,5741,1,0,0:0:0:0:
219,292,5906,1,0,0:0:0:0:
225,112,6071,5,0,1:0:0:0:
225,112,6153,1,0,1:0:0:0:
225,112,6235,1,0,1:0:0:0:
225,112,6318,1,0,1:0:0:0:
225,112,6400,6,0,L|218:298,1,180,6|8,0:0|0:0,0:0:0:0:
373,242,6895,2,0,P|345:229|307:217,1,45
142,190,7060,1,10,0:0:0:0:
326,334,7224,1,8,0:0:0:0:
347,338,7554,6,0,P|431:327|460:220,1,180,6|2,0:0|0:0,0:0:0:0:
308,125,8049,1,8,0:0:0:0:
447,59,8213,2,0,P|440:108|431:179,1,90,2|0,0:0|0:0,0:0:0:0:
247,276,8543,2,0,P|240:231|233:187,1,90,0|10,0:0|0:0,0:0:0:0:
212,76,8873,1,0,0:0:0:0:
116,355,9038,6,0,B|173:340|173:340|231:368|231:368|305:361,1,180,6|8,0:0|0:0,0:0:0:0:
395,226,9532,2,0,L|384:169,1,45
345,70,9697,1,10,0:0:0:0:
247,276,9862,1,8,0:0:0:0:
247,276,10191,6,0,P|337:274|385:360,1,180,6|0,0:0|0:0,0:0:0:0:
143,350,10686,2,0,P|137:282|135:236,1,90,8|0,0:0|0:0,0:0:0:0:
231,53,11016,1,2,0:0:0:0:
231,53,11126,2,0,P|230:89|225:137,1,60,2|0,0:0|0:0,0:0:0:0:
49,203,11345,2,0,P|46:173|46:143,2,60,10|0|0,0:0|0:0|0:0,0:0:0:0:
95,64,11675,5,6,0:0:0:0:
95,64,12994,5,2,0:0:0:0:
103,80,13488,2,0,P|116:169|66:205,1,135,2|0,0:0|0:0,0:0:0:0:
56,214,13818,2,0,P|88:227|121:244,1,45
219,351,13983,2,0,B|247:316|247:316|216:212,1,135,2|0,0:0|0:0,0:0:0:0:
209,198,14312,5,8,0:0:0:0:
393,248,14477,1,0,0:0:0:0:
244,106,14642,1,8,0:0:0:0:
445,55,14807,1,0,0:0:0:0:
292,254,14972,5,8,0:0:0:0:
211,30,15136,1,0,0:0:0:0:
87,184,15301,1,8,0:0:0:0:
328,77,15466,1,0,0:0:0:0:
109,294,15631,5,8,0:0:0:0:
85,68,15796,1,0,0:0:0:0:
188,249,15961,1,8,0:0:0:0:
213,8,16126,1,0,0:0:0:0:
87,184,16290,5,8,0:0:0:0:
337,248,16455,1,0,0:0:0:0:
246,81,16620,1,8,0:0:0:0:
182,331,16785,1,8,0:0:0:0:
421,361,16950,6,0,B|412:311|412:311|430:255|430:255|413:188,1,161.999995056153,6|0,0:0|0:0,0:0:0:0:
355,129,17444,2,0,P|270:158|176:171,1,161.999995056153,2|0,0:0|0:0,0:0:0:0:
339,283,17939,2,0,P|393:282|439:289,1,80.9999975280763,2|0,0:0|0:0,0:0:0:0:
248,362,18268,6,0,P|194:297|94:308,1,161.999995056153,2|0,0:0|0:0,0:0:0:0:
29,328,18763,2,0,B|-8:259|70:241|12:155,1,161.999995056153,2|0,0:0|0:0,0:0:0:0:
157,76,19257,1,2,0:0:0:0:
33,49,19422,1,0,0:0:0:0:
135,195,19587,6,0,P|177:186|217:173,1,80.9999975280763,2|0,0:0|0:0,0:0:0:0:
309,46,19917,2,0,L|298:126,1,80.9999975280763,2|0,0:0|0:0,0:0:0:0:
301,231,20246,1,2,0:0:0:0:
301,231,20411,2,0,P|346:218|403:216,1,80.9999975280763,2|0,0:0|0:0,0:0:0:0:
214,366,20741,1,0,0:0:0:0:
214,366,20823,1,0,0:0:0:0:
214,366,20906,6,0,B|201:331|210:306|210:306|196:280|196:280|213:245|199:192,1,161.999995056153,2|0,0:0|0:0,0:0:0:0:
41,169,21400,2,0,P|123:153|147:105,1,121.499996292114,2|0,0:0|0:0,0:0:0:0:
154,92,21730,1,2,0:0:0:0:
245,59,21895,1,2,0:0:0:0:
292,144,22060,1,0,0:0:0:0:
353,69,22224,6,0,P|389:143|349:222,1,161.999995056153,2|0,0:0|0:0,0:0:0:0:
183,257,22719,1,0,0:0:0:0:
276,317,22884,2,0,P|275:261|270:217,2,80.9999975280763,2|2|0,0:0|0:0|0:0,0:0:0:0:
102,221,23378,6,0,B|128:178|128:178|248:151,1,161.999995056153,2|0,0:0|0:0,0:0:0:0:
401,71,23873,2,0,P|356:62|311:60,1,80.9999975280763,2|0,0:0|0:0,0:0:0:0:
366,203,24202,2,0,P|411:212|456:214,1,80.9999975280763,2|0,0:0|0:0,0:0:0:0:
336,348,24532,2,0,P|321:304|300:264,1,80.9999975280763,2|0,0:0|0:0,0:0:0:0:
221,223,24862,6,0,P|214:136|289:93,1,161.999995056153,2|0,0:0|0:0,0:0:0:0:
297,176,25356,1,0,0:0:0:0:
360,28,25521,2,0,P|303:18|255:4,1,80.9999975280763,2|0,0:0|0:0,0:0:0:0:
184,36,25851,2,0,P|127:46|79:60,1,80.9999975280763,0|2,0:0|0:0,0:0:0:0:
15,219,26180,6,0,B|66:213|66:213|119:234|119:234|197:226,1,161.999995056153,2|0,0:0|0:0,0:0:0:0:
244,95,26675,1,10,0:3:0:0:
257,104,27005,5,8,0:3:0:0:
237,342,27169,1,8,0:3:0:0:
139,152,27334,1,8,0:3:0:0:
364,244,27499,6,0,B|402:223|402:223|252:202,1,180,6|8,0:0|0:0,0:0:0:0:
79,332,27994,2,0,P|129:329|189:291,1,90,2|0,0:0|0:0,0:0:0:0:
32,238,28323,1,0,0:0:0:0:
181,103,28488,2,0,L|168:205,1,90,10|0,0:0|0:0,0:0:0:0:
361,331,28818,6,0,B|351:272|351:272|369:214|369:214|358:148,1,180,2|8,0:0|0:0,0:0:0:0:
500,72,29312,2,0,B|432:116|412:8|312:60,1,180,2|0,0:0|0:0,0:0:0:0:
159,177,29807,1,10,0:0:0:0:
228,22,29972,1,2,0:0:0:0:
280,197,30136,6,0,L|275:291,1,90,2|0,0:0|0:0,0:0:0:0:
63,210,30466,2,0,P|58:166|50:118,1,90,8|0,0:0|0:0,0:0:0:0:
30,322,30796,1,2,0:0:0:0:
132,364,30961,2,0,P|210:354|250:353,1,90,2|8,0:0|0:0,0:0:0:0:
428,258,31290,6,0,B|363:249|363:249|318:208|318:208|238:195,1,180,2|0,0:0|0:0,0:0:0:0:
404,66,31785,2,0,L|406:189,1,90,10|0,0:0|0:0,0:0:0:0:
275,286,32115,1,2,0:0:0:0:
506,355,32279,2,0,L|513:159,1,180,2|0,0:0|0:0,0:0:0:0:
275,286,32774,6,0,B|243:314|243:314|398:337,1,180,2|8,0:0|0:0,0:0:0:0:
385,114,33268,2,0,L|372:218,1,90,2|0,0:0|0:0,0:0:0:0:
183,78,33598,1,2,0:0:0:0:
322,42,33763,1,10,0:0:0:0:
220,202,33928,6,0,B|143:237|128:145|29:192,1,180,2|0,0:0|0:0,0:0:0:0:
83,356,34422,2,0,P|87:298|87:246,1,90,10|0,0:0|0:0,0:0:0:0:
181,28,34752,2,0,P|181:72|185:117,1,90,2|0,0:0|0:0,0:0:0:0:
424,217,35082,2,0,P|355:152|298:165,1,135,10|0,0:0|0:0,0:0:0:0:
284,175,35411,6,0,L|300:281,1,90,6|0,0:0|0:0,0:0:0:0:
83,356,35741,2,0,L|96:267,1,90,8|0,0:0|0:0,0:0:0:0:
266,361,36071,2,0,P|350:352|388:303,1,135,2|0,0:0|0:0,0:0:0:0:
394,285,36400,1,8,0:0:0:0:
179,325,36565,1,2,0:0:0:0:
251,118,36730,5,2,3:0:0:0:
468,181,36895,1,2,3:0:0:0:
215,220,37060,1,12,0:0:0:0:
385,25,37224,2,0,L|381:80,1,45
369,246,37389,5,2,3:0:0:0:
197,86,37554,1,0,0:0:0:0:
197,86,37636,2,0,P|211:161|215:231,1,135,2|0,0:0|0:0,0:0:0:0:
18,255,38049,6,0,P|106:260|140:328,1,161.999995056153,6|0,0:0|0:0,0:0:0:0:
213,367,38543,1,0,0:0:0:0:
296,335,38708,2,0,P|293:289|285:240,1,80.9999975280763
355,195,39038,2,0,P|358:149|366:100,1,80.9999975280763,0|2,0:0|0:0,0:0:0:0:
230,185,39367,6,0,P|144:209|81:153,2,161.999995056153,2|2|2,0:0|0:0|0:0,0:0:0:0:
83,58,40191,1,0,0:0:0:0:
186,36,40356,2,0,P|174:86|169:144,1,80.9999975280763,2|0,0:0|0:0,0:0:0:0:
230,185,40686,6,0,B|279:182|279:182|338:204|338:204|399:200,1,161.999995056153,2|0,0:0|0:0,0:0:0:0:
469,52,41180,2,0,P|389:49|352:113,1,161.999995056153,2|0,0:0|0:0,0:0:0:0:
486,228,41675,2,0,P|495:161|507:115,1,80.9999975280763,2|0,0:0|0:0,0:0:0:0:
486,228,42005,6,0,B|411:187|401:279|310:232,1,161.999995056153,2|0,0:0|0:0,0:0:0:0:
439,384,42499,2,0,P|442:337|449:297,1,80.9999975280763,2|0,0:0|0:0,0:0:0:0:
364,74,42829,1,0,0:0:0:0:
357,162,42994,1,2,0:0:0:0:
285,112,43158,1,2,0:0:0:0:
169,246,43323,6,0,L|343:240,1,161.999995056153,2|0,0:0|0:0,0:0:0:0:
169,246,43983,2,0,P|181:160|109:126,1,161.999995056153,2|0,0:0|0:0,0:0:0:0:
49,301,44477,1,2,0:0:0:0:
9,220,44642,6,0,P|50:211|94:206,1,80.9999975280763,2|0,0:0|0:0,0:0:0:0:
169,246,44972,2,0,P|210:255|254:260,1,80.9999975280763,2|0,0:0|0:0,0:0:0:0:
309,194,45301,2,0,P|300:154|295:114,2,80.9999975280763,2|0|0,0:0|0:0|0:0,0:0:0:0:
457,353,45961,6,0,L|472:180,1,161.999995056153,2|0,0:0|0:0,0:0:0:0:
290,81,46455,1,0,0:0:0:0:
422,32,46620,2,0,P|416:90|408:136,1,80.9999975280763,0|2,0:0|0:0,0:0:0:0:
282,206,46950,1,0,0:0:0:0:
196,62,47115,1,2,0:0:0:0:
120,214,47279,6,0,L|296:205,1,161.999995056153,0|2,0:0|0:0,0:0:0:0:
347,335,47774,1,0,0:0:0:0:
413,110,47939,2,0,L|300:104,2,80.9999975280763,2|2|0,0:0|0:0|0:0,0:0:0:0:
207,95,48598,5,2,0:0:0:0:
218,109,49917,2,0,P|230:184|139:235,1,180,2|0,0:0|0:0,0:0:0:0:
139,243,50411,2,0,P|222:251|318:275,1,180
328,280,50906,2,0,L|322:193,1,72,2|0,0:0|0:0,0:0:0:0:
312,73,51235,5,2,0:0:0:0:
317,79,51895,2,0,P|396:86|443:28,1,144,2|0,0:0|0:0,0:0:0:0:
438,43,52554,6,0,B|385:120|485:171|414:259,1,216,2|0,0:0|0:0,0:0:0:0:
358,188,53213,5,8,0:0:0:0:
512,238,53378,1,0,0:0:0:0:
316,309,53543,5,8,0:0:0:0:
500,244,53708,1,8,0:0:0:0:
237,206,53873,6,0,P|175:201|109:210,1,90,4|0,0:0|0:0,0:0:0:0:
59,244,54202,1,10,0:0:0:0:
271,118,54367,6,0,P|221:80|160:53,1,90
99,55,54696,1,0,0:0:0:0:
99,55,54862,1,10,0:0:0:0:
367,31,55027,6,0,L|360:147,1,90
358,284,55356,1,0,0:0:0:0:
358,284,55521,1,8,0:0:0:0:
496,243,55686,6,0,B|407:257|421:186|323:197,1,180,4|0,0:0|0:0,0:0:0:0:
227,358,56180,2,0,P|314:352|347:304,1,135,8|0,0:0|0:0,0:0:0:0:
358,284,56510,5,6,0:0:0:0:
127,195,56840,2,0,L|138:296,1,80.9999975280763
294,107,57169,1,10,0:0:0:0:
286,187,57334,6,0,L|294:106,1,80.9999975280763
215,236,57664,1,0,0:0:0:0:
126,117,57829,6,0,B|117:157|117:157|130:205,1,80.9999975280763,2|8,0:0|0:0,0:0:0:0:
201,44,58158,1,0,0:0:0:0:
295,187,58323,2,0,B|304:146|304:146|293:108,1,80.9999975280763,2|8,0:0|0:0,0:0:0:0:
206,158,58653,1,0,0:0:0:0:
79,31,58818,6,0,L|123:35,1,40.4999987640381,10|0,0:0|0:0,0:0:0:0:
374,48,58983,1,10,0:0:0:0:
178,316,59147,5,0,0:0:0:0:
209,13,59312,1,10,0:0:0:0:
306,206,59477,1,10,0:0:0:0:
79,176,59642,5,0,0:0:0:0:
449,132,59807,1,8,0:0:0:0:
79,176,59972,1,8,0:0:0:0:
295,358,60136,5,0,0:0:0:0:
459,237,60301,2,0,B|392:257|379:186|302:206,1,161.999995056153,8|8,0:0|0:0,0:0:0:0:
156,263,60796,1,8,0:0:0:0:
221,37,60961,6,0,L|216:114,1,67.5000025749208,2|2,0:0|0:0,0:0:0:0:
165,166,61290,1,0,0:0:0:0:
310,272,61455,2,0,L|305:204,1,67.5000025749208,2|2,0:0|0:0,0:0:0:0:
14,342,61785,6,0,B|100:295|132:392|230:323,1,198.000006042481,6|8,1:2|0:0,0:0:0:0:
399,263,62279,1,0,0:0:0:0:
165,166,62444,2,0,P|155:224|157:269,1,99.0000030212403,2|2,0:0|1:2,0:0:0:0:
309,93,62774,1,10,0:0:0:0:
118,74,62939,6,0,B|176:67|176:67|260:99|260:99|326:92,1,198.000006042481,2|0,0:0|0:0,0:0:0:0:
464,294,63433,2,0,B|435:336|435:336|415:289,1,99.0000030212403,10|0,0:0|0:0,0:0:0:0:
357,97,63763,2,0,B|336:52|336:52|309:94,1,99.0000030212403,2|0,0:0|1:0,0:0:0:0:
160,325,64093,2,0,P|208:337|269:295,1,99.0000030212403,10|0,0:0|0:0,0:0:0:0:
56,219,64422,6,0,B|15:193|15:193|182:178,1,198.000006042481,2|10,1:2|0:0,0:0:0:0:
389,64,64917,2,0,P|307:11|222:77,1,198.000006042481,2|0,0:0|1:0,0:0:0:0:
313,284,65411,1,10,0:0:0:0:
313,284,65576,6,0,B|269:200|357:191|304:83,1,198.000006042481,0|2,0:0|0:0,0:0:0:0:
412,221,66071,1,8,0:0:0:0:
197,176,66235,1,0,0:0:0:0:
421,124,66400,2,0,P|426:173|413:221,1,99.0000030212403,2|0,0:0|1:0,0:0:0:0:
272,365,66730,2,0,L|154:356,1,99.0000030212403,14|0,0:0|0:0,0:0:0:0:
49,242,67060,6,0,B|101:237|101:237|181:265|181:265|269:258,1,198.000006042481,4|10,1:2|0:0,0:0:0:0:
447,93,67554,1,2,0:0:0:0:
189,60,67719,2,0,P|174:117|209:177,1,99.0000030212403,2|0,0:0|1:0,0:0:0:0:
432,291,68049,1,8,0:0:0:0:
432,291,68213,6,0,L|449:75,1,198.000006042481,2|2,0:0|0:0,0:0:0:0:
510,335,68708,1,8,0:0:0:0:
510,335,68873,2,0,P|417:379|346:311,1,198.000006042481,2|0,0:0|1:0,0:0:0:0:
259,87,69367,1,8,0:0:0:0:
512,205,69532,1,2,0:0:0:0:
215,275,69697,6,0,B|193:262|193:262|192:156,1,99.0000030212403,4|2,1:2|0:0,0:0:0:0:
243,3,70027,1,10,0:0:0:0:
434,246,70191,1,0,0:0:0:0:
95,98,70356,5,12,0:0:0:0:
421,75,70521,1,0,1:0:0:0:
82,239,70686,5,8,0:0:0:0:
434,246,70851,1,0,0:0:0:0:
243,3,71016,5,12,0:0:0:0:
272,355,71180,1,8,0:0:0:0:
512,228,71510,6,0,B|414:212|438:293|307:269,1,198.000006042481,4|0,0:0|0:0,0:0:0:0:
192,84,72005,1,8,0:0:0:0:
239,72,72087,1,0,0:0:0:0:
287,82,72169,1,0,0:0:0:0:
326,112,72252,1,0,0:0:0:0:
345,157,72334,5,6,1:2:0:0:
133,337,72664,2,0,L|140:229,1,99.0000030212403,8|2,0:0|0:0,0:0:0:0:
154,36,72994,1,0,0:0:0:0:
337,228,73158,1,0,1:0:0:0:
39,284,73323,1,10,0:0:0:0:
315,154,73488,6,0,P|390:207|319:218,1,198.000006042481,2|0,0:0|0:0,0:0:0:0:
290,37,73983,2,0,P|340:21|399:36,1,99.0000030212403,10|0,0:0|0:0,0:0:0:0:
386,344,74312,2,0,P|337:351|291:335,1,99.0000030212403,2|0,0:0|1:0,0:0:0:0:
104,234,74642,2,0,L|112:119,1,99.0000030212403,10|0,0:0|0:0,0:0:0:0:
452,96,74972,6,0,P|505:186|444:263,1,198.000006042481,2|10,1:2|0:0,0:0:0:0:
217,188,75466,2,0,B|296:137|331:235|416:174,1,198.000006042481,2|2,0:0|1:2,0:0:0:0:
347,12,75961,1,8,0:0:0:0:
267,267,76126,6,0,P|170:280|121:181,1,198.000006042481,2|2,0:0|0:0,0:0:0:0:
210,50,76620,2,0,B|245:14|245:14|259:65,1,99.0000030212403,10|0,0:0|0:0,0:0:0:0:
267,267,76950,2,0,B|302:303|302:303|316:252,1,99.0000030212403,2|0,0:0|1:2,0:0:0:0:
483,70,77279,2,0,P|428:60|389:101,1,99.0000030212403,14|0,0:0|0:0,0:0:0:0:
467,344,77609,6,0,L|450:117,1,198.000006042481,4|10,1:2|0:0,0:0:0:0:
336,0,78104,1,2,0:0:0:0:
261,194,78268,2,0,P|262:265|303:192,1,198.000006042481,2|10,0:0|0:0,0:0:0:0:
183,318,78763,6,0,P|272:364|381:299,1,198.000006042481,2|2,0:0|0:0,0:0:0:0:
310,40,79257,1,8,0:0:0:0:
103,185,79422,2,0,B|149:266|46:273|102:385,1,198.000006042481,2|0,0:0|1:2,0:0:0:0:
30,237,79917,2,0,P|17:175|43:122,1,99.0000030212403,8|2,0:0|0:0,0:0:0:0:
77,69,80164,1,2,0:0:0:0:
77,69,80246,6,0,L|207:79,1,99.0000030212403,14|0,1:2|0:0,0:0:0:0:
135,259,80576,2,0,L|265:249,1,99.0000030212403,8|0,0:0|0:0,0:0:0:0:
512,216,80906,1,8,0:0:0:0:
288,100,81071,1,0,1:2:0:0:
280,368,81235,1,8,0:0:0:0:
357,49,81565,6,0,P|248:22|204:89,1,198.000006042481,6|0,0:0|0:0,0:0:0:0:
439,349,82060,2,0,L|452:136,1,198.000006042481,6|0,0:0|0:0,0:0:0:0:
162,243,82554,2,0,L|168:342,1,99.0000030212403
310,200,82884,5,4,0:0:0:0:
321,215,84202,5,0,0:0:0:0:
336,232,85521,5,2,0:0:0:0:
351,249,86840,5,0,0:0:0:0:
286,50,87499,5,8,3:0:0:0:
249,320,87664,1,2,3:0:0:0:
502,218,87829,1,2,3:0:0:0:
84,223,88158,6,0,L|272:201,1,180,4|8,0:0|0:0,0:0:0:0:
402,66,88653,1,0,0:0:0:0:
280,12,88818,2,0,P|276:70|278:125,1,90,0|8,0:0|0:0,0:0:0:0:
393,186,89147,2,0,P|397:244|395:299,1,90,2|0,0:0|0:0,0:0:0:0:
277,370,89477,6,0,P|321:284|428:293,1,180,2|8,0:0|0:0,0:0:0:0:
371,361,89972,1,2,0:0:0:0:
192,194,90136,2,0,P|186:250|168:309,1,90,0|8,0:0|0:0,0:0:0:0:
147,119,90466,2,0,P|188:103|270:157,1,135,2|0,0:0|0:0,0:0:0:0:
281,174,90796,5,0,0:0:0:0:
70,243,90961,1,8,0:0:0:0:
390,231,91126,5,8,0:0:0:0:
147,119,91290,1,8,0:0:0:0:
451,101,91455,5,8,0:0:0:0:
220,300,91620,1,8,0:0:0:0:
506,337,91785,5,8,0:0:0:0:
290,34,91950,1,8,0:0:0:0:
183,384,92115,5,4,0:0:0:0:
481,247,93433,6,0,L|280:235,1,180,6|8,0:0|0:0,0:0:0:0:
180,319,93928,2,0,P|275:306|288:201,1,180,2|0,0:0|0:0,0:0:0:0:
215,242,94422,1,8,0:0:0:0:
328,126,94587,6,0,P|218:108|119:80,1,180,2|0,0:0|0:0,0:0:0:0:
91,18,95082,1,8,0:0:0:0:
62,187,95246,2,0,P|153:162|144:80,1,180,2|0,0:0|0:0,0:0:0:0:
62,187,95741,2,0,P|73:244|76:297,1,90,10|0,0:0|0:0,0:0:0:0:
35,351,96071,6,0,B|87:359|87:359|129:349|129:349|200:363,1,144,4|0,0:0|0:0,0:0:0:0:
281,220,96565,1,0,0:0:0:0:
188,155,96730,2,0,P|175:208|179:249,1,72,2|0,0:0|0:0,0:0:0:0:
292,321,97060,2,0,L|384:312,1,72
512,174,97389,6,0,L|352:160,1,144,2|0,0:0|0:0,0:0:0:0:
279,96,97884,1,0,0:0:0:0:
442,73,98049,2,0,P|401:57|368:35,1,72
196,230,98378,2,0,P|226:211|260:199,1,72
364,270,98708,5,2,0:0:0:0:
242,13,98873,1,2,0:0:0:0:
214,370,99038,5,2,0:0:0:0:
278,115,99202,1,2,0:0:0:0:
408,364,99367,5,0,0:0:0:0:
214,250,99532,1,2,0:0:0:0:
437,155,99697,5,0,0:0:0:0:
113,204,99862,1,4,0:0:0:0:
