osu file format v14

[General]
AudioFilename: hanagoyomi.mp3
AudioLeadIn: 0
PreviewTime: 64172
Countdown: 1
SampleSet: Soft
StackLeniency: 0.7
Mode: 0
LetterboxInBreaks: 0
WidescreenStoryboard: 1

[Editor]
Bookmarks: 18672
DistanceSpacing: 1.5
BeatDivisor: 4
GridSize: 4
TimelineZoom: 3.499999

[Metadata]
Title:Hanagoyomi short version
TitleUnicode:華暦 short version
Artist:Ayumi.
ArtistUnicode:Ayumi.
Creator:fdfdfdf
Version:Insane
Source:花の野に咲くうたかたの
Tags:Hana no No ni Saku Utakata no eroge fdfdfdf Suzuno_Kamduki
BeatmapID:834689
BeatmapSetID:375371

[Difficulty]
HPDrainRate:6
CircleSize:4
OverallDifficulty:6
ApproachRate:9
SliderMultiplier:1.9
SliderTickRate:1

[Events]
//Background and Video events
0,0,"bg.jpg",0,0
//Break Periods
//Storyboard Layer 0 (Background)
//Storyboard Layer 1 (Fail)
//Storyboard Layer 2 (Pass)
//Storyboard Layer 3 (Foreground)
//Storyboard Sound Samples

[TimingPoints]
-494,500,4,2,1,40,1,0
1506,-133.333333333333,4,2,1,40,0,0
15006,-200,4,2,1,40,0,0
16256,-133.333333333333,4,2,1,20,0,0
16506,333.333333333333,4,2,1,70,1,0
16506,-100,4,2,1,75,0,0
16839,333.333333333333,4,2,1,75,1,0
16839,-100,4,2,2,75,0,0
17005,-100,4,2,1,75,0,0
27838,-111.111111111111,4,2,1,70,0,0
28172,-125,4,2,1,65,0,0
28505,-142.857142857143,4,2,1,60,0,0
28838,-142.857142857143,4,2,1,40,0,0
42172,-100,4,2,2,40,0,0
42338,-100,4,2,1,40,0,0
47505,-100,4,2,2,40,0,0
47672,-100,4,2,1,40,0,0
52838,-100,4,2,2,40,0,0
53172,-100,4,2,1,40,0,0
55505,-100,4,2,2,40,0,0
55672,-100,4,2,1,40,0,0
62172,-100,4,2,2,40,0,0
62255,-100,4,2,1,40,0,0
64172,-133.333333333333,4,2,1,50,0,0
64505,-100,4,2,1,45,0,0
64838,-83.3333333333333,4,2,2,50,0,1
65005,-83.3333333333333,4,2,1,50,0,1
70172,-83.3333333333333,4,2,2,50,0,1
70338,-83.3333333333333,4,2,1,50,0,1
75505,-83.3333333333333,4,2,2,50,0,1
75672,-83.3333333333333,4,2,1,50,0,1
80838,-83.3333333333333,4,2,2,50,0,1
81005,-83.3333333333333,4,2,1,50,0,1
86172,-100,4,2,1,50,0,0
88838,-90.9090909090909,4,2,1,50,0,0
98838,-90.9090909090909,4,2,2,50,0,0

[Colours]
Combo1 : 248,216,241
Combo2 : 255,0,255
Combo3 : 255,0,128
Combo4 : 255,128,192

[HitObjects]
104,116,1006,5,0,0:0:0:0:
104,116,1256,1,0,0:0:0:0:
104,116,1506,2,0,L|176:116,1,71.2500027179719,4|0,0:0|0:0,0:0:0:0:
236,188,2006,2,0,L|308:188,1,71.2500027179719
400,188,2506,1,0,0:0:0:0:
400,188,3006,6,0,L|400:264,1,71.2500027179719
316,296,3506,2,0,L|316:224,1,71.2500027179719
232,260,4006,2,0,L|232:340,1,71.2500027179719
148,296,4506,1,0,0:0:0:0:
148,296,5006,6,0,L|148:224,1,71.2500027179719
84,156,5506,2,0,P|148:132|216:156,1,142.500005435944,4|0,0:0|0:0,0:0:0:0:
300,192,6256,1,0,0:0:0:0:
236,260,6506,2,0,P|301:283|367:259,1,142.500005435944
436,196,7256,1,0,0:0:0:0:
367,136,7506,2,0,L|291:136,1,71.2500027179719
296,44,8006,2,0,L|372:44,1,71.2500027179719
295,136,8506,1,0,0:0:0:0:
295,136,9006,6,0,L|215:136,1,71.2500027179719
156,72,9506,2,0,P|128:140|156:204,1,142.500005435944,4|0,0:0|0:0,0:0:0:0:
216,268,10256,1,0,0:0:0:0:
284,332,10506,2,0,P|312:264|284:200,1,142.500005435944
216,268,11256,1,0,0:0:0:0:
284,332,11506,2,0,L|360:332,1,71.2500027179719
448,312,12006,2,0,L|448:388,1,71.2500027179719
388,252,12506,2,0,L|388:176,1,71.2500027179719
388,88,13006,2,0,L|316:88,1,71.2500027179719
236,40,13506,6,0,P|216:88|232:140,1,106.875004076958,4|0,0:0|0:0,0:0:0:0:
268,164,14006,2,0,P|288:212|272:264,1,106.875004076958
224,280,14506,2,0,L|152:280,1,71.2500027179719
76,352,15006,2,0,B|44:316|44:316|44:120,1,237.5
216,56,16506,6,0,L|116:56,1,95
212,140,16839,2,0,P|276:164|344:140,1,142.5,4|0,0:0|0:0,0:0:0:0:
368,84,17172,2,0,L|464:84,1,95,8|0,0:0|0:0,0:0:0:0:
368,208,17505,2,0,L|468:208,1,95
368,288,17839,2,0,L|272:288,1,95,8|0,0:0|0:0,0:0:0:0:
196,192,18172,6,0,P|148:184|100:192,1,95
88,200,18422,1,0,0:0:0:0:
72,216,18505,1,8,0:0:0:0:
100,336,18672,2,0,P|130:298|148:252,1,95
288,52,19172,2,0,L|392:52,1,95,8|0,0:0|0:0,0:0:0:0:
360,172,19505,6,0,P|292:192|224:172,1,142.5
176,132,19838,2,0,L|68:132,1,95,8|0,0:0|0:0,0:0:0:0:
157,233,20172,2,0,P|201:209|225:169,1,95
88,204,20505,2,0,P|86:254|112:292,1,95,8|0,0:0|0:0,0:0:0:0:
232,300,20838,6,0,L|376:300,1,142.5
404,300,21172,1,8,0:0:0:0:
308,376,21338,1,0,0:0:0:0:
308,204,21505,2,0,L|408:204,1,95
308,124,21838,2,0,L|416:124,1,95,8|0,0:0|0:0,0:0:0:0:
308,44,22172,6,0,L|208:44,1,95
144,148,22505,2,0,L|44:148,1,95,8|0,0:0|0:0,0:0:0:0:
84,268,22838,2,0,P|148:292|216:268,1,142.5
256,220,23172,2,0,L|360:220,1,95,8|0,0:0|0:0,0:0:0:0:
444,304,23505,5,0,0:0:0:0:
351,220,23672,1,0,0:0:0:0:
328,340,23838,1,8,0:0:0:0:
476,180,24005,1,0,0:0:0:0:
328,340,24172,1,0,0:0:0:0:
144,176,24505,6,0,L|48:176,1,95,8|0,0:0|0:0,0:0:0:0:
49,176,24838,1,0,0:0:0:0:
240,332,25172,2,0,L|348:332,1,95,8|0,0:0|0:0,0:0:0:0:
460,332,25505,1,0,0:0:0:0:
460,288,25838,1,8,0:0:0:0:
460,240,26172,5,0,0:0:0:0:
352,184,26338,1,0,0:0:0:0:
352,184,26422,1,0,0:0:0:0:
352,184,26505,1,8,0:0:0:0:
352,308,26672,1,0,0:0:0:0:
352,184,26838,1,0,0:0:0:0:
44,44,27505,6,0,L|44:152,1,95,2|0,0:0|0:0,0:0:0:0:
152,112,27838,6,0,L|152:200,1,85.4999973907472,2|0,0:0|0:0,0:0:0:0:
248,164,28172,6,0,L|248:244,1,76,2|0,0:0|0:0,0:0:0:0:
332,216,28505,6,0,L|332:284,1,66.4999979705811,2|0,0:0|0:0,0:0:0:0:
416,260,28838,6,0,L|416:124,1,132.999995941162,0|2,0:0|0:0,0:0:0:0:
368,56,29338,1,0,0:0:0:0:
320,127,29505,2,0,P|256:139|188:127,1,132.999995941162,0|2,0:0|0:0,0:0:0:0:
104,128,30005,1,0,0:0:0:0:
36,72,30172,2,0,P|8:128|36:188,1,132.999995941162,0|2,0:0|0:0,0:0:0:0:
35,187,30838,1,0,0:0:0:0:
364,288,31505,6,0,L|224:288,1,132.999995941162,0|2,0:0|0:0,0:0:0:0:
144,288,32005,1,0,0:0:0:0:
56,288,32172,2,0,P|84:228|144:204,1,132.999995941162,0|2,0:0|0:0,0:0:0:0:
232,204,32672,1,0,0:0:0:0:
320,204,32838,2,0,P|292:144|232:120,1,132.999995941162,0|2,0:0|0:0,0:0:0:0:
232,120,33505,1,0,0:0:0:0:
452,72,34172,6,0,L|452:220,1,132.999995941162,0|2,0:0|0:0,0:0:0:0:
388,264,34672,1,0,0:0:0:0:
452,320,34838,2,0,P|388:344|328:320,1,132.999995941162,0|2,0:0|0:0,0:0:0:0:
260,272,35338,1,0,0:0:0:0:
196,216,35505,2,0,P|134:193|70:213,1,132.999995941162,0|2,0:0|0:0,0:0:0:0:
71,212,36172,1,0,0:0:0:0:
304,304,36838,6,0,P|368:320|432:304,1,132.999995941162,0|2,0:0|0:0,0:0:0:0:
472,228,37338,1,0,0:0:0:0:
428,152,37505,2,0,P|364:136|300:152,1,132.999995941162,0|2,0:0|0:0,0:0:0:0:
168,264,38172,1,0,0:0:0:0:
100,208,38338,1,0,0:0:0:0:
100,208,38422,1,0,0:0:0:0:
100,208,38505,1,0,0:0:0:0:
88,292,38672,1,0,0:0:0:0:
168,264,38838,2,0,P|184:236|188:200,1,66.4999979705811
100,208,39172,2,0,P|84:180|80:144,1,66.4999979705811
112,68,39505,6,0,L|44:68,1,66.4999979705811
79,146,39838,2,0,L|147:146,1,66.4999979705811
232,146,40172,1,0,0:0:0:0:
232,146,40505,6,0,L|232:64,1,66.4999979705811
308,36,40838,2,0,L|308:0,2,33.2499989852906
384,79,41172,2,0,L|384:151,1,66.4999979705811
384,232,41505,2,0,L|384:284,2,44.3333319803874
348,276,41838,2,0,L|348:328,2,44.3333319803874
264,208,42172,6,0,P|176:228|80:208,1,190,4|8,0:0|0:0,0:0:0:0:
52,88,42672,1,0,0:0:0:0:
172,112,42838,2,0,L|264:88,1,95
368,160,43172,2,0,L|464:160,1,95,8|0,0:0|0:0,0:0:0:0:
368,80,43505,1,0,0:0:0:0:
280,168,43672,1,0,0:0:0:0:
368,252,43838,2,0,L|272:252,1,95,8|0,0:0|0:0,0:0:0:0:
152,252,44172,1,0,0:0:0:0:
273,360,44338,1,0,0:0:0:0:
273,360,44422,1,0,0:0:0:0:
273,360,44505,2,0,L|369:360,1,95,8|0,0:0|0:0,0:0:0:0:
88,356,44838,6,0,P|24:284|36:192,1,190,0|8,0:0|0:0,0:0:0:0:
132,124,45338,1,0,0:0:0:0:
232,196,45505,2,0,P|260:152|264:108,1,95
148,204,45838,2,0,P|172:250|208:275,1,95,8|0,0:0|0:0,0:0:0:0:
332,276,46172,1,0,0:0:0:0:
408,180,46338,1,0,0:0:0:0:
284,180,46505,2,0,L|184:180,1,95,8|0,0:0|0:0,0:0:0:0:
120,96,46838,1,0,0:0:0:0:
340,96,47005,1,0,0:0:0:0:
340,96,47088,1,0,0:0:0:0:
340,96,47172,2,0,P|372:136|380:180,1,95,8|0,0:0|0:0,0:0:0:0:
308,328,47505,6,0,L|112:328,1,190,4|8,0:0|0:0,0:0:0:0:
52,224,48005,1,0,0:0:0:0:
176,224,48172,2,0,L|272:224,1,95
172,148,48505,2,0,L|72:148,1,95,8|0,0:0|0:0,0:0:0:0:
124,36,48838,1,0,0:0:0:0:
232,96,49005,1,0,0:0:0:0:
340,36,49172,1,8,0:0:0:0:
232,96,49338,1,0,0:0:0:0:
340,156,49505,1,0,0:0:0:0:
124,156,49672,1,0,0:0:0:0:
124,156,49755,1,0,0:0:0:0:
124,156,49838,2,0,L|24:156,1,95,8|0,0:0|0:0,0:0:0:0:
152,304,50172,6,0,L|256:304,1,95
328,304,50422,1,0,0:0:0:0:
328,304,50505,2,0,P|372:288|404:248,1,95,8|0,0:0|0:0,0:0:0:0:
324,220,50755,1,0,0:0:0:0:
324,220,50838,2,0,P|347:179|346:128,1,95,8|0,0:0|0:0,0:0:0:0:
208,96,51172,2,0,P|231:136|276:161,1,95
272,36,51505,5,8,0:0:0:0:
148,36,51672,1,0,0:0:0:0:
72,132,51838,1,0,0:0:0:0:
148,232,52005,1,0,0:0:0:0:
272,232,52172,2,0,L|464:232,1,190,8|0,0:0|0:0,0:0:0:0:
364,136,52838,1,4,0:0:0:0:
208,328,53172,6,0,L|16:328,1,190
56,240,53838,1,0,0:0:0:0:
128,180,54172,1,0,0:0:0:0:
144,272,54505,1,0,0:0:0:0:
56,240,54838,1,0,0:0:0:0:
44,144,55172,1,0,0:0:0:0:
256,20,55505,5,4,0:0:0:0:
196,128,55672,1,0,0:0:0:0:
312,84,55838,5,0,0:0:0:0:
368,192,56005,1,0,0:0:0:0:
252,236,56171,1,0,0:0:0:0:
252,236,56254,1,0,0:0:0:0:
252,236,56338,1,0,0:0:0:0:
252,236,56421,1,0,0:0:0:0:
252,236,56505,2,0,L|156:236,1,95
224,340,56838,6,0,L|320:340,1,95
392,240,57172,2,0,P|400:284|436:316,1,95
468,196,57505,1,0,0:0:0:0:
416,160,57588,1,0,0:0:0:0:
356,164,57672,1,0,0:0:0:0:
312,204,57755,1,0,0:0:0:0:
308,264,57838,2,0,P|276:300|232:316,1,95
20,256,58172,6,0,L|144:164,1,142.5
184,132,58505,2,0,P|232:120|276:132,1,95,2|0,0:0|0:0,0:0:0:0:
412,232,58838,6,0,L|260:232,1,142.5
212,252,59172,2,0,P|196:296|212:340,1,95,2|0,0:0|0:0,0:0:0:0:
344,304,59505,6,0,L|344:156,1,142.5
316,108,59838,2,0,P|272:92|224:108,1,95,2|0,0:0|0:0,0:0:0:0:
76,192,60172,6,0,L|228:192,1,142.5
280,196,60505,2,0,P|296:240|280:288,1,95,2|0,0:0|0:0,0:0:0:0:
148,272,60838,6,0,L|148:120,1,142.5
148,68,61172,2,0,P|192:52|240:68,1,95,2|0,0:0|0:0,0:0:0:0:
328,148,61505,1,0,0:0:0:0:
416,65,61672,1,0,0:0:0:0:
328,148,61838,1,2,0:0:0:0:
236,65,62005,1,0,0:0:0:0:
328,224,62172,1,4,0:0:0:0:
256,192,62255,12,0,63505,0:0:0:0:
256,80,64172,6,0,L|256:164,1,71.2500027179719
208,264,64505,6,0,P|256:276|300:264,1,95
256,151,64838,6,0,L|80:152,1,170.999994781494,6|0,0:0|0:0,0:0:0:0:
60,80,65172,2,0,L|176:80,1,113.999996520996,8|0,0:0|0:0,0:0:0:0:
324,80,65505,1,2,0:0:0:0:
252,208,65672,1,0,0:0:0:0:
252,208,65755,1,0,0:0:0:0:
252,208,65838,2,0,L|128:208,1,113.999996520996,8|0,0:0|0:0,0:0:0:0:
320,152,66172,6,0,P|344:208|328:256,1,113.999996520996,2|0,0:0|0:0,0:0:0:0:
252,384,66505,2,0,P|236:330|260:280,1,113.999996520996,8|0,0:0|0:0,0:0:0:0:
336,336,66838,1,2,0:0:0:0:
144,320,67005,1,0,0:0:0:0:
144,320,67088,1,0,0:0:0:0:
144,320,67172,2,0,P|104:272|88:220,1,113.999996520996,8|0,0:0|0:0,0:0:0:0:
272,76,67505,6,0,L|232:192,1,113.999996520996,2|0,0:0|0:0,0:0:0:0:
224,208,67755,1,0,0:0:0:0:
212,236,67838,1,8,0:0:0:0:
176,92,68005,1,0,0:0:0:0:
340,156,68172,2,0,L|452:200,1,113.999996520996,2|0,0:0|0:0,0:0:0:0:
264,288,68505,2,0,L|376:244,1,113.999996520996,8|0,0:0|0:0,0:0:0:0:
228,200,68838,6,0,L|116:156,1,113.999996520996,2|0,0:0|0:0,0:0:0:0:
40,288,69172,2,0,L|152:244,1,113.999996520996,8|0,0:0|0:0,0:0:0:0:
212,112,69505,1,2,0:0:0:0:
312,304,69672,1,0,0:0:0:0:
312,304,69755,1,0,0:0:0:0:
312,304,69838,2,0,P|360:272|396:228,1,113.999996520996,8|0,0:0|0:0,0:0:0:0:
268,44,70172,6,0,P|212:32|156:44,1,113.999996520996,6|0,0:0|0:0,0:0:0:0:
160,204,70505,2,0,P|198:161|216:107,1,113.999996520996,8|0,0:0|0:0,0:0:0:0:
76,156,70838,2,0,L|76:272,1,113.999996520996,2|0,0:0|0:0,0:0:0:0:
204,352,71172,2,0,L|80:352,1,113.999996520996,8|0,0:0|0:0,0:0:0:0:
212,268,71505,6,0,L|332:268,1,113.999996520996,2|0,0:0|0:0,0:0:0:0:
464,216,71838,2,0,P|484:276|464:324,1,113.999996520996,8|0,0:0|0:0,0:0:0:0:
376,200,72172,1,2,0:0:0:0:
444,68,72338,1,0,0:0:0:0:
444,68,72422,1,0,0:0:0:0:
444,68,72505,2,0,L|328:68,1,113.999996520996,8|0,0:0|0:0,0:0:0:0:
204,148,72838,6,0,L|84:148,1,113.999996520996,2|0,0:0|0:0,0:0:0:0:
60,148,73088,1,0,0:0:0:0:
28,148,73172,1,8,0:0:0:0:
144,60,73338,1,0,0:0:0:0:
144,208,73505,2,0,P|168:256|216:292,1,113.999996520996,2|0,0:0|0:0,0:0:0:0:
364,292,73838,2,0,P|409:258|435:208,1,113.999996520996,8|0,0:0|0:0,0:0:0:0:
292,160,74172,5,2,0:0:0:0:
215,291,74338,1,0,0:0:0:0:
384,160,74505,1,8,0:0:0:0:
215,64,74672,1,0,0:0:0:0:
44,160,74838,6,0,P|80:208|128:236,1,113.999996520996,2|0,0:0|0:0,0:0:0:0:
356,304,75172,1,8,0:0:0:0:
336,256,75255,1,0,0:0:0:0:
300,220,75338,1,0,0:0:0:0:
252,200,75422,1,0,0:0:0:0:
200,188,75505,6,0,P|148:152|120:108,1,113.999996520996,6|0,0:0|0:0,0:0:0:0:
292,108,75838,2,0,L|416:108,1,113.999996520996,8|0,0:0|0:0,0:0:0:0:
348,272,76172,1,2,0:0:0:0:
292,108,76338,1,0,0:0:0:0:
292,108,76422,1,0,0:0:0:0:
292,108,76505,2,0,L|176:108,1,113.999996520996,8|0,0:0|0:0,0:0:0:0:
116,268,76838,5,2,0:0:0:0:
280,212,77005,1,0,0:0:0:0:
120,156,77172,1,8,0:0:0:0:
216,296,77338,1,0,0:0:0:0:
120,156,77505,2,0,L|60:60,1,113.999996520996,2|0,0:0|0:0,0:0:0:0:
216,117,77838,2,0,L|281:214,1,113.999996520996,8|0,0:0|0:0,0:0:0:0:
328,48,78172,5,2,0:0:0:0:
432,184,78338,1,0,0:0:0:0:
432,184,78422,1,0,0:0:0:0:
432,184,78505,2,0,L|432:304,1,113.999996520996,8|0,0:0|0:0,0:0:0:0:
300,208,78838,1,2,0:0:0:0:
356,368,79005,1,0,0:0:0:0:
356,368,79088,1,0,0:0:0:0:
356,368,79172,2,0,L|236:368,1,113.999996520996,8|0,0:0|0:0,0:0:0:0:
144,228,79505,5,2,0:0:0:0:
48,372,79672,1,0,0:0:0:0:
144,152,79838,1,8,0:0:0:0:
264,272,80005,1,0,0:0:0:0:
144,76,80172,1,2,0:0:0:0:
48,216,80338,1,0,0:0:0:0:
48,216,80422,1,0,0:0:0:0:
48,216,80505,2,0,L|168:216,1,113.999996520996,8|0,0:0|0:0,0:0:0:0:
408,116,80838,6,0,L|288:116,1,113.999996520996,6|0,0:0|0:0,0:0:0:0:
232,276,81172,2,0,P|260:324|312:348,1,113.999996520996,8|0,0:0|0:0,0:0:0:0:
424,220,81505,2,0,P|368:220|321:253,1,113.999996520996,2|0,0:0|0:0,0:0:0:0:
208,380,81838,2,0,P|152:392|96:376,1,113.999996520996,8|0,0:0|0:0,0:0:0:0:
156,204,82172,6,0,L|156:328,1,113.999996520996,2|0,0:0|0:0,0:0:0:0:
44,188,82505,2,0,P|68:140|116:104,1,113.999996520996,8|0,0:0|0:0,0:0:0:0:
264,192,82838,1,2,0:0:0:0:
196,36,83005,1,0,0:0:0:0:
156,204,83172,1,8,0:0:0:0:
288,96,83338,1,0,0:0:0:0:
248,268,83505,5,2,0:0:0:0:
408,204,83672,1,0,0:0:0:0:
408,204,83755,1,0,0:0:0:0:
408,204,83838,2,0,L|408:88,1,113.999996520996,8|0,0:0|0:0,0:0:0:0:
236,92,84172,1,2,0:0:0:0:
324,236,84338,1,0,0:0:0:0:
408,90,84505,1,8,0:0:0:0:
236,92,84672,1,0,0:0:0:0:
148,236,84838,6,0,L|28:236,1,113.999996520996,2|0,0:0|0:0,0:0:0:0:
164,352,85172,2,0,L|284:352,1,113.999996520996,8|0,0:0|0:0,0:0:0:0:
392,224,85505,1,2,0:0:0:0:
228,268,85672,1,0,0:0:0:0:
328,116,85838,1,8,0:0:0:0:
348,348,86005,1,0,0:0:0:0:
212,76,86172,6,0,P|116:96|24:72,1,190
32,360,86838,2,0,P|128:340|220:364,1,190
456,212,87505,1,0,0:0:0:0:
316,236,87672,1,0,0:0:0:0:
316,236,87755,1,0,0:0:0:0:
316,236,87838,2,0,P|336:280|368:320,1,95
456,212,88172,1,0,0:0:0:0:
224,44,88505,6,0,L|124:44,1,95
20,160,88838,6,0,L|236:160,1,209.000006378174,0|8,0:0|0:0,0:0:0:0:
352,64,89338,1,0,0:0:0:0:
304,212,89505,1,0,0:0:0:0:
248,64,89672,1,0,0:0:0:0:
248,64,89755,1,0,0:0:0:0:
248,64,89838,2,0,L|356:64,1,104.500003189087,8|0,0:0|0:0,0:0:0:0:
408,212,90172,5,0,0:0:0:0:
252,212,90338,1,0,0:0:0:0:
252,212,90422,1,0,0:0:0:0:
252,212,90505,2,0,L|144:212,1,104.500003189087,8|0,0:0|0:0,0:0:0:0:
80,72,90838,1,0,0:0:0:0:
80,72,91172,2,0,L|80:180,1,104.500003189087,8|0,0:0|0:0,0:0:0:0:
84,332,91505,6,0,L|304:332,1,209.000006378174,0|8,0:0|0:0,0:0:0:0:
420,240,92005,1,0,0:0:0:0:
264,240,92172,2,0,L|160:240,1,104.500003189087
296,160,92505,2,0,P|336:196|348:248,1,104.500003189087,8|0,0:0|0:0,0:0:0:0:
208,152,92838,2,0,P|248:88|324:72,1,156.750004783631
380,128,93172,2,0,L|492:128,1,104.500003189087,8|0,0:0|0:0,0:0:0:0:
432,52,93505,5,0,0:0:0:0:
432,208,93672,1,0,0:0:0:0:
296,128,93838,1,8,0:0:0:0:
432,52,94005,1,0,0:0:0:0:
336,212,94172,6,0,L|224:212,1,104.500003189087
112,316,94505,2,0,L|220:316,1,104.500003189087,8|0,0:0|0:0,0:0:0:0:
108,204,94838,2,0,L|108:96,1,104.500003189087
260,52,95172,1,8,0:0:0:0:
260,208,95338,1,0,0:0:0:0:
180,72,95505,5,0,0:0:0:0:
316,148,95672,1,0,0:0:0:0:
124,152,95838,5,8,0:0:0:0:
352,60,96005,1,0,0:0:0:0:
256,280,96172,1,0,0:0:0:0:
256,280,96505,6,0,L|148:280,1,104.500003189087
151,280,96838,1,8,0:0:0:0:
388,76,97172,6,0,L|496:76,1,104.500003189087
492,76,97505,1,8,0:0:0:0:
436,224,97838,1,0,0:0:0:0:
176,48,98172,1,8,0:0:0:0:
256,180,98338,1,0,0:0:0:0:
256,180,98422,1,0,0:0:0:0:
256,180,98505,2,0,L|256:296,1,104.500003189087
256,284,98838,1,4,0:0:0:0:
