osu file format v14

[General]
AudioFilename: audio.mp3
AudioLeadIn: 0
PreviewTime: 64172
Countdown: 0
SampleSet: Soft
StackLeniency: 0.7
Mode: 3
LetterboxInBreaks: 0
SpecialStyle: 0
WidescreenStoryboard: 0

[Editor]
DistanceSpacing: 0.9
BeatDivisor: 4
GridSize: 4
TimelineZoom: 2.2

[Metadata]
Title:Hanagoyomi short version
TitleUnicode:華暦 short version
Artist:Ayumi.
ArtistUnicode:Ayumi.
Creator:Draftnell
Version:Dell's Easy
Source:花の野に咲くうたかたの
Tags:The Sweet World of The Ephemeral Hananono はなのの 花野盛开的瞬间 OP Hana no No ni Saku Utakata no eroge app-107 app-108 青田 新名 original soundtrack Aota Nina Yuki Honda Yuzuhiko SugarMOnster Angel Note Raediaufar Dellvangel
BeatmapID:1091543
BeatmapSetID:513745

[Difficulty]
HPDrainRate:6.5
CircleSize:6
OverallDifficulty:7
ApproachRate:5
SliderMultiplier:1.4
SliderTickRate:1

[Events]
//Background and Video events
0,0,"1.jpg",0,0
//Break Periods
//Storyboard Layer 0 (Background)
//Storyboard Layer 1 (Fail)
//Storyboard Layer 2 (Pass)
//Storyboard Layer 3 (Foreground)
//Storyboard Sound Samples

[TimingPoints]
-494,500,4,2,1,40,1,0
6,-66.6666666666667,4,2,1,40,0,0
16839,333.333333333333,4,2,1,50,1,0
64838,-100,4,2,1,50,0,1
88172,-100,4,2,1,50,0,0

[HitObjects]
42,192,1506,5,0,0:0:0:0:
469,192,1506,1,0,0:0:0:0:
298,192,1756,1,0,0:0:0:0:
213,192,2006,1,0,0:0:0:0:
42,192,2256,1,0,0:0:0:0:
469,192,2506,1,0,0:0:0:0:
128,192,3506,1,0,0:0:0:0:
384,192,4506,1,0,0:0:0:0:
42,192,5006,1,0,0:0:0:0:
213,192,5506,1,0,0:0:0:0:
469,192,5506,1,0,0:0:0:0:
128,192,6506,1,0,0:0:0:0:
384,192,7506,1,0,0:0:0:0:
298,192,7756,1,0,0:0:0:0:
213,192,8006,1,0,0:0:0:0:
128,192,8256,1,0,0:0:0:0:
469,192,8506,1,0,0:0:0:0:
298,192,9506,1,0,0:0:0:0:
42,192,9506,1,0,0:0:0:0:
384,192,9756,1,0,0:0:0:0:
213,192,10006,1,0,0:0:0:0:
128,192,10256,1,0,0:0:0:0:
469,192,10506,1,0,0:0:0:0:
42,192,11006,1,0,0:0:0:0:
298,192,11506,1,0,0:0:0:0:
469,192,12006,1,0,0:0:0:0:
42,192,12256,1,0,0:0:0:0:
213,192,12506,1,0,0:0:0:0:
298,192,13006,1,0,0:0:0:0:
128,192,13506,1,0,0:0:0:0:
384,192,13506,1,0,0:0:0:0:
42,192,13756,1,0,0:0:0:0:
469,192,14006,1,0,0:0:0:0:
384,192,14256,1,0,0:0:0:0:
213,192,14506,1,0,0:0:0:0:
128,192,15006,128,0,16839:0:0:0:0:
298,192,16839,1,4,0:0:0:0:
469,192,16839,1,8,0:0:0:0:
42,192,17172,1,8,0:0:0:0:
384,192,17505,1,8,0:0:0:0:
128,192,17839,1,8,0:0:0:0:
213,192,18005,1,2,0:0:0:0:
298,192,18172,1,8,0:0:0:0:
42,192,18339,128,2,18505:0:0:0:0:
469,192,18505,1,8,0:0:0:0:
298,192,18672,1,2,0:0:0:0:
128,192,18838,1,8,0:0:0:0:
384,192,19172,1,8,0:0:0:0:
298,192,19338,1,2,0:0:0:0:
213,192,19505,1,8,0:0:0:0:
42,192,19838,1,8,0:0:0:0:
384,192,20005,1,2,0:0:0:0:
128,192,20172,1,8,0:0:0:0:
298,192,20505,1,8,0:0:0:0:
213,192,20838,1,8,0:0:0:0:
469,192,21005,128,2,21172:0:0:0:0:
42,192,21172,1,8,0:0:0:0:
213,192,21338,1,2,0:0:0:0:
384,192,21505,1,8,0:0:0:0:
469,192,21838,1,8,0:0:0:0:
298,192,22005,1,2,0:0:0:0:
128,192,22172,1,8,0:0:0:0:
42,192,22505,1,8,0:0:0:0:
384,192,22838,1,8,0:0:0:0:
213,192,23172,1,8,0:0:0:0:
298,192,23338,1,2,0:0:0:0:
128,192,23505,1,8,0:0:0:0:
384,192,23672,1,2,0:0:0:0:
42,192,23838,1,8,0:0:0:0:
469,192,24005,1,2,0:0:0:0:
213,192,24172,1,8,0:0:0:0:
384,192,24505,1,8,0:0:0:0:
128,192,24672,1,2,0:0:0:0:
469,192,24838,1,2,0:0:0:0:
298,192,24838,1,4,0:0:0:0:
384,192,25338,1,6,0:0:0:0:
213,192,25505,1,2,0:0:0:0:
42,192,25505,1,4,0:0:0:0:
298,192,25838,1,8,0:0:0:0:
128,192,26172,1,2,0:0:0:0:
213,192,26172,128,4,26505:0:0:0:0:
384,192,26505,1,2,0:0:0:0:
298,192,26505,128,4,26838:0:0:0:0:
469,192,26838,128,4,27338:0:0:0:0:
42,192,26838,128,2,27338:0:0:0:0:
384,192,27505,1,0,0:0:0:0:
298,192,27672,1,0,0:0:0:0:
128,192,27838,1,0,0:0:0:0:
213,192,28005,1,0,0:0:0:0:
469,192,28172,1,0,0:0:0:0:
298,192,28338,1,0,0:0:0:0:
42,192,28505,1,0,0:0:0:0:
213,192,28672,1,0,0:0:0:0:
384,192,28838,1,0,0:0:0:0:
128,192,29505,1,0,0:0:0:0:
469,192,30172,1,0,0:0:0:0:
298,192,30838,1,0,0:0:0:0:
42,192,31505,1,0,0:0:0:0:
213,192,32172,1,0,0:0:0:0:
128,192,32838,1,0,0:0:0:0:
298,192,33172,1,0,0:0:0:0:
469,192,33505,1,0,0:0:0:0:
128,192,34172,1,0,0:0:0:0:
213,192,34505,1,0,0:0:0:0:
298,192,34838,1,0,0:0:0:0:
213,192,35505,1,0,0:0:0:0:
128,192,35838,1,0,0:0:0:0:
384,192,36172,1,0,0:0:0:0:
42,192,36838,1,0,0:0:0:0:
298,192,37172,1,0,0:0:0:0:
469,192,37505,1,0,0:0:0:0:
384,192,38172,1,0,0:0:0:0:
128,192,38505,1,0,0:0:0:0:
298,192,38838,1,0,0:0:0:0:
42,192,39505,128,0,40172:0:0:0:0:
384,192,40172,1,0,0:0:0:0:
128,192,40505,1,0,0:0:0:0:
298,192,40672,1,0,0:0:0:0:
469,192,40838,128,0,41505:0:0:0:0:
128,192,41505,128,0,42172:0:0:0:0:
298,192,42172,1,4,0:0:0:0:
384,192,42172,1,2,0:0:0:0:
213,192,42505,1,8,0:0:0:0:
42,192,42838,1,2,0:0:0:0:
384,192,43172,1,8,0:0:0:0:
128,192,43505,1,2,0:0:0:0:
213,192,43838,1,8,0:0:0:0:
384,192,44172,1,2,0:0:0:0:
298,192,44505,1,8,0:0:0:0:
42,192,44838,1,2,0:0:0:0:
469,192,45172,1,8,0:0:0:0:
213,192,45505,1,2,0:0:0:0:
128,192,45838,1,8,0:0:0:0:
298,192,46172,1,2,0:0:0:0:
384,192,46505,1,8,0:0:0:0:
128,192,46838,1,2,0:0:0:0:
469,192,47172,1,8,0:0:0:0:
213,192,47505,1,4,0:0:0:0:
42,192,47505,1,2,0:0:0:0:
384,192,47838,1,8,0:0:0:0:
128,192,48172,1,2,0:0:0:0:
213,192,48505,1,8,0:0:0:0:
469,192,48838,1,2,0:0:0:0:
298,192,49172,1,8,0:0:0:0:
42,192,49505,1,2,0:0:0:0:
213,192,49838,1,8,0:0:0:0:
384,192,50172,1,2,0:0:0:0:
42,192,50505,1,8,0:0:0:0:
128,192,50838,1,2,0:0:0:0:
469,192,51172,1,8,0:0:0:0:
213,192,51505,1,2,0:0:0:0:
42,192,51838,1,8,0:0:0:0:
298,192,52172,1,2,0:0:0:0:
469,192,52505,1,8,0:0:0:0:
128,192,52838,1,0,0:0:0:0:
213,192,53505,1,0,0:0:0:0:
384,192,53838,1,0,0:0:0:0:
298,192,54172,1,0,0:0:0:0:
213,192,54505,1,0,0:0:0:0:
42,192,54838,1,0,0:0:0:0:
469,192,55172,1,0,0:0:0:0:
384,192,55505,1,4,0:0:0:0:
128,192,55505,128,2,55838:0:0:0:0:
298,192,55838,1,8,0:0:0:0:
384,192,56005,128,2,56338:0:0:0:0:
42,192,56338,128,8,56838:0:0:0:0:
298,192,56838,1,2,0:0:0:0:
469,192,56838,128,4,57172:0:0:0:0:
213,192,57172,1,8,0:0:0:0:
128,192,57338,128,4,57672:0:0:0:0:
384,192,57672,128,8,58172:0:0:0:0:
298,192,58172,1,2,0:0:0:0:
42,192,58505,1,0,0:0:0:0:
213,192,58838,1,0,0:0:0:0:
298,192,59172,1,0,0:0:0:0:
384,192,59505,1,2,0:0:0:0:
128,192,59838,1,0,0:0:0:0:
298,192,60172,1,0,0:0:0:0:
469,192,60505,1,0,0:0:0:0:
128,192,60838,1,2,0:0:0:0:
384,192,61172,1,0,0:0:0:0:
298,192,61505,1,0,0:0:0:0:
213,192,61838,1,2,0:0:0:0:
42,192,62172,1,4,0:0:0:0:
469,192,62172,128,0,63505:0:0:0:0:
42,192,63505,128,0,64838:0:0:0:0:
128,192,64838,1,4,0:0:0:0:
384,192,64838,1,2,0:0:0:0:
298,192,65172,1,8,0:0:0:0:
42,192,65505,1,2,0:0:0:0:
469,192,65838,1,8,0:0:0:0:
213,192,66172,1,2,0:0:0:0:
384,192,66505,1,8,0:0:0:0:
128,192,66838,1,2,0:0:0:0:
469,192,67172,1,8,0:0:0:0:
298,192,67505,1,2,0:0:0:0:
42,192,67838,1,8,0:0:0:0:
213,192,68172,1,2,0:0:0:0:
384,192,68505,1,8,0:0:0:0:
128,192,68838,1,2,0:0:0:0:
298,192,69172,1,8,0:0:0:0:
469,192,69505,1,2,0:0:0:0:
213,192,69838,1,8,0:0:0:0:
42,192,70172,1,4,0:0:0:0:
384,192,70172,128,2,70505:0:0:0:0:
298,192,70505,128,8,70838:0:0:0:0:
213,192,70838,128,2,71172:0:0:0:0:
469,192,71172,128,8,71505:0:0:0:0:
128,192,71505,128,2,71838:0:0:0:0:
213,192,71838,128,8,72172:0:0:0:0:
298,192,72172,128,2,72505:0:0:0:0:
42,192,72505,1,8,0:0:0:0:
384,192,72838,1,2,0:0:0:0:
213,192,73172,1,8,0:0:0:0:
42,192,73505,1,2,0:0:0:0:
469,192,73838,1,8,0:0:0:0:
298,192,74172,1,2,0:0:0:0:
128,192,74505,1,8,0:0:0:0:
384,192,74838,1,2,0:0:0:0:
213,192,75005,1,8,0:0:0:0:
298,192,75172,128,8,75505:0:0:0:0:
42,192,75505,1,2,0:0:0:0:
469,192,75505,1,4,0:0:0:0:
213,192,75838,1,8,0:0:0:0:
384,192,76172,1,2,0:0:0:0:
128,192,76505,1,8,0:0:0:0:
298,192,76838,1,2,0:0:0:0:
469,192,77172,1,8,0:0:0:0:
213,192,77505,1,2,0:0:0:0:
42,192,77838,1,8,0:0:0:0:
298,192,78172,1,2,0:0:0:0:
384,192,78505,1,8,0:0:0:0:
213,192,78838,1,2,0:0:0:0:
128,192,79172,1,8,0:0:0:0:
469,192,79505,1,2,0:0:0:0:
42,192,79838,1,8,0:0:0:0:
384,192,80172,1,2,0:0:0:0:
128,192,80505,1,8,0:0:0:0:
298,192,80838,1,2,0:0:0:0:
213,192,80838,128,0,81172:0:0:0:0:
469,192,81172,128,8,81505:0:0:0:0:
298,192,81505,128,2,81838:0:0:0:0:
128,192,81838,128,8,82172:0:0:0:0:
384,192,82172,128,2,82505:0:0:0:0:
42,192,82505,128,8,82838:0:0:0:0:
213,192,82838,128,2,83172:0:0:0:0:
469,192,83172,1,8,0:0:0:0:
128,192,83505,1,2,0:0:0:0:
298,192,83838,1,8,0:0:0:0:
469,192,84172,1,2,0:0:0:0:
213,192,84505,1,8,0:0:0:0:
42,192,84838,1,2,0:0:0:0:
384,192,85172,1,8,0:0:0:0:
128,192,85505,1,2,0:0:0:0:
469,192,85838,1,8,0:0:0:0:
298,192,86005,1,8,0:0:0:0:
213,192,86172,1,2,0:0:0:0:
42,192,86172,128,4,86838:0:0:0:0:
469,192,86838,128,2,87505:0:0:0:0:
298,192,86838,1,4,0:0:0:0:
128,192,87505,1,8,0:0:0:0:
384,192,87672,1,8,0:0:0:0:
213,192,87838,1,8,0:0:0:0:
298,192,88005,1,8,0:0:0:0:
42,192,88172,1,8,0:0:0:0:
469,192,88505,1,8,0:0:0:0:
298,192,88672,1,0,0:0:0:0:
213,192,88838,1,8,0:0:0:0:
42,192,88838,1,4,0:0:0:0:
384,192,89172,1,8,0:0:0:0:
128,192,89505,1,8,0:0:0:0:
298,192,89838,1,8,0:0:0:0:
213,192,90005,1,2,0:0:0:0:
128,192,90172,1,8,0:0:0:0:
384,192,90338,128,2,90505:0:0:0:0:
42,192,90505,1,8,0:0:0:0:
213,192,90672,1,2,0:0:0:0:
469,192,90838,1,8,0:0:0:0:
298,192,91172,1,8,0:0:0:0:
128,192,91338,1,2,0:0:0:0:
384,192,91505,1,8,0:0:0:0:
42,192,91838,1,8,0:0:0:0:
469,192,92005,1,2,0:0:0:0:
298,192,92172,1,8,0:0:0:0:
384,192,92505,1,8,0:0:0:0:
213,192,92838,1,8,0:0:0:0:
128,192,93005,128,2,93172:0:0:0:0:
469,192,93172,1,8,0:0:0:0:
298,192,93338,1,2,0:0:0:0:
42,192,93505,1,8,0:0:0:0:
384,192,93838,1,8,0:0:0:0:
298,192,94005,1,2,0:0:0:0:
213,192,94172,1,8,0:0:0:0:
469,192,94505,1,8,0:0:0:0:
298,192,94838,1,8,0:0:0:0:
128,192,95172,1,8,0:0:0:0:
213,192,95338,1,2,0:0:0:0:
298,192,95505,1,8,0:0:0:0:
469,192,95672,1,2,0:0:0:0:
213,192,95838,1,8,0:0:0:0:
42,192,96005,1,2,0:0:0:0:
298,192,96172,128,8,96505:0:0:0:0:
213,192,96505,128,8,96838:0:0:0:0:
128,192,96838,1,2,0:0:0:0:
384,192,96838,1,4,0:0:0:0:
298,192,97338,1,2,0:0:0:0:
213,192,97338,1,4,0:0:0:0:
469,192,97505,1,2,0:0:0:0:
42,192,97505,1,4,0:0:0:0:
213,192,97838,1,8,0:0:0:0:
298,192,98172,1,2,0:0:0:0:
384,192,98172,128,4,98505:0:0:0:0:
213,192,98505,1,2,0:0:0:0:
128,192,98505,128,4,98838:0:0:0:0:
469,192,98838,128,4,99338:0:0:0:0:
42,192,98838,128,0,99338:0:0:0:0:
