osu file format v14

[General]
AudioFilename: audio.mp3
AudioLeadIn: 0
PreviewTime: 64172
Countdown: 0
SampleSet: Soft
StackLeniency: 0.7
Mode: 3
LetterboxInBreaks: 0
SpecialStyle: 0
WidescreenStoryboard: 0

[Editor]
DistanceSpacing: 0.9
BeatDivisor: 6
GridSize: 4
TimelineZoom: 2

[Metadata]
Title:Hanagoyomi short version
TitleUnicode:華暦 short version
Artist:Ayumi.
ArtistUnicode:Ayumi.
Creator:Draftnell
Version:Sakura
Source:花の野に咲くうたかたの
Tags:The Sweet World of The Ephemeral Hananono はなのの 花野盛开的瞬间 OP Hana no No ni Saku Utakata no eroge app-107 app-108 青田 新名 original soundtrack Aota Nina Yuki Honda Yuzuhiko SugarMOnster Angel Note Raediaufar Dellvangel
BeatmapID:1091546
BeatmapSetID:513745

[Difficulty]
HPDrainRate:8
CircleSize:6
OverallDifficulty:8
ApproachRate:5
SliderMultiplier:1.4
SliderTickRate:1

[Events]
//Background and Video events
0,0,"3.jpg",0,0
//Break Periods
//Storyboard Layer 0 (Background)
//Storyboard Layer 1 (Fail)
//Storyboard Layer 2 (Pass)
//Storyboard Layer 3 (Foreground)
//Storyboard Sound Samples

[TimingPoints]
-494,500,4,2,1,40,1,0
6,-66.6666666666667,4,2,1,40,0,0
16839,333.333333333333,4,2,1,50,1,0
64838,-100,4,2,1,50,0,1
88838,-100,4,2,1,50,0,0

[HitObjects]
42,192,1006,5,0,0:0:0:0:
213,192,1256,1,0,0:0:0:0:
128,192,1506,1,0,0:0:0:0:
469,192,1506,1,0,0:0:0:0:
42,192,1506,1,0,0:0:0:0:
384,192,1756,1,0,0:0:0:0:
298,192,2006,1,0,0:0:0:0:
213,192,2256,1,0,0:0:0:0:
128,192,2506,1,0,0:0:0:0:
469,192,2506,1,0,0:0:0:0:
298,192,3006,1,0,0:0:0:0:
42,192,3256,1,0,0:0:0:0:
213,192,3506,1,0,0:0:0:0:
384,192,3506,1,0,0:0:0:0:
298,192,4506,1,0,0:0:0:0:
469,192,5006,1,0,0:0:0:0:
384,192,5256,1,0,0:0:0:0:
42,192,5506,1,0,0:0:0:0:
298,192,5506,1,0,0:0:0:0:
128,192,5506,128,0,6256:0:0:0:0:
469,192,5506,1,0,0:0:0:0:
384,192,6506,128,0,7506:0:0:0:0:
213,192,6506,1,0,0:0:0:0:
298,192,7006,1,0,0:0:0:0:
42,192,7506,1,0,0:0:0:0:
469,192,8006,1,0,0:0:0:0:
298,192,8256,1,0,0:0:0:0:
384,192,8506,1,0,0:0:0:0:
42,192,8506,1,0,0:0:0:0:
213,192,9006,128,0,9506:0:0:0:0:
298,192,9256,128,0,9506:0:0:0:0:
42,192,9506,1,0,0:0:0:0:
469,192,9506,1,0,0:0:0:0:
128,192,9506,1,0,0:0:0:0:
384,192,9756,1,0,0:0:0:0:
298,192,10006,1,0,0:0:0:0:
213,192,10256,1,0,0:0:0:0:
128,192,10506,128,0,11506:0:0:0:0:
42,192,10506,1,0,0:0:0:0:
298,192,11006,1,0,0:0:0:0:
213,192,11506,128,0,12006:0:0:0:0:
384,192,11506,1,0,0:0:0:0:
298,192,12006,128,0,12506:0:0:0:0:
42,192,12006,1,0,0:0:0:0:
469,192,12256,1,0,0:0:0:0:
384,192,12506,128,0,13006:0:0:0:0:
128,192,12506,1,0,0:0:0:0:
469,192,13006,128,0,13256:0:0:0:0:
213,192,13006,1,0,0:0:0:0:
298,192,13506,1,0,0:0:0:0:
128,192,13506,1,0,0:0:0:0:
42,192,13506,128,0,14006:0:0:0:0:
384,192,14006,128,0,14506:0:0:0:0:
469,192,14006,1,0,0:0:0:0:
213,192,14256,1,0,0:0:0:0:
298,192,14506,128,0,15006:0:0:0:0:
128,192,14506,1,0,0:0:0:0:
213,192,15006,128,0,16839:0:0:0:0:
384,192,15006,1,0,0:0:0:0:
469,192,16506,1,0,0:0:0:0:
384,192,16672,1,0,0:0:0:0:
298,192,16839,1,4,0:0:0:0:
42,192,16839,1,8,0:0:0:0:
469,192,16839,1,0,0:0:0:0:
128,192,17005,1,2,0:0:0:0:
213,192,17005,1,0,0:0:0:0:
384,192,17172,1,8,0:0:0:0:
298,192,17172,1,0,0:0:0:0:
42,192,17172,1,0,0:0:0:0:
469,192,17339,1,2,0:0:0:0:
213,192,17339,1,0,0:0:0:0:
384,192,17505,1,8,0:0:0:0:
128,192,17505,1,0,0:0:0:0:
42,192,17505,1,0,0:0:0:0:
469,192,17672,1,2,0:0:0:0:
298,192,17672,1,0,0:0:0:0:
384,192,17839,1,8,0:0:0:0:
213,192,17839,1,0,0:0:0:0:
42,192,17839,1,0,0:0:0:0:
128,192,18005,1,2,0:0:0:0:
298,192,18005,1,0,0:0:0:0:
213,192,18172,1,8,0:0:0:0:
469,192,18172,1,0,0:0:0:0:
384,192,18172,1,0,0:0:0:0:
42,192,18339,1,2,0:0:0:0:
298,192,18339,1,0,0:0:0:0:
213,192,18422,1,0,0:0:0:0:
298,192,18505,1,8,0:0:0:0:
469,192,18505,1,0,0:0:0:0:
128,192,18505,1,0,0:0:0:0:
42,192,18672,1,2,0:0:0:0:
213,192,18672,1,0,0:0:0:0:
298,192,18838,1,8,0:0:0:0:
384,192,18838,1,0,0:0:0:0:
469,192,18838,1,0,0:0:0:0:
213,192,19005,1,2,0:0:0:0:
128,192,19005,1,0,0:0:0:0:
42,192,19172,1,8,0:0:0:0:
298,192,19172,1,0,0:0:0:0:
469,192,19172,1,0,0:0:0:0:
384,192,19338,1,2,0:0:0:0:
213,192,19338,1,0,0:0:0:0:
298,192,19505,1,8,0:0:0:0:
128,192,19505,1,0,0:0:0:0:
42,192,19505,1,0,0:0:0:0:
384,192,19672,1,2,0:0:0:0:
469,192,19672,1,0,0:0:0:0:
213,192,19838,1,8,0:0:0:0:
128,192,19838,1,0,0:0:0:0:
298,192,19838,1,0,0:0:0:0:
42,192,20005,1,2,0:0:0:0:
384,192,20005,1,0,0:0:0:0:
128,192,20172,1,8,0:0:0:0:
213,192,20172,1,0,0:0:0:0:
469,192,20172,1,0,0:0:0:0:
298,192,20338,1,2,0:0:0:0:
384,192,20338,1,0,0:0:0:0:
469,192,20505,1,8,0:0:0:0:
213,192,20505,1,0,0:0:0:0:
42,192,20505,1,0,0:0:0:0:
128,192,20672,1,2,0:0:0:0:
298,192,20672,1,0,0:0:0:0:
213,192,20838,1,8,0:0:0:0:
469,192,20838,1,0,0:0:0:0:
42,192,20838,1,0,0:0:0:0:
384,192,21005,1,2,0:0:0:0:
128,192,21005,1,0,0:0:0:0:
298,192,21088,1,0,0:0:0:0:
213,192,21172,1,8,0:0:0:0:
469,192,21172,1,0,0:0:0:0:
42,192,21172,1,0,0:0:0:0:
298,192,21338,1,2,0:0:0:0:
384,192,21338,1,0,0:0:0:0:
213,192,21505,1,8,0:0:0:0:
42,192,21505,1,0,0:0:0:0:
128,192,21505,1,0,0:0:0:0:
298,192,21672,1,2,0:0:0:0:
469,192,21672,1,0,0:0:0:0:
213,192,21838,1,8,0:0:0:0:
128,192,21838,1,0,0:0:0:0:
384,192,21838,1,0,0:0:0:0:
42,192,22005,1,2,0:0:0:0:
298,192,22005,1,0,0:0:0:0:
128,192,22172,1,8,0:0:0:0:
469,192,22172,1,0,0:0:0:0:
384,192,22172,1,0,0:0:0:0:
42,192,22338,1,2,0:0:0:0:
213,192,22338,1,0,0:0:0:0:
298,192,22505,1,8,0:0:0:0:
128,192,22505,1,0,0:0:0:0:
469,192,22505,1,0,0:0:0:0:
384,192,22672,1,2,0:0:0:0:
213,192,22672,1,0,0:0:0:0:
298,192,22838,1,8,0:0:0:0:
42,192,22838,1,0,0:0:0:0:
128,192,22838,1,0,0:0:0:0:
469,192,23005,1,2,0:0:0:0:
213,192,23005,1,0,0:0:0:0:
384,192,23172,1,8,0:0:0:0:
298,192,23172,1,0,0:0:0:0:
42,192,23172,1,0,0:0:0:0:
128,192,23338,1,2,0:0:0:0:
213,192,23338,1,0,0:0:0:0:
298,192,23505,1,8,0:0:0:0:
384,192,23505,1,0,0:0:0:0:
469,192,23505,1,0,0:0:0:0:
42,192,23672,1,2,0:0:0:0:
213,192,23672,1,0,0:0:0:0:
469,192,23838,1,8,0:0:0:0:
298,192,23838,1,0,0:0:0:0:
128,192,23838,1,0,0:0:0:0:
213,192,24005,1,2,0:0:0:0:
384,192,24005,1,0,0:0:0:0:
298,192,24172,1,8,0:0:0:0:
128,192,24172,1,0,0:0:0:0:
42,192,24172,1,0,0:0:0:0:
469,192,24338,1,2,0:0:0:0:
213,192,24338,1,0,0:0:0:0:
128,192,24505,1,8,0:0:0:0:
298,192,24505,1,0,0:0:0:0:
384,192,24505,1,0,0:0:0:0:
42,192,24672,1,2,0:0:0:0:
213,192,24672,1,0,0:0:0:0:
469,192,24838,1,0,0:0:0:0:
384,192,24838,1,2,0:0:0:0:
298,192,24838,1,4,0:0:0:0:
128,192,24838,1,0,0:0:0:0:
213,192,25172,1,0,0:0:0:0:
42,192,25338,1,2,0:0:0:0:
128,192,25338,1,0,0:0:0:0:
469,192,25338,1,0,0:0:0:0:
298,192,25338,1,4,0:0:0:0:
213,192,25505,1,2,0:0:0:0:
384,192,25505,1,4,0:0:0:0:
469,192,25505,1,0,0:0:0:0:
42,192,25505,1,0,0:0:0:0:
298,192,25838,1,8,0:0:0:0:
469,192,25838,1,0,0:0:0:0:
128,192,25838,1,0,0:0:0:0:
42,192,26172,1,4,0:0:0:0:
213,192,26172,1,2,0:0:0:0:
298,192,26172,1,0,0:0:0:0:
469,192,26172,1,0,0:0:0:0:
128,192,26338,1,0,0:0:0:0:
384,192,26338,1,0,0:0:0:0:
213,192,26422,1,0,0:0:0:0:
469,192,26422,1,0,0:0:0:0:
42,192,26505,1,4,0:0:0:0:
384,192,26505,1,2,0:0:0:0:
128,192,26505,1,0,0:0:0:0:
298,192,26505,1,0,0:0:0:0:
298,192,26672,1,0,0:0:0:0:
213,192,26672,1,0,0:0:0:0:
469,192,26838,1,4,0:0:0:0:
42,192,26838,1,2,0:0:0:0:
128,192,26838,128,0,27172:0:0:0:0:
384,192,26838,1,0,0:0:0:0:
469,192,27505,128,0,27672:0:0:0:0:
298,192,27672,128,0,27838:0:0:0:0:
384,192,27838,128,0,28005:0:0:0:0:
213,192,28005,128,0,28172:0:0:0:0:
298,192,28172,128,0,28338:0:0:0:0:
128,192,28338,128,0,28505:0:0:0:0:
213,192,28505,128,0,28672:0:0:0:0:
42,192,28672,128,0,28838:0:0:0:0:
128,192,28838,128,0,29338:0:0:0:0:
298,192,28838,1,0,0:0:0:0:
213,192,29338,1,0,0:0:0:0:
384,192,29505,128,0,30005:0:0:0:0:
469,192,29505,1,0,0:0:0:0:
42,192,30005,1,0,0:0:0:0:
128,192,30172,1,0,0:0:0:0:
298,192,30172,1,0,0:0:0:0:
469,192,30338,1,0,0:0:0:0:
384,192,30505,1,0,0:0:0:0:
298,192,30672,1,0,0:0:0:0:
213,192,30838,128,0,31172:0:0:0:0:
128,192,30838,1,0,0:0:0:0:
469,192,31505,128,0,32005:0:0:0:0:
42,192,31505,1,0,0:0:0:0:
384,192,31505,1,0,0:0:0:0:
213,192,32005,1,0,0:0:0:0:
128,192,32172,128,0,32672:0:0:0:0:
384,192,32172,1,0,0:0:0:0:
384,192,32672,1,0,0:0:0:0:
42,192,32838,1,0,0:0:0:0:
298,192,32838,1,0,0:0:0:0:
213,192,33005,1,0,0:0:0:0:
128,192,33172,1,0,0:0:0:0:
384,192,33172,1,0,0:0:0:0:
298,192,33338,1,0,0:0:0:0:
42,192,33505,1,0,0:0:0:0:
469,192,33505,1,0,0:0:0:0:
384,192,33505,128,0,33838:0:0:0:0:
213,192,34172,1,0,0:0:0:0:
469,192,34172,1,0,0:0:0:0:
384,192,34338,1,0,0:0:0:0:
298,192,34505,1,0,0:0:0:0:
42,192,34672,1,0,0:0:0:0:
128,192,34838,1,0,0:0:0:0:
469,192,34838,1,0,0:0:0:0:
213,192,35005,1,0,0:0:0:0:
384,192,35172,1,0,0:0:0:0:
42,192,35338,1,0,0:0:0:0:
298,192,35505,1,0,0:0:0:0:
128,192,35672,1,0,0:0:0:0:
469,192,35838,1,0,0:0:0:0:
384,192,36005,1,0,0:0:0:0:
298,192,36172,1,0,0:0:0:0:
42,192,36172,1,0,0:0:0:0:
128,192,36338,1,0,0:0:0:0:
213,192,36505,1,0,0:0:0:0:
469,192,36672,1,0,0:0:0:0:
42,192,36838,1,0,0:0:0:0:
298,192,37005,1,0,0:0:0:0:
128,192,37172,1,0,0:0:0:0:
213,192,37338,1,0,0:0:0:0:
469,192,37505,1,0,0:0:0:0:
42,192,37505,1,0,0:0:0:0:
384,192,37838,1,0,0:0:0:0:
298,192,38172,1,0,0:0:0:0:
42,192,38338,1,0,0:0:0:0:
128,192,38422,1,0,0:0:0:0:
213,192,38505,1,0,0:0:0:0:
469,192,38672,1,0,0:0:0:0:
384,192,38838,128,0,39172:0:0:0:0:
298,192,39172,128,0,39505:0:0:0:0:
42,192,39505,1,0,0:0:0:0:
469,192,39505,1,0,0:0:0:0:
213,192,39672,1,0,0:0:0:0:
298,192,39838,1,0,0:0:0:0:
128,192,40005,1,0,0:0:0:0:
384,192,40172,1,0,0:0:0:0:
42,192,40505,1,0,0:0:0:0:
384,192,40727,1,0,0:0:0:0:
298,192,40783,1,0,0:0:0:0:
213,192,40838,1,0,0:0:0:0:
128,192,41005,1,0,0:0:0:0:
469,192,41172,1,0,0:0:0:0:
298,192,41338,1,0,0:0:0:0:
42,192,41505,1,0,0:0:0:0:
128,192,41616,1,0,0:0:0:0:
213,192,41727,1,0,0:0:0:0:
298,192,41838,1,0,0:0:0:0:
384,192,41950,1,0,0:0:0:0:
469,192,42061,1,0,0:0:0:0:
42,192,42172,1,4,0:0:0:0:
128,192,42172,1,2,0:0:0:0:
384,192,42172,1,0,0:0:0:0:
298,192,42172,1,0,0:0:0:0:
213,192,42338,1,0,0:0:0:0:
298,192,42505,1,8,0:0:0:0:
128,192,42505,1,0,0:0:0:0:
469,192,42505,1,0,0:0:0:0:
384,192,42672,1,0,0:0:0:0:
469,192,42838,1,2,0:0:0:0:
42,192,42838,1,0,0:0:0:0:
128,192,42922,1,0,0:0:0:0:
213,192,43005,1,0,0:0:0:0:
298,192,43088,1,0,0:0:0:0:
213,192,43172,1,8,0:0:0:0:
42,192,43172,1,0,0:0:0:0:
469,192,43172,1,0,0:0:0:0:
384,192,43338,1,0,0:0:0:0:
298,192,43505,1,2,0:0:0:0:
213,192,43505,1,0,0:0:0:0:
469,192,43672,1,0,0:0:0:0:
384,192,43755,1,0,0:0:0:0:
128,192,43838,1,8,0:0:0:0:
298,192,43838,1,0,0:0:0:0:
42,192,43838,1,0,0:0:0:0:
213,192,44005,1,0,0:0:0:0:
384,192,44172,1,2,0:0:0:0:
42,192,44172,1,0,0:0:0:0:
42,192,44338,1,0,0:0:0:0:
42,192,44505,1,8,0:0:0:0:
298,192,44505,1,0,0:0:0:0:
469,192,44505,1,0,0:0:0:0:
128,192,44672,1,0,0:0:0:0:
213,192,44838,1,2,0:0:0:0:
384,192,44838,1,0,0:0:0:0:
298,192,45005,1,0,0:0:0:0:
213,192,45088,1,0,0:0:0:0:
128,192,45172,1,8,0:0:0:0:
42,192,45172,1,0,0:0:0:0:
469,192,45172,1,0,0:0:0:0:
384,192,45338,1,0,0:0:0:0:
298,192,45505,1,2,0:0:0:0:
213,192,45505,1,0,0:0:0:0:
469,192,45672,1,0,0:0:0:0:
384,192,45755,1,0,0:0:0:0:
298,192,45838,1,8,0:0:0:0:
42,192,45838,1,0,0:0:0:0:
128,192,45838,1,0,0:0:0:0:
213,192,46005,1,0,0:0:0:0:
128,192,46172,1,2,0:0:0:0:
469,192,46172,1,0,0:0:0:0:
213,192,46338,1,0,0:0:0:0:
298,192,46422,1,0,0:0:0:0:
42,192,46505,1,8,0:0:0:0:
469,192,46505,1,0,0:0:0:0:
384,192,46505,1,0,0:0:0:0:
128,192,46588,1,0,0:0:0:0:
213,192,46672,1,0,0:0:0:0:
298,192,46838,1,2,0:0:0:0:
469,192,46838,1,0,0:0:0:0:
384,192,47005,1,0,0:0:0:0:
128,192,47172,1,8,0:0:0:0:
469,192,47172,1,0,0:0:0:0:
42,192,47172,1,0,0:0:0:0:
213,192,47172,128,0,47505:0:0:0:0:
298,192,47505,1,4,0:0:0:0:
42,192,47505,1,2,0:0:0:0:
469,192,47505,1,0,0:0:0:0:
384,192,47505,1,0,0:0:0:0:
128,192,47588,1,0,0:0:0:0:
213,192,47672,1,0,0:0:0:0:
298,192,47755,1,0,0:0:0:0:
128,192,47838,1,8,0:0:0:0:
469,192,47838,1,0,0:0:0:0:
42,192,47838,1,0,0:0:0:0:
384,192,48005,1,0,0:0:0:0:
213,192,48172,1,2,0:0:0:0:
298,192,48172,1,0,0:0:0:0:
128,192,48338,1,0,0:0:0:0:
213,192,48505,1,8,0:0:0:0:
469,192,48505,1,0,0:0:0:0:
42,192,48505,1,0,0:0:0:0:
298,192,48672,1,0,0:0:0:0:
128,192,48838,1,2,0:0:0:0:
213,192,48838,1,0,0:0:0:0:
42,192,49005,1,0,0:0:0:0:
128,192,49088,1,0,0:0:0:0:
298,192,49172,1,8,0:0:0:0:
469,192,49172,1,0,0:0:0:0:
213,192,49172,1,0,0:0:0:0:
42,192,49338,1,0,0:0:0:0:
384,192,49505,1,2,0:0:0:0:
128,192,49505,1,0,0:0:0:0:
384,192,49672,1,0,0:0:0:0:
384,192,49838,1,8,0:0:0:0:
42,192,49838,1,0,0:0:0:0:
213,192,49838,1,0,0:0:0:0:
298,192,50005,1,0,0:0:0:0:
128,192,50172,1,2,0:0:0:0:
469,192,50172,1,0,0:0:0:0:
384,192,50255,1,0,0:0:0:0:
298,192,50338,1,0,0:0:0:0:
42,192,50505,1,8,0:0:0:0:
213,192,50505,1,0,0:0:0:0:
384,192,50505,1,0,0:0:0:0:
128,192,50588,1,0,0:0:0:0:
213,192,50672,1,0,0:0:0:0:
298,192,50838,1,2,0:0:0:0:
469,192,50838,1,0,0:0:0:0:
384,192,51005,1,0,0:0:0:0:
298,192,51172,1,8,0:0:0:0:
213,192,51172,1,0,0:0:0:0:
42,192,51172,1,0,0:0:0:0:
128,192,51338,1,0,0:0:0:0:
213,192,51505,1,2,0:0:0:0:
469,192,51505,1,0,0:0:0:0:
384,192,51672,1,0,0:0:0:0:
213,192,51838,1,8,0:0:0:0:
42,192,51838,1,0,0:0:0:0:
298,192,51838,1,0,0:0:0:0:
128,192,52005,1,0,0:0:0:0:
469,192,52172,1,2,0:0:0:0:
213,192,52172,1,0,0:0:0:0:
298,192,52338,1,0,0:0:0:0:
42,192,52505,1,8,0:0:0:0:
213,192,52505,1,0,0:0:0:0:
469,192,52505,1,0,0:0:0:0:
384,192,52672,1,0,0:0:0:0:
298,192,52838,1,0,0:0:0:0:
42,192,53172,128,0,53505:0:0:0:0:
128,192,53505,128,0,53838:0:0:0:0:
469,192,53505,1,0,0:0:0:0:
384,192,53672,1,0,0:0:0:0:
213,192,53838,128,0,54172:0:0:0:0:
298,192,53838,1,0,0:0:0:0:
42,192,54005,1,0,0:0:0:0:
469,192,54172,128,0,54505:0:0:0:0:
384,192,54172,1,0,0:0:0:0:
384,192,54505,128,0,54838:0:0:0:0:
42,192,54505,1,0,0:0:0:0:
298,192,54838,128,0,55172:0:0:0:0:
128,192,54838,1,0,0:0:0:0:
213,192,55172,128,0,55505:0:0:0:0:
469,192,55172,1,0,0:0:0:0:
42,192,55505,1,4,0:0:0:0:
298,192,55505,1,2,0:0:0:0:
469,192,55505,1,0,0:0:0:0:
128,192,55672,1,8,0:0:0:0:
384,192,55672,1,0,0:0:0:0:
213,192,55755,1,8,0:0:0:0:
298,192,55755,1,0,0:0:0:0:
42,192,55838,1,8,0:0:0:0:
469,192,55838,1,0,0:0:0:0:
213,192,56005,1,2,0:0:0:0:
298,192,56005,1,0,0:0:0:0:
384,192,56005,1,0,0:0:0:0:
42,192,56338,1,8,0:0:0:0:
298,192,56338,1,0,0:0:0:0:
213,192,56505,1,8,0:0:0:0:
469,192,56505,1,0,0:0:0:0:
384,192,56588,1,0,0:0:0:0:
298,192,56672,1,0,0:0:0:0:
213,192,56755,1,0,0:0:0:0:
42,192,56838,1,2,0:0:0:0:
128,192,56838,1,4,0:0:0:0:
384,192,56838,1,0,0:0:0:0:
213,192,57005,1,8,0:0:0:0:
469,192,57005,1,0,0:0:0:0:
298,192,57088,1,8,0:0:0:0:
42,192,57088,1,0,0:0:0:0:
384,192,57172,1,8,0:0:0:0:
128,192,57172,1,0,0:0:0:0:
469,192,57338,1,4,0:0:0:0:
42,192,57338,1,2,0:0:0:0:
298,192,57338,1,0,0:0:0:0:
213,192,57672,1,8,0:0:0:0:
469,192,57672,1,0,0:0:0:0:
128,192,57755,1,0,0:0:0:0:
384,192,57755,1,0,0:0:0:0:
42,192,57838,1,0,0:0:0:0:
298,192,57838,1,2,0:0:0:0:
213,192,57922,1,2,0:0:0:0:
469,192,57922,1,0,0:0:0:0:
128,192,58005,1,2,0:0:0:0:
384,192,58005,1,0,0:0:0:0:
298,192,58088,1,0,0:0:0:0:
42,192,58088,1,0,0:0:0:0:
213,192,58172,1,2,0:0:0:0:
469,192,58172,1,0,0:0:0:0:
128,192,58172,1,0,0:0:0:0:
384,192,58422,1,0,0:0:0:0:
298,192,58505,1,0,0:0:0:0:
213,192,58505,1,0,0:0:0:0:
128,192,58672,1,0,0:0:0:0:
42,192,58672,1,0,0:0:0:0:
298,192,58838,1,0,0:0:0:0:
384,192,58838,1,0,0:0:0:0:
42,192,59088,1,0,0:0:0:0:
384,192,59172,1,0,0:0:0:0:
469,192,59172,1,0,0:0:0:0:
298,192,59338,1,2,0:0:0:0:
128,192,59338,1,0,0:0:0:0:
128,192,59505,1,2,0:0:0:0:
298,192,59505,1,0,0:0:0:0:
469,192,59755,1,0,0:0:0:0:
213,192,59838,1,0,0:0:0:0:
42,192,59838,1,0,0:0:0:0:
298,192,60005,1,0,0:0:0:0:
384,192,60005,1,0,0:0:0:0:
128,192,60172,1,0,0:0:0:0:
213,192,60172,1,0,0:0:0:0:
42,192,60422,1,0,0:0:0:0:
298,192,60505,1,0,0:0:0:0:
469,192,60505,1,0,0:0:0:0:
128,192,60672,1,0,0:0:0:0:
384,192,60672,1,0,0:0:0:0:
213,192,60838,1,2,0:0:0:0:
298,192,60838,1,0,0:0:0:0:
384,192,61088,1,0,0:0:0:0:
213,192,61172,1,0,0:0:0:0:
42,192,61172,1,0,0:0:0:0:
128,192,61338,1,0,0:0:0:0:
298,192,61338,1,0,0:0:0:0:
213,192,61505,1,0,0:0:0:0:
384,192,61505,1,0,0:0:0:0:
469,192,61755,1,0,0:0:0:0:
298,192,61838,1,2,0:0:0:0:
42,192,61838,1,0,0:0:0:0:
128,192,62005,1,0,0:0:0:0:
298,192,62172,1,4,0:0:0:0:
213,192,62172,1,0,0:0:0:0:
384,192,62172,1,0,0:0:0:0:
42,192,62172,128,0,63505:0:0:0:0:
469,192,62172,128,0,64838:0:0:0:0:
298,192,63505,128,0,64838:0:0:0:0:
128,192,64172,128,0,64505:0:0:0:0:
213,192,64505,128,0,64838:0:0:0:0:
128,192,64838,1,4,0:0:0:0:
42,192,64838,1,2,0:0:0:0:
384,192,64838,1,0,0:0:0:0:
213,192,65005,1,0,0:0:0:0:
298,192,65088,1,0,0:0:0:0:
384,192,65172,1,8,0:0:0:0:
469,192,65172,1,0,0:0:0:0:
128,192,65172,1,0,0:0:0:0:
213,192,65338,1,0,0:0:0:0:
298,192,65338,1,0,0:0:0:0:
42,192,65505,1,2,0:0:0:0:
128,192,65505,1,0,0:0:0:0:
298,192,65672,1,0,0:0:0:0:
213,192,65838,1,8,0:0:0:0:
42,192,65838,1,0,0:0:0:0:
469,192,65838,1,0,0:0:0:0:
384,192,66005,1,0,0:0:0:0:
298,192,66005,1,0,0:0:0:0:
42,192,66172,1,2,0:0:0:0:
128,192,66172,1,0,0:0:0:0:
384,192,66338,1,0,0:0:0:0:
469,192,66338,1,0,0:0:0:0:
298,192,66505,1,8,0:0:0:0:
213,192,66505,1,0,0:0:0:0:
128,192,66505,1,0,0:0:0:0:
42,192,66672,1,0,0:0:0:0:
384,192,66672,1,0,0:0:0:0:
128,192,66838,1,2,0:0:0:0:
469,192,66838,1,0,0:0:0:0:
298,192,67005,1,0,0:0:0:0:
213,192,67172,1,8,0:0:0:0:
42,192,67172,1,0,0:0:0:0:
384,192,67172,1,0,0:0:0:0:
469,192,67338,1,0,0:0:0:0:
298,192,67338,1,0,0:0:0:0:
213,192,67505,1,2,0:0:0:0:
42,192,67505,1,0,0:0:0:0:
128,192,67672,1,0,0:0:0:0:
384,192,67838,1,8,0:0:0:0:
469,192,67838,1,0,0:0:0:0:
298,192,67838,1,0,0:0:0:0:
42,192,68005,1,0,0:0:0:0:
128,192,68005,1,0,0:0:0:0:
298,192,68172,1,2,0:0:0:0:
213,192,68172,1,0,0:0:0:0:
469,192,68338,1,0,0:0:0:0:
384,192,68422,1,0,0:0:0:0:
298,192,68505,1,8,0:0:0:0:
42,192,68505,1,0,0:0:0:0:
213,192,68505,1,0,0:0:0:0:
128,192,68672,1,0,0:0:0:0:
384,192,68672,1,0,0:0:0:0:
469,192,68838,1,2,0:0:0:0:
298,192,68838,1,0,0:0:0:0:
384,192,69005,1,0,0:0:0:0:
213,192,69005,1,0,0:0:0:0:
298,192,69172,1,8,0:0:0:0:
469,192,69172,1,0,0:0:0:0:
42,192,69172,1,0,0:0:0:0:
128,192,69338,1,0,0:0:0:0:
213,192,69338,1,0,0:0:0:0:
384,192,69505,1,2,0:0:0:0:
469,192,69505,1,0,0:0:0:0:
298,192,69672,1,0,0:0:0:0:
128,192,69838,1,8,0:0:0:0:
213,192,69838,1,0,0:0:0:0:
42,192,69838,1,0,0:0:0:0:
384,192,70005,1,0,0:0:0:0:
213,192,70172,1,4,0:0:0:0:
469,192,70172,1,2,0:0:0:0:
298,192,70172,1,0,0:0:0:0:
128,192,70172,128,0,70505:0:0:0:0:
42,192,70338,1,0,0:0:0:0:
298,192,70505,1,8,0:0:0:0:
384,192,70505,1,0,0:0:0:0:
213,192,70505,128,0,70838:0:0:0:0:
469,192,70672,1,0,0:0:0:0:
128,192,70838,1,2,0:0:0:0:
42,192,70838,1,0,0:0:0:0:
298,192,70838,128,0,71172:0:0:0:0:
384,192,71005,1,0,0:0:0:0:
213,192,71172,1,8,0:0:0:0:
469,192,71172,1,0,0:0:0:0:
42,192,71172,128,0,71505:0:0:0:0:
128,192,71338,1,0,0:0:0:0:
298,192,71505,1,2,0:0:0:0:
384,192,71505,1,0,0:0:0:0:
469,192,71505,128,0,71838:0:0:0:0:
213,192,71672,1,0,0:0:0:0:
42,192,71838,1,8,0:0:0:0:
298,192,71838,1,0,0:0:0:0:
384,192,71838,128,0,72172:0:0:0:0:
128,192,72005,1,0,0:0:0:0:
213,192,72172,1,2,0:0:0:0:
469,192,72172,1,0,0:0:0:0:
298,192,72172,128,0,72505:0:0:0:0:
42,192,72338,1,0,0:0:0:0:
128,192,72505,1,8,0:0:0:0:
384,192,72505,1,0,0:0:0:0:
213,192,72672,1,0,0:0:0:0:
469,192,72838,1,2,0:0:0:0:
298,192,72838,1,0,0:0:0:0:
42,192,73005,1,0,0:0:0:0:
128,192,73088,1,0,0:0:0:0:
213,192,73172,1,8,0:0:0:0:
384,192,73172,1,0,0:0:0:0:
298,192,73172,1,0,0:0:0:0:
469,192,73338,1,0,0:0:0:0:
384,192,73338,1,0,0:0:0:0:
298,192,73505,1,2,0:0:0:0:
42,192,73505,1,0,0:0:0:0:
128,192,73672,1,0,0:0:0:0:
384,192,73672,1,0,0:0:0:0:
298,192,73838,1,8,0:0:0:0:
469,192,73838,1,0,0:0:0:0:
42,192,73838,1,0,0:0:0:0:
213,192,74005,1,0,0:0:0:0:
384,192,74005,1,0,0:0:0:0:
128,192,74172,1,2,0:0:0:0:
469,192,74172,1,0,0:0:0:0:
298,192,74338,1,0,0:0:0:0:
213,192,74505,1,8,0:0:0:0:
42,192,74505,1,0,0:0:0:0:
384,192,74505,1,0,0:0:0:0:
128,192,74672,1,0,0:0:0:0:
384,192,74838,1,2,0:0:0:0:
298,192,74838,1,0,0:0:0:0:
213,192,75005,1,0,0:0:0:0:
469,192,75005,1,8,0:0:0:0:
128,192,75005,1,0,0:0:0:0:
213,192,75172,1,8,0:0:0:0:
469,192,75172,1,0,0:0:0:0:
128,192,75172,1,0,0:0:0:0:
42,192,75255,1,0,0:0:0:0:
298,192,75255,1,8,0:0:0:0:
128,192,75338,1,0,0:0:0:0:
384,192,75338,1,8,0:0:0:0:
469,192,75422,1,8,0:0:0:0:
213,192,75422,1,0,0:0:0:0:
384,192,75505,1,2,0:0:0:0:
298,192,75505,1,4,0:0:0:0:
42,192,75505,1,0,0:0:0:0:
128,192,75505,1,0,0:0:0:0:
213,192,75672,1,0,0:0:0:0:
384,192,75838,1,8,0:0:0:0:
128,192,75838,1,0,0:0:0:0:
469,192,75838,1,0,0:0:0:0:
298,192,76005,1,0,0:0:0:0:
213,192,76005,1,0,0:0:0:0:
42,192,76172,1,2,0:0:0:0:
128,192,76172,1,0,0:0:0:0:
384,192,76338,1,0,0:0:0:0:
298,192,76422,1,0,0:0:0:0:
42,192,76505,1,8,0:0:0:0:
469,192,76505,1,0,0:0:0:0:
213,192,76505,1,0,0:0:0:0:
298,192,76672,1,0,0:0:0:0:
384,192,76672,1,0,0:0:0:0:
42,192,76838,1,2,0:0:0:0:
128,192,76838,1,0,0:0:0:0:
384,192,77005,1,0,0:0:0:0:
469,192,77005,1,0,0:0:0:0:
128,192,77172,1,8,0:0:0:0:
298,192,77172,1,0,0:0:0:0:
213,192,77172,1,0,0:0:0:0:
42,192,77338,1,0,0:0:0:0:
384,192,77338,1,0,0:0:0:0:
469,192,77505,1,2,0:0:0:0:
128,192,77505,1,0,0:0:0:0:
298,192,77672,1,0,0:0:0:0:
384,192,77838,1,8,0:0:0:0:
42,192,77838,1,0,0:0:0:0:
213,192,77838,1,0,0:0:0:0:
469,192,78005,1,0,0:0:0:0:
298,192,78005,1,0,0:0:0:0:
213,192,78172,1,2,0:0:0:0:
42,192,78172,1,0,0:0:0:0:
128,192,78338,1,0,0:0:0:0:
469,192,78505,1,8,0:0:0:0:
298,192,78505,1,0,0:0:0:0:
384,192,78505,1,0,0:0:0:0:
128,192,78672,1,0,0:0:0:0:
42,192,78672,1,0,0:0:0:0:
298,192,78838,1,2,0:0:0:0:
213,192,78838,1,0,0:0:0:0:
469,192,79005,1,0,0:0:0:0:
384,192,79172,1,8,0:0:0:0:
213,192,79172,1,0,0:0:0:0:
42,192,79172,1,0,0:0:0:0:
128,192,79338,1,0,0:0:0:0:
298,192,79338,1,0,0:0:0:0:
469,192,79505,1,2,0:0:0:0:
42,192,79505,1,0,0:0:0:0:
384,192,79588,1,0,0:0:0:0:
298,192,79672,1,0,0:0:0:0:
213,192,79755,1,0,0:0:0:0:
298,192,79838,1,8,0:0:0:0:
128,192,79838,1,0,0:0:0:0:
469,192,79838,1,0,0:0:0:0:
42,192,80005,1,0,0:0:0:0:
213,192,80005,1,0,0:0:0:0:
469,192,80172,1,2,0:0:0:0:
384,192,80172,1,0,0:0:0:0:
298,192,80338,1,0,0:0:0:0:
42,192,80505,1,8,0:0:0:0:
128,192,80505,1,0,0:0:0:0:
213,192,80505,1,0,0:0:0:0:
384,192,80672,1,0,0:0:0:0:
213,192,80838,1,4,0:0:0:0:
469,192,80838,1,2,0:0:0:0:
42,192,80838,1,0,0:0:0:0:
298,192,80838,128,0,81172:0:0:0:0:
128,192,81005,1,0,0:0:0:0:
384,192,81172,1,8,0:0:0:0:
469,192,81172,1,0,0:0:0:0:
213,192,81172,128,0,81505:0:0:0:0:
42,192,81338,1,0,0:0:0:0:
384,192,81505,1,2,0:0:0:0:
298,192,81505,1,0,0:0:0:0:
128,192,81505,128,0,81838:0:0:0:0:
469,192,81672,1,0,0:0:0:0:
213,192,81838,1,8,0:0:0:0:
42,192,81838,1,0,0:0:0:0:
384,192,81838,128,0,82172:0:0:0:0:
469,192,82005,1,0,0:0:0:0:
298,192,82172,1,2,0:0:0:0:
128,192,82172,1,0,0:0:0:0:
42,192,82172,128,0,82505:0:0:0:0:
213,192,82338,1,0,0:0:0:0:
298,192,82505,1,8,0:0:0:0:
384,192,82505,1,0,0:0:0:0:
469,192,82505,128,0,82838:0:0:0:0:
128,192,82672,1,0,0:0:0:0:
298,192,82838,1,2,0:0:0:0:
42,192,82838,1,0,0:0:0:0:
213,192,82838,128,0,83172:0:0:0:0:
384,192,83005,1,0,0:0:0:0:
298,192,83172,1,8,0:0:0:0:
469,192,83172,1,0,0:0:0:0:
128,192,83172,1,0,0:0:0:0:
42,192,83338,1,0,0:0:0:0:
469,192,83505,1,2,0:0:0:0:
298,192,83505,1,0,0:0:0:0:
42,192,83672,1,0,0:0:0:0:
128,192,83755,1,0,0:0:0:0:
298,192,83838,1,8,0:0:0:0:
213,192,83838,1,0,0:0:0:0:
384,192,83838,1,0,0:0:0:0:
128,192,84005,1,0,0:0:0:0:
469,192,84005,1,0,0:0:0:0:
298,192,84172,1,2,0:0:0:0:
213,192,84172,1,0,0:0:0:0:
128,192,84338,1,0,0:0:0:0:
384,192,84338,1,0,0:0:0:0:
469,192,84505,1,8,0:0:0:0:
213,192,84505,1,0,0:0:0:0:
42,192,84505,1,0,0:0:0:0:
298,192,84672,1,0,0:0:0:0:
384,192,84838,1,2,0:0:0:0:
128,192,84838,1,0,0:0:0:0:
213,192,85005,1,0,0:0:0:0:
298,192,85172,1,8,0:0:0:0:
42,192,85172,1,0,0:0:0:0:
469,192,85172,1,0,0:0:0:0:
128,192,85338,1,0,0:0:0:0:
213,192,85422,1,0,0:0:0:0:
298,192,85505,1,2,0:0:0:0:
384,192,85505,1,0,0:0:0:0:
213,192,85838,1,8,0:0:0:0:
469,192,85838,1,0,0:0:0:0:
384,192,85922,1,8,0:0:0:0:
128,192,85922,1,0,0:0:0:0:
42,192,86005,1,8,0:0:0:0:
298,192,86005,1,0,0:0:0:0:
469,192,86088,1,8,0:0:0:0:
213,192,86088,1,0,0:0:0:0:
298,192,86172,1,2,0:0:0:0:
384,192,86172,1,4,0:0:0:0:
128,192,86172,1,0,0:0:0:0:
42,192,86172,128,0,86838:0:0:0:0:
128,192,86838,1,2,0:0:0:0:
469,192,86838,1,4,0:0:0:0:
213,192,86838,1,0,0:0:0:0:
384,192,86838,128,0,87505:0:0:0:0:
298,192,87505,1,8,0:0:0:0:
42,192,87505,1,0,0:0:0:0:
384,192,87588,1,8,0:0:0:0:
128,192,87588,1,0,0:0:0:0:
213,192,87672,1,8,0:0:0:0:
469,192,87672,1,0,0:0:0:0:
298,192,87755,1,8,0:0:0:0:
42,192,87755,1,0,0:0:0:0:
128,192,87838,1,8,0:0:0:0:
384,192,87838,1,0,0:0:0:0:
213,192,87922,1,8,0:0:0:0:
469,192,87922,1,0,0:0:0:0:
298,192,88005,1,8,0:0:0:0:
42,192,88005,1,0,0:0:0:0:
128,192,88088,1,8,0:0:0:0:
384,192,88088,1,0,0:0:0:0:
213,192,88172,1,8,0:0:0:0:
469,192,88172,1,0,0:0:0:0:
42,192,88172,1,0,0:0:0:0:
42,192,88505,1,8,0:0:0:0:
469,192,88505,1,0,0:0:0:0:
384,192,88505,1,0,0:0:0:0:
213,192,88672,1,0,0:0:0:0:
298,192,88672,1,0,0:0:0:0:
128,192,88838,1,8,0:0:0:0:
42,192,88838,1,4,0:0:0:0:
384,192,88838,1,0,0:0:0:0:
469,192,88838,1,0,0:0:0:0:
298,192,89005,1,2,0:0:0:0:
213,192,89005,1,0,0:0:0:0:
128,192,89172,1,8,0:0:0:0:
384,192,89172,1,0,0:0:0:0:
42,192,89172,1,0,0:0:0:0:
298,192,89338,1,2,0:0:0:0:
469,192,89338,1,0,0:0:0:0:
42,192,89505,1,8,0:0:0:0:
384,192,89505,1,0,0:0:0:0:
213,192,89505,1,0,0:0:0:0:
128,192,89672,1,2,0:0:0:0:
469,192,89672,1,0,0:0:0:0:
298,192,89838,1,8,0:0:0:0:
42,192,89838,1,0,0:0:0:0:
384,192,89838,1,0,0:0:0:0:
213,192,90005,1,2,0:0:0:0:
128,192,90005,1,0,0:0:0:0:
384,192,90172,1,8,0:0:0:0:
298,192,90172,1,0,0:0:0:0:
469,192,90172,1,0,0:0:0:0:
42,192,90338,1,2,0:0:0:0:
128,192,90338,1,0,0:0:0:0:
213,192,90422,1,0,0:0:0:0:
128,192,90505,1,8,0:0:0:0:
298,192,90505,1,0,0:0:0:0:
469,192,90505,1,0,0:0:0:0:
213,192,90672,1,2,0:0:0:0:
42,192,90672,1,0,0:0:0:0:
384,192,90838,1,8,0:0:0:0:
469,192,90838,1,0,0:0:0:0:
298,192,90838,1,0,0:0:0:0:
213,192,91005,1,2,0:0:0:0:
128,192,91005,1,0,0:0:0:0:
469,192,91172,1,8,0:0:0:0:
42,192,91172,1,0,0:0:0:0:
298,192,91172,1,0,0:0:0:0:
384,192,91338,1,2,0:0:0:0:
213,192,91338,1,0,0:0:0:0:
298,192,91505,1,8,0:0:0:0:
128,192,91505,1,0,0:0:0:0:
42,192,91505,1,0,0:0:0:0:
384,192,91672,1,2,0:0:0:0:
469,192,91672,1,0,0:0:0:0:
128,192,91838,1,8,0:0:0:0:
213,192,91838,1,0,0:0:0:0:
298,192,91838,1,0,0:0:0:0:
384,192,92005,1,2,0:0:0:0:
42,192,92005,1,0,0:0:0:0:
213,192,92172,1,8,0:0:0:0:
128,192,92172,1,0,0:0:0:0:
469,192,92172,1,0,0:0:0:0:
384,192,92338,1,2,0:0:0:0:
298,192,92338,1,0,0:0:0:0:
42,192,92505,1,8,0:0:0:0:
469,192,92505,1,0,0:0:0:0:
213,192,92505,1,0,0:0:0:0:
128,192,92672,1,2,0:0:0:0:
298,192,92672,1,0,0:0:0:0:
469,192,92838,1,8,0:0:0:0:
42,192,92838,1,0,0:0:0:0:
213,192,92838,1,0,0:0:0:0:
128,192,93005,1,2,0:0:0:0:
384,192,93005,1,0,0:0:0:0:
298,192,93088,1,0,0:0:0:0:
42,192,93172,1,8,0:0:0:0:
213,192,93172,1,0,0:0:0:0:
469,192,93172,1,0,0:0:0:0:
298,192,93338,1,2,0:0:0:0:
384,192,93338,1,0,0:0:0:0:
128,192,93505,1,8,0:0:0:0:
213,192,93505,1,0,0:0:0:0:
42,192,93505,1,0,0:0:0:0:
298,192,93672,1,2,0:0:0:0:
469,192,93672,1,0,0:0:0:0:
213,192,93838,1,8,0:0:0:0:
128,192,93838,1,0,0:0:0:0:
384,192,93838,1,0,0:0:0:0:
42,192,94005,1,2,0:0:0:0:
298,192,94005,1,0,0:0:0:0:
128,192,94172,1,8,0:0:0:0:
469,192,94172,1,0,0:0:0:0:
384,192,94172,1,0,0:0:0:0:
42,192,94338,1,2,0:0:0:0:
213,192,94338,1,0,0:0:0:0:
128,192,94505,1,8,0:0:0:0:
469,192,94505,1,0,0:0:0:0:
298,192,94505,1,0,0:0:0:0:
213,192,94672,1,2,0:0:0:0:
384,192,94672,1,0,0:0:0:0:
298,192,94838,1,8,0:0:0:0:
42,192,94838,1,0,0:0:0:0:
128,192,94838,1,0,0:0:0:0:
213,192,95005,1,2,0:0:0:0:
469,192,95005,1,0,0:0:0:0:
384,192,95172,1,8,0:0:0:0:
298,192,95172,1,0,0:0:0:0:
42,192,95172,1,0,0:0:0:0:
213,192,95338,1,2,0:0:0:0:
128,192,95338,1,0,0:0:0:0:
469,192,95505,1,8,0:0:0:0:
298,192,95505,1,0,0:0:0:0:
384,192,95505,1,0,0:0:0:0:
42,192,95672,1,2,0:0:0:0:
213,192,95672,1,0,0:0:0:0:
298,192,95838,1,8,0:0:0:0:
128,192,95838,1,0,0:0:0:0:
469,192,95838,1,0,0:0:0:0:
384,192,96005,1,2,0:0:0:0:
213,192,96005,1,0,0:0:0:0:
42,192,96172,1,8,0:0:0:0:
128,192,96172,1,0,0:0:0:0:
298,192,96172,1,0,0:0:0:0:
213,192,96338,1,2,0:0:0:0:
469,192,96338,1,0,0:0:0:0:
384,192,96505,1,8,0:0:0:0:
128,192,96505,1,0,0:0:0:0:
298,192,96505,1,0,0:0:0:0:
42,192,96672,1,2,0:0:0:0:
213,192,96672,1,0,0:0:0:0:
298,192,96838,1,0,0:0:0:0:
128,192,96838,1,2,0:0:0:0:
384,192,96838,1,4,0:0:0:0:
469,192,96838,1,0,0:0:0:0:
384,192,97172,1,0,0:0:0:0:
469,192,97338,1,2,0:0:0:0:
128,192,97338,1,4,0:0:0:0:
298,192,97338,1,0,0:0:0:0:
42,192,97338,1,0,0:0:0:0:
42,192,97505,1,2,0:0:0:0:
469,192,97505,1,0,0:0:0:0:
213,192,97505,1,0,0:0:0:0:
384,192,97505,1,4,0:0:0:0:
469,192,97838,1,8,0:0:0:0:
213,192,97838,1,0,0:0:0:0:
128,192,97838,1,0,0:0:0:0:
298,192,98172,1,4,0:0:0:0:
128,192,98172,1,2,0:0:0:0:
213,192,98172,1,0,0:0:0:0:
384,192,98172,1,0,0:0:0:0:
42,192,98338,1,0,0:0:0:0:
469,192,98338,1,0,0:0:0:0:
384,192,98422,1,0,0:0:0:0:
128,192,98422,1,0,0:0:0:0:
42,192,98505,1,4,0:0:0:0:
298,192,98505,1,2,0:0:0:0:
213,192,98505,1,0,0:0:0:0:
469,192,98505,1,0,0:0:0:0:
128,192,98672,1,0,0:0:0:0:
384,192,98672,1,0,0:0:0:0:
213,192,98838,1,4,0:0:0:0:
42,192,98838,1,0,0:0:0:0:
469,192,98838,1,2,0:0:0:0:
298,192,98838,128,0,99505:0:0:0:0:
