osu file format v14

[General]
AudioFilename: audio.mp3
AudioLeadIn: 0
PreviewTime: 64126
Countdown: 1
SampleSet: Normal
StackLeniency: 0.7
Mode: 1
LetterboxInBreaks: 0
WidescreenStoryboard: 1

[Editor]
Bookmarks: 28898,52898,100898,171564,194231
DistanceSpacing: 0.6
BeatDivisor: 4
GridSize: 32
TimelineZoom: 1.5

[Metadata]
Title:Hanagoyomi
TitleUnicode:華暦
Artist:Ayumi.
ArtistUnicode:Ayumi.
Creator:yassu-
Version:Inner Oni
Source:花の野に咲くうたかたの
Tags:opening eroge Hana no No ni Saku Utakata no あっぷりけ appurike Video game japanese
BeatmapID:2346117
BeatmapSetID:469153

[Difficulty]
HPDrainRate:5
CircleSize:5
OverallDifficulty:6
ApproachRate:5
SliderMultiplier:1.4
SliderTickRate:1

[Events]
//Background and Video events
0,0,"Inner bg.png",0,0
//Break Periods
//Storyboard Layer 0 (Background)
//Storyboard Layer 1 (Fail)
//Storyboard Layer 2 (Pass)
//Storyboard Layer 3 (Foreground)
//Storyboard Layer 4 (Overlay)
//Storyboard Sound Samples

[TimingPoints]
1543,500,4,1,0,30,1,0
14043,-105.263157894737,4,1,0,30,0,0
14543,-111.111111111111,4,1,0,30,0,0
15043,-117.647058823529,4,1,0,30,0,0
15543,333.333333333333,4,1,0,20,1,0
15543,-187.500117187573,4,1,0,20,0,0
16459,-187.500117187573,4,1,0,80,0,0
16876,-100,4,1,0,80,0,0
27459,-100,4,1,0,40,0,0
27709,-103.092783505155,4,1,0,40,0,0
27876,-106.382978723404,4,1,0,40,0,0
28042,-109.89010989011,4,1,0,40,0,0
28209,-113.636363636364,4,1,0,40,0,0
28376,-117.647058823529,4,1,0,40,0,0
28542,-121.951219512195,4,1,0,40,0,0
28709,-126.582278481013,4,1,0,40,0,0
28876,-131.578947368421,4,1,0,40,0,0
42126,-100,4,1,0,70,0,0
52792,-100,4,1,0,40,0,0
53542,-105.263157894737,4,1,0,40,0,0
53876,-108.108108108108,4,1,0,40,0,0
54042,-109.58904109589,4,1,0,40,0,0
54209,-111.111111111111,4,1,0,40,0,0
54542,-114.285714285715,4,1,0,40,0,0
54876,-117.647058823529,4,1,0,40,0,0
55209,-121.212121212121,4,1,0,40,0,0
55459,-100,4,1,0,80,0,0
58126,-100,4,1,0,70,0,0
62292,-100,4,1,0,20,0,0
64126,-100,4,1,0,40,0,0
64459,-97.5609756097561,4,1,0,70,0,0
64792,-97.5609756097561,4,1,0,90,0,0
64876,-95.2380952380952,4,1,0,90,0,1
86876,-97.5609756097561,4,1,0,90,0,1
87542,-100,4,1,0,90,0,1
88792,-100,4,1,0,80,0,1
88876,-100,4,1,0,80,0,0
99459,-100,4,1,0,70,0,0
99709,-103.092783505155,4,1,0,70,0,0
99792,-104.712041884817,4,1,0,70,0,0
99876,-106.382978723404,4,1,0,70,0,0
100042,-109.89010989011,4,1,0,70,0,0
100209,-113.636363636364,4,1,0,70,0,0
100376,-117.647058823529,4,1,0,70,0,0
100542,-121.951219512195,4,1,0,70,0,0
100709,-126.582278481013,4,1,0,70,0,0
100792,-131.578947368421,4,1,0,40,0,0
105792,-113.636363636364,4,1,0,80,0,0
106209,-100,4,1,0,80,0,0
111292,-100,4,1,0,40,0,0
112209,-105.263157894737,4,1,0,40,0,0
112876,-111.111111111111,4,1,0,40,0,0
113209,-114.285714285714,4,1,0,40,0,0
113542,-117.647058823529,4,1,0,40,0,0
113876,-121.212121212121,4,1,0,40,0,0
114126,-100,4,1,0,80,0,0
116792,-100,4,1,0,70,0,0
120792,-100,4,1,0,40,0,0
122126,-97.5609756097561,4,1,0,70,0,0
123459,-97.5609756097561,4,1,0,90,0,0
123542,-95.2380952380952,4,1,0,90,0,1
145542,-97.5609756097561,4,1,0,90,0,1
146209,-100,4,1,0,90,0,1
147459,-100,4,1,0,80,0,1
147542,-100,4,1,0,80,0,0
168792,-100,4,1,0,75,0,0
190292,-100,4,1,0,20,0,0
191542,-105.263157894737,4,1,0,20,0,0
192876,-111.111111111111,4,1,0,20,0,0
194126,-117.647058823529,4,1,0,40,0,0
203376,-114.285714285714,4,1,0,40,0,0
203542,-111.111111111111,4,1,0,40,0,0
203876,-105.263157894737,4,1,0,40,0,0
204209,-100,4,1,0,40,0,0
204459,-95.2380952380952,4,1,0,70,0,0
204792,-95.2380952380952,4,1,0,90,0,0
204876,-90.9090909090909,4,1,0,90,0,1
216209,-93.0232558139535,4,1,0,90,0,1
216876,-95.2380952380952,4,1,0,90,0,1
218542,-96.3855421686747,4,1,0,90,0,1
218876,-97.5609756097561,4,1,0,90,0,1
219209,-98.7654320987654,4,1,0,90,0,1
219542,-100,4,1,0,90,0,1
220792,-100,4,1,0,80,0,1
220876,-100,4,1,0,80,0,0

[HitObjects]
259,193,1543,5,6,0:0:0:0:
259,193,2043,1,0,0:0:0:0:
274,178,2293,1,2,0:0:0:0:
254,190,2543,1,2,0:0:0:0:
254,190,3543,1,2,0:0:0:0:
254,190,4543,1,2,0:0:0:0:
254,190,5043,1,0,0:0:0:0:
254,190,5543,1,6,0:0:0:0:
254,190,6543,1,0,0:0:0:0:
254,190,7543,1,2,0:0:0:0:
241,207,7793,1,0,0:0:0:0:
254,190,8043,1,0,0:0:0:0:
254,190,8293,1,2,0:0:0:0:
256,199,8543,1,2,0:0:0:0:
247,207,9043,5,0,0:0:0:0:
252,203,9543,1,6,0:0:0:0:
218,166,10543,1,2,0:0:0:0:
209,166,11043,1,0,0:0:0:0:
209,167,11543,1,2,0:0:0:0:
211,182,12043,1,0,0:0:0:0:
213,180,12293,1,2,0:0:0:0:
213,178,12543,1,2,0:0:0:0:
239,185,13043,1,0,0:0:0:0:
239,185,13543,1,6,0:0:0:0:
239,185,14043,1,2,0:0:0:0:
244,183,14543,1,0,0:0:0:0:
244,183,15043,1,0,0:0:0:0:
256,192,15543,12,2,16543,0:0:0:0:
254,195,16876,5,6,0:0:0:0:
261,195,17043,1,0,0:0:0:0:
261,208,17126,1,0,0:0:0:0:
255,201,17209,1,2,0:0:0:0:
255,201,17376,1,0,0:0:0:0:
256,200,17542,1,2,0:0:0:0:
275,203,17626,1,2,0:0:0:0:
256,200,17709,1,0,0:0:0:0:
259,200,17792,1,0,0:0:0:0:
259,200,17876,1,2,0:0:0:0:
272,200,18042,1,0,0:0:0:0:
270,205,18209,1,2,0:0:0:0:
270,205,18376,1,0,0:0:0:0:
278,197,18459,1,0,0:0:0:0:
277,197,18542,1,2,0:0:0:0:
277,198,18709,1,2,0:0:0:0:
288,181,18876,1,0,0:0:0:0:
276,185,19209,1,2,0:0:0:0:
272,186,19376,1,2,0:0:0:0:
270,186,19542,1,0,0:0:0:0:
261,182,19709,1,0,0:0:0:0:
263,182,19792,1,0,0:0:0:0:
264,195,19876,1,2,0:0:0:0:
263,194,20042,1,0,0:0:0:0:
267,195,20209,1,2,0:0:0:0:
267,195,20542,1,2,0:0:0:0:
277,194,20709,1,0,0:0:0:0:
269,197,20876,1,2,0:0:0:0:
278,201,21042,1,2,0:0:0:0:
276,199,21126,1,2,0:0:0:0:
281,210,21209,1,0,0:0:0:0:
272,203,21376,1,0,0:0:0:0:
301,208,21542,1,2,0:0:0:0:
296,198,21876,1,0,0:0:0:0:
296,198,22042,1,0,0:0:0:0:
295,195,22209,1,2,0:0:0:0:
295,195,22376,1,0,0:0:0:0:
295,195,22459,1,0,0:0:0:0:
293,193,22542,1,2,0:0:0:0:
296,198,22709,1,0,0:0:0:0:
292,202,22876,1,2,0:0:0:0:
295,195,22959,1,2,0:0:0:0:
296,198,23042,1,0,0:0:0:0:
295,195,23126,1,0,0:0:0:0:
295,195,23209,1,2,0:0:0:0:
295,195,23376,1,0,0:0:0:0:
265,210,23542,1,2,0:0:0:0:
276,211,23709,1,0,0:0:0:0:
276,211,23792,1,0,0:0:0:0:
274,208,23876,1,2,0:0:0:0:
281,199,24042,1,0,0:0:0:0:
284,199,24209,1,2,0:0:0:0:
264,190,24376,1,0,0:0:0:0:
225,194,24542,5,2,0:0:0:0:
265,188,24709,1,2,0:0:0:0:
263,190,24876,1,4,0:0:0:0:
263,189,25209,1,2,0:0:0:0:
264,190,25376,1,4,0:0:0:0:
265,188,25542,1,4,0:0:0:0:
263,190,25876,1,2,0:0:0:0:
264,190,26209,1,4,0:0:0:0:
256,190,26376,1,2,0:0:0:0:
256,190,26459,1,2,0:0:0:0:
254,191,26542,1,0,0:0:0:0:
259,194,26709,1,0,0:0:0:0:
263,190,26876,1,6,0:0:0:0:
254,191,27542,1,2,0:0:0:0:
259,194,27709,1,0,0:0:0:0:
263,190,27876,1,2,0:0:0:0:
261,192,28042,1,0,0:0:0:0:
259,192,28209,1,2,0:0:0:0:
259,192,28376,1,0,0:0:0:0:
256,184,28542,1,2,0:0:0:0:
233,160,28709,1,0,0:0:0:0:
254,178,28876,5,2,0:0:0:0:
254,178,29542,1,0,0:0:0:0:
258,182,30209,1,2,0:0:0:0:
258,182,31542,1,2,0:0:0:0:
258,182,32209,1,0,0:0:0:0:
265,182,32876,1,2,0:0:0:0:
266,182,33209,1,2,0:0:0:0:
265,182,33542,1,2,0:0:0:0:
291,236,34209,1,2,0:0:0:0:
294,240,34542,1,0,0:0:0:0:
286,231,34876,1,2,0:0:0:0:
252,188,35542,1,2,0:0:0:0:
252,188,35876,1,0,0:0:0:0:
252,188,36042,1,0,0:0:0:0:
252,188,36209,1,2,0:0:0:0:
269,200,36542,1,0,0:0:0:0:
267,197,36876,1,2,0:0:0:0:
269,194,37042,1,2,0:0:0:0:
269,194,37209,1,0,0:0:0:0:
269,194,37376,1,0,0:0:0:0:
270,192,37542,1,2,0:0:0:0:
272,194,37876,1,0,0:0:0:0:
274,195,38209,1,2,0:0:0:0:
276,197,38376,1,2,0:0:0:0:
276,197,38459,1,2,0:0:0:0:
284,202,38542,1,2,0:0:0:0:
276,204,38709,1,0,0:0:0:0:
276,216,38876,1,2,0:0:0:0:
274,213,39209,1,2,0:0:0:0:
274,215,39376,1,0,0:0:0:0:
274,215,39542,1,2,0:0:0:0:
274,215,39709,1,2,0:0:0:0:
276,216,39876,1,0,0:0:0:0:
274,213,40042,1,2,0:0:0:0:
274,213,40209,1,0,0:0:0:0:
274,215,40542,1,0,0:0:0:0:
276,221,40709,1,2,0:0:0:0:
276,221,40792,1,2,0:0:0:0:
280,222,40876,1,0,0:0:0:0:
278,226,41042,1,0,0:0:0:0:
276,226,41209,1,2,0:0:0:0:
276,225,41376,1,0,0:0:0:0:
263,201,41542,1,2,0:0:0:0:
276,214,41654,1,2,0:0:0:0:
296,224,41765,1,2,0:0:0:0:
298,224,41876,1,0,0:0:0:0:
298,223,42209,1,4,0:0:0:0:
263,190,42376,1,0,0:0:0:0:
264,190,42459,1,0,0:0:0:0:
257,199,42542,1,2,0:0:0:0:
263,190,42709,1,0,0:0:0:0:
254,188,42876,1,2,0:0:0:0:
254,168,42959,1,2,0:0:0:0:
263,190,43042,1,0,0:0:0:0:
254,168,43126,1,0,0:0:0:0:
257,199,43209,1,2,0:0:0:0:
260,194,43376,1,0,0:0:0:0:
257,199,43542,1,2,0:0:0:0:
216,201,43709,1,0,0:0:0:0:
254,168,43792,1,0,0:0:0:0:
257,199,43876,1,2,0:0:0:0:
247,180,44042,1,2,0:0:0:0:
264,195,44209,1,0,0:0:0:0:
260,194,44376,1,0,0:0:0:0:
257,199,44542,1,2,0:0:0:0:
268,199,44876,1,2,0:0:0:0:
268,199,45042,1,0,0:0:0:0:
266,178,45126,1,0,0:0:0:0:
273,193,45209,1,2,0:0:0:0:
270,199,45376,1,2,0:0:0:0:
270,199,45542,1,0,0:0:0:0:
268,199,45709,1,0,0:0:0:0:
278,178,45792,1,0,0:0:0:0:
273,193,45876,1,2,0:0:0:0:
278,178,45959,1,2,0:0:0:0:
278,178,46042,1,0,0:0:0:0:
270,201,46209,1,2,0:0:0:0:
270,199,46376,1,0,0:0:0:0:
280,178,46459,1,0,0:0:0:0:
273,193,46542,1,2,0:0:0:0:
271,191,46709,1,0,0:0:0:0:
273,193,46876,1,0,0:0:0:0:
270,188,47042,1,2,0:0:0:0:
263,197,47126,1,0,0:0:0:0:
246,181,47209,1,2,0:0:0:0:
256,193,47542,1,4,0:0:0:0:
242,191,47709,1,0,0:0:0:0:
237,192,47792,1,0,0:0:0:0:
270,186,47876,1,2,0:0:0:0:
237,192,48042,1,0,0:0:0:0:
237,192,48209,1,2,0:0:0:0:
237,192,48292,1,2,0:0:0:0:
237,192,48376,1,0,0:0:0:0:
237,192,48459,1,0,0:0:0:0:
270,186,48542,1,2,0:0:0:0:
242,191,48709,1,2,0:0:0:0:
237,192,48876,1,0,0:0:0:0:
270,186,49042,1,0,0:0:0:0:
270,186,49126,1,0,0:0:0:0:
270,186,49209,1,2,0:0:0:0:
246,176,49376,1,2,0:0:0:0:
273,213,49542,1,0,0:0:0:0:
273,213,49709,1,0,0:0:0:0:
270,186,49876,1,2,0:0:0:0:
257,193,50209,1,2,0:0:0:0:
257,193,50376,1,0,0:0:0:0:
257,193,50459,1,0,0:0:0:0:
257,193,50542,1,2,0:0:0:0:
293,203,50709,1,2,0:0:0:0:
306,201,50792,1,2,0:0:0:0:
295,208,50876,1,0,0:0:0:0:
246,203,51042,1,0,0:0:0:0:
246,203,51126,1,0,0:0:0:0:
257,205,51209,1,2,0:0:0:0:
261,185,51292,5,2,0:0:0:0:
257,205,51376,1,0,0:0:0:0:
257,205,51542,1,2,0:0:0:0:
248,195,51709,1,0,0:0:0:0:
248,195,51792,1,0,0:0:0:0:
248,195,51876,1,2,0:0:0:0:
248,195,52042,1,0,0:0:0:0:
250,194,52209,1,2,0:0:0:0:
252,192,52542,1,2,0:0:0:0:
252,192,52709,1,0,0:0:0:0:
252,190,52876,1,2,0:0:0:0:
252,192,53542,1,2,0:0:0:0:
252,190,53876,1,0,0:0:0:0:
252,192,54042,1,0,0:0:0:0:
257,192,54209,1,2,0:0:0:0:
257,192,54542,1,2,0:0:0:0:
258,192,54876,1,0,0:0:0:0:
257,192,55209,1,2,0:0:0:0:
247,210,55542,1,4,0:0:0:0:
249,194,55709,1,2,0:0:0:0:
250,194,55792,1,2,0:0:0:0:
258,192,55876,1,0,0:0:0:0:
257,192,56042,1,2,0:0:0:0:
257,192,56209,1,0,0:0:0:0:
255,192,56376,1,0,0:0:0:0:
259,194,56459,1,0,0:0:0:0:
259,194,56542,1,2,0:0:0:0:
261,197,56626,1,2,0:0:0:0:
259,194,56709,1,0,0:0:0:0:
265,192,56876,1,4,0:0:0:0:
253,208,57042,5,2,0:0:0:0:
253,205,57126,1,2,0:0:0:0:
253,205,57209,1,0,0:0:0:0:
253,205,57376,1,2,0:0:0:0:
253,205,57542,1,0,0:0:0:0:
256,201,57709,5,0,0:0:0:0:
256,201,57792,1,0,0:0:0:0:
256,201,57876,1,2,0:0:0:0:
256,201,58042,1,2,0:0:0:0:
253,205,58209,1,0,0:0:0:0:
253,205,58459,1,2,0:0:0:0:
256,199,58542,1,2,0:0:0:0:
261,192,58709,1,0,0:0:0:0:
256,201,58876,1,2,0:0:0:0:
265,213,59126,1,2,0:0:0:0:
256,199,59209,1,2,0:0:0:0:
267,213,59376,1,0,0:0:0:0:
261,192,59542,1,0,0:0:0:0:
261,192,59792,1,2,0:0:0:0:
261,192,59876,1,2,0:0:0:0:
261,192,60042,1,0,0:0:0:0:
261,192,60209,1,2,0:0:0:0:
261,192,60459,1,2,0:0:0:0:
261,192,60542,1,2,0:0:0:0:
261,192,60709,1,2,0:0:0:0:
261,192,60876,1,0,0:0:0:0:
261,192,61126,1,2,0:0:0:0:
259,197,61209,1,2,0:0:0:0:
259,197,61376,1,0,0:0:0:0:
259,197,61542,1,2,0:0:0:0:
259,197,61792,1,2,0:0:0:0:
259,198,61876,1,0,0:0:0:0:
261,197,62042,1,2,0:0:0:0:
259,197,62209,1,4,0:0:0:0:
256,192,62376,12,0,63542,0:0:0:0:
271,188,64209,5,2,0:0:0:0:
285,201,64542,1,2,0:0:0:0:
271,188,64876,5,4,0:0:0:0:
271,188,65126,1,0,0:0:0:0:
271,188,65209,1,2,0:0:0:0:
271,188,65376,1,2,0:0:0:0:
271,188,65542,1,0,0:0:0:0:
276,191,65709,1,0,0:0:0:0:
284,190,65792,1,0,0:0:0:0:
284,190,65876,1,2,0:0:0:0:
284,190,66042,1,2,0:0:0:0:
276,176,66209,1,0,0:0:0:0:
276,177,66376,1,2,0:0:0:0:
276,177,66459,1,2,0:0:0:0:
277,177,66542,1,0,0:0:0:0:
277,177,66709,1,2,0:0:0:0:
277,177,66876,1,0,0:0:0:0:
278,179,66959,1,0,0:0:0:0:
278,179,67042,1,0,0:0:0:0:
282,181,67126,1,0,0:0:0:0:
284,182,67209,1,2,0:0:0:0:
285,181,67376,1,2,0:0:0:0:
285,181,67542,1,0,0:0:0:0:
285,181,67709,1,2,0:0:0:0:
286,180,67792,1,0,0:0:0:0:
284,181,67876,1,2,0:0:0:0:
284,181,68042,1,0,0:0:0:0:
284,182,68209,1,2,0:0:0:0:
285,181,68292,1,2,0:0:0:0:
285,181,68376,1,0,0:0:0:0:
285,181,68459,1,0,0:0:0:0:
285,181,68542,1,2,0:0:0:0:
285,181,68709,1,2,0:0:0:0:
288,179,68876,1,0,0:0:0:0:
286,169,69042,1,2,0:0:0:0:
286,169,69126,1,2,0:0:0:0:
286,169,69209,1,0,0:0:0:0:
286,169,69376,1,2,0:0:0:0:
265,179,69542,1,0,0:0:0:0:
264,179,69626,1,2,0:0:0:0:
265,181,69709,1,0,0:0:0:0:
265,175,69792,1,0,0:0:0:0:
266,173,69876,1,2,0:0:0:0:
244,182,70209,1,4,0:0:0:0:
257,181,70376,5,2,0:0:0:0:
257,181,70542,1,0,0:0:0:0:
253,178,70626,1,0,0:0:0:0:
253,178,70709,1,2,0:0:0:0:
253,178,70876,1,0,0:0:0:0:
252,179,71042,1,2,0:0:0:0:
251,174,71126,1,2,0:0:0:0:
251,176,71209,1,0,0:0:0:0:
257,181,71376,1,2,0:0:0:0:
257,181,71542,1,0,0:0:0:0:
253,178,71709,1,2,0:0:0:0:
250,183,71876,1,0,0:0:0:0:
252,179,71959,1,0,0:0:0:0:
252,179,72042,1,2,0:0:0:0:
250,183,72209,1,0,0:0:0:0:
250,183,72376,1,2,0:0:0:0:
250,183,72459,1,2,0:0:0:0:
250,183,72542,1,0,0:0:0:0:
256,171,72709,1,2,0:0:0:0:
259,182,72876,1,0,0:0:0:0:
252,159,73126,1,2,0:0:0:0:
242,174,73209,1,0,0:0:0:0:
226,220,73376,1,2,0:0:0:0:
235,195,73542,1,0,0:0:0:0:
235,191,73709,1,2,0:0:0:0:
236,193,73792,1,2,0:0:0:0:
235,194,73876,1,0,0:0:0:0:
233,194,74042,1,2,0:0:0:0:
229,188,74209,1,0,0:0:0:0:
267,177,74376,1,2,0:0:0:0:
267,177,74459,1,0,0:0:0:0:
265,175,74542,1,2,0:0:0:0:
267,177,74626,1,2,0:0:0:0:
267,177,74709,1,0,0:0:0:0:
267,177,74876,1,0,0:0:0:0:
257,190,75042,1,6,0:0:0:0:
252,192,75209,1,6,0:0:0:0:
252,192,75376,1,0,0:0:0:0:
251,188,75459,1,0,0:0:0:0:
251,188,75542,1,2,0:0:0:0:
248,207,75792,1,2,0:0:0:0:
248,207,75876,1,0,0:0:0:0:
247,195,76042,1,0,0:0:0:0:
247,210,76209,1,2,0:0:0:0:
250,205,76376,1,0,0:0:0:0:
249,205,76459,1,2,0:0:0:0:
248,205,76542,1,0,0:0:0:0:
249,207,76709,1,2,0:0:0:0:
249,207,76876,1,0,0:0:0:0:
249,207,77042,1,0,0:0:0:0:
247,210,77126,1,0,0:0:0:0:
247,210,77209,1,2,0:0:0:0:
249,206,77376,1,0,0:0:0:0:
249,207,77542,1,2,0:0:0:0:
251,178,77626,1,2,0:0:0:0:
251,178,77709,1,0,0:0:0:0:
251,178,77792,1,0,0:0:0:0:
251,178,77876,1,2,0:0:0:0:
251,178,78042,1,0,0:0:0:0:
251,178,78209,1,2,0:0:0:0:
244,187,78292,1,0,0:0:0:0:
251,178,78376,1,0,0:0:0:0:
251,178,78459,1,2,0:0:0:0:
246,190,78542,1,0,0:0:0:0:
246,191,78709,1,2,0:0:0:0:
247,190,78876,1,0,0:0:0:0:
247,190,79042,1,0,0:0:0:0:
247,188,79126,1,0,0:0:0:0:
243,186,79209,1,2,0:0:0:0:
242,186,79376,1,0,0:0:0:0:
242,186,79542,1,2,0:0:0:0:
242,182,79709,1,2,0:0:0:0:
242,185,79792,1,2,0:0:0:0:
242,187,79876,1,0,0:0:0:0:
247,190,80042,1,2,0:0:0:0:
244,174,80209,1,0,0:0:0:0:
242,175,80292,1,2,0:0:0:0:
236,175,80376,1,2,0:0:0:0:
243,175,80459,1,0,0:0:0:0:
239,174,80542,1,2,0:0:0:0:
256,171,80876,1,6,0:0:0:0:
263,176,81042,1,0,0:0:0:0:
263,176,81126,1,0,0:0:0:0:
248,181,81209,1,2,0:0:0:0:
265,160,81376,1,0,0:0:0:0:
265,160,81542,1,2,0:0:0:0:
265,161,81626,1,2,0:0:0:0:
265,162,81709,1,0,0:0:0:0:
258,181,81876,1,2,0:0:0:0:
267,160,82042,1,0,0:0:0:0:
265,160,82209,1,2,0:0:0:0:
265,160,82376,1,0,0:0:0:0:
265,160,82459,1,0,0:0:0:0:
262,172,82542,1,2,0:0:0:0:
263,140,82709,1,0,0:0:0:0:
253,175,82876,1,2,0:0:0:0:
253,175,82959,1,2,0:0:0:0:
256,171,83042,1,0,0:0:0:0:
263,178,83209,1,2,0:0:0:0:
254,155,83376,1,0,0:0:0:0:
254,155,83542,1,2,0:0:0:0:
269,154,83792,1,0,0:0:0:0:
269,154,83876,1,2,0:0:0:0:
277,170,84042,1,0,0:0:0:0:
278,168,84209,1,2,0:0:0:0:
278,168,84376,1,0,0:0:0:0:
278,170,84459,1,0,0:0:0:0:
283,171,84542,1,2,0:0:0:0:
285,171,84709,1,2,0:0:0:0:
287,171,84876,1,0,0:0:0:0:
272,184,85042,1,0,0:0:0:0:
295,179,85126,1,0,0:0:0:0:
306,183,85209,1,2,0:0:0:0:
254,168,85292,1,2,0:0:0:0:
265,192,85376,1,0,0:0:0:0:
265,194,85542,1,2,0:0:0:0:
267,182,85709,1,0,0:0:0:0:
254,168,85792,1,0,0:0:0:0:
262,196,85876,1,2,0:0:0:0:
254,168,85959,1,0,0:0:0:0:
265,190,86042,1,2,0:0:0:0:
264,190,86126,1,2,0:0:0:0:
257,188,86209,1,0,0:0:0:0:
257,188,86876,1,0,0:0:0:0:
254,168,87542,1,6,0:0:0:0:
256,196,87709,1,6,0:0:0:0:
256,196,87876,1,4,0:0:0:0:
256,196,88042,1,4,0:0:0:0:
265,184,88209,1,6,0:0:0:0:
254,168,88542,1,2,0:0:0:0:
253,169,88709,1,2,0:0:0:0:
253,190,88876,1,4,0:0:0:0:
261,195,89042,1,0,0:0:0:0:
261,208,89126,1,0,0:0:0:0:
255,201,89209,1,2,0:0:0:0:
255,201,89376,1,0,0:0:0:0:
256,200,89542,1,2,0:0:0:0:
275,203,89626,1,2,0:0:0:0:
256,200,89709,1,0,0:0:0:0:
259,200,89792,1,0,0:0:0:0:
259,200,89876,1,2,0:0:0:0:
272,200,90042,1,0,0:0:0:0:
270,205,90209,1,2,0:0:0:0:
270,205,90376,1,0,0:0:0:0:
278,197,90459,1,0,0:0:0:0:
277,197,90542,1,2,0:0:0:0:
277,198,90709,1,2,0:0:0:0:
288,181,90876,1,0,0:0:0:0:
276,185,91209,1,2,0:0:0:0:
272,186,91376,1,2,0:0:0:0:
270,186,91542,1,0,0:0:0:0:
261,182,91709,1,0,0:0:0:0:
263,182,91792,1,0,0:0:0:0:
264,195,91876,1,2,0:0:0:0:
263,194,92042,1,0,0:0:0:0:
267,195,92209,1,2,0:0:0:0:
267,195,92542,1,2,0:0:0:0:
277,194,92709,1,0,0:0:0:0:
269,197,92876,1,2,0:0:0:0:
278,201,93042,1,2,0:0:0:0:
276,199,93126,1,2,0:0:0:0:
281,210,93209,1,0,0:0:0:0:
272,203,93376,1,0,0:0:0:0:
301,208,93542,1,2,0:0:0:0:
296,198,93876,1,0,0:0:0:0:
296,198,94042,1,0,0:0:0:0:
295,195,94209,1,2,0:0:0:0:
295,195,94376,1,0,0:0:0:0:
295,195,94459,1,0,0:0:0:0:
293,193,94542,1,2,0:0:0:0:
296,198,94709,1,0,0:0:0:0:
292,202,94876,1,2,0:0:0:0:
295,195,94959,1,2,0:0:0:0:
296,198,95042,1,0,0:0:0:0:
295,195,95126,1,0,0:0:0:0:
295,195,95209,1,2,0:0:0:0:
295,195,95376,1,0,0:0:0:0:
265,210,95542,1,2,0:0:0:0:
276,211,95709,1,0,0:0:0:0:
276,211,95792,1,0,0:0:0:0:
274,208,95876,1,2,0:0:0:0:
281,199,96042,1,0,0:0:0:0:
284,199,96209,1,2,0:0:0:0:
264,190,96376,1,0,0:0:0:0:
225,194,96542,5,2,0:0:0:0:
265,188,96709,1,2,0:0:0:0:
263,190,96876,1,4,0:0:0:0:
264,190,97209,1,2,0:0:0:0:
264,190,97376,1,4,0:0:0:0:
265,188,97542,1,4,0:0:0:0:
263,190,97876,1,2,0:0:0:0:
264,190,98209,1,4,0:0:0:0:
256,190,98376,1,2,0:0:0:0:
256,190,98459,1,2,0:0:0:0:
254,191,98542,1,0,0:0:0:0:
259,194,98709,1,0,0:0:0:0:
263,190,98876,1,6,0:0:0:0:
263,186,99542,1,2,0:0:0:0:
263,186,99709,1,0,0:0:0:0:
263,190,99792,1,2,0:0:0:0:
263,190,99876,1,2,0:0:0:0:
258,177,100042,1,0,0:0:0:0:
258,177,100209,1,2,0:0:0:0:
248,173,100376,1,0,0:0:0:0:
247,175,100542,1,2,0:0:0:0:
247,175,100709,1,2,0:0:0:0:
249,175,100876,1,0,0:0:0:0:
249,176,101209,1,2,0:0:0:0:
267,179,101542,1,2,0:0:0:0:
270,185,102209,1,0,0:0:0:0:
267,179,102542,1,2,0:0:0:0:
267,179,102876,1,2,0:0:0:0:
267,179,103209,1,2,0:0:0:0:
267,179,103542,1,0,0:0:0:0:
267,179,103876,1,2,0:0:0:0:
267,179,104209,1,2,0:0:0:0:
263,186,104542,1,0,0:0:0:0:
263,188,105042,1,2,0:0:0:0:
263,196,105209,1,2,0:0:0:0:
263,196,105542,1,2,0:0:0:0:
256,188,105876,5,4,0:0:0:0:
257,187,106209,1,0,0:0:0:0:
257,188,106459,1,2,0:0:0:0:
244,201,106542,1,0,0:0:0:0:
256,188,106709,1,2,0:0:0:0:
256,188,106876,1,0,0:0:0:0:
257,187,107042,1,0,0:0:0:0:
253,197,107126,1,2,0:0:0:0:
254,197,107209,1,0,0:0:0:0:
255,197,107376,1,2,0:0:0:0:
257,186,107542,1,0,0:0:0:0:
256,188,107709,1,2,0:0:0:0:
256,197,107792,1,2,0:0:0:0:
257,192,107876,1,0,0:0:0:0:
251,186,107959,1,0,0:0:0:0:
257,192,108042,1,2,0:0:0:0:
257,192,108209,1,0,0:0:0:0:
246,195,108376,1,0,0:0:0:0:
240,202,108459,1,0,0:0:0:0:
239,203,108542,1,2,0:0:0:0:
257,192,108876,1,0,0:0:0:0:
239,190,109042,1,2,0:0:0:0:
241,192,109126,1,0,0:0:0:0:
242,198,109209,1,2,0:0:0:0:
233,199,109376,1,0,0:0:0:0:
232,204,109459,1,2,0:0:0:0:
230,202,109542,1,0,0:0:0:0:
234,202,109709,1,2,0:0:0:0:
236,202,109792,1,0,0:0:0:0:
242,197,109876,1,2,0:0:0:0:
243,197,109959,1,2,0:0:0:0:
239,190,110042,1,0,0:0:0:0:
242,198,110209,1,2,0:0:0:0:
245,193,110376,1,0,0:0:0:0:
259,196,110459,1,2,0:0:0:0:
259,207,110542,1,0,0:0:0:0:
270,184,110709,1,2,0:0:0:0:
266,185,110876,1,0,0:0:0:0:
259,191,111126,1,2,0:0:0:0:
259,191,111209,1,0,0:0:0:0:
259,191,111376,1,2,0:0:0:0:
259,180,111459,1,2,0:0:0:0:
259,180,111542,1,2,0:0:0:0:
233,193,112209,1,2,0:0:0:0:
261,196,112876,1,0,0:0:0:0:
257,197,113209,1,0,0:0:0:0:
249,214,113542,1,2,0:0:0:0:
263,224,113876,1,2,0:0:0:0:
257,227,114209,1,4,0:0:0:0:
267,194,114376,1,2,0:0:0:0:
267,194,114459,1,2,0:0:0:0:
267,194,114542,1,0,0:0:0:0:
267,194,114709,1,2,0:0:0:0:
267,194,114876,1,0,0:0:0:0:
269,199,115042,1,0,0:0:0:0:
266,181,115126,1,0,0:0:0:0:
266,182,115209,1,2,0:0:0:0:
267,194,115292,1,2,0:0:0:0:
266,182,115376,1,0,0:0:0:0:
255,168,115542,1,4,0:0:0:0:
255,172,115709,1,2,0:0:0:0:
255,172,115792,1,2,0:0:0:0:
253,171,115876,1,0,0:0:0:0:
268,179,116042,1,0,0:0:0:0:
266,182,116209,1,2,0:0:0:0:
258,168,116292,1,2,0:0:0:0:
257,170,116376,1,0,0:0:0:0:
258,168,116459,1,0,0:0:0:0:
259,165,116542,1,2,0:0:0:0:
269,181,116709,1,2,0:0:0:0:
270,179,116876,1,0,0:0:0:0:
240,184,117126,1,2,0:0:0:0:
252,191,117209,1,2,0:0:0:0:
291,171,117376,1,0,0:0:0:0:
291,171,117542,1,2,0:0:0:0:
291,171,117709,1,0,0:0:0:0:
254,192,117792,1,2,0:0:0:0:
264,194,117876,1,2,0:0:0:0:
273,196,118042,1,0,0:0:0:0:
279,194,118209,1,0,0:0:0:0:
280,194,118459,1,2,0:0:0:0:
285,182,118542,1,2,0:0:0:0:
287,169,118709,1,0,0:0:0:0:
283,169,118876,1,2,0:0:0:0:
286,171,119042,1,0,0:0:0:0:
280,172,119126,1,2,0:0:0:0:
280,166,119209,1,2,0:0:0:0:
279,162,119376,1,2,0:0:0:0:
285,164,119542,1,0,0:0:0:0:
283,169,119792,1,2,0:0:0:0:
283,169,119876,1,2,0:0:0:0:
285,166,120042,1,0,0:0:0:0:
285,166,120209,1,2,0:0:0:0:
286,171,120376,1,0,0:0:0:0:
291,172,120459,1,2,0:0:0:0:
292,170,120542,1,0,0:0:0:0:
291,171,120709,1,2,0:0:0:0:
254,175,120876,2,4,L|216:127,12,35
233,102,122209,1,2,0:0:0:0:
233,102,122292,1,2,0:0:0:0:
228,97,122376,1,0,0:0:0:0:
228,97,122459,1,0,0:0:0:0:
226,92,122542,1,2,0:0:0:0:
224,95,122626,1,0,0:0:0:0:
223,95,122709,1,2,0:0:0:0:
223,95,122792,1,2,0:0:0:0:
223,95,122876,1,0,0:0:0:0:
223,95,122959,1,0,0:0:0:0:
224,93,123042,1,2,0:0:0:0:
226,89,123209,1,2,0:0:0:0:
226,92,123542,1,4,0:0:0:0:
271,188,123792,1,0,0:0:0:0:
271,188,123876,1,2,0:0:0:0:
271,188,124042,1,2,0:0:0:0:
271,188,124209,1,0,0:0:0:0:
276,191,124376,1,0,0:0:0:0:
284,190,124459,1,0,0:0:0:0:
284,190,124542,1,2,0:0:0:0:
284,190,124709,1,2,0:0:0:0:
276,176,124876,1,0,0:0:0:0:
276,184,124959,1,0,0:0:0:0:
276,177,125042,1,2,0:0:0:0:
276,177,125126,1,2,0:0:0:0:
277,177,125209,1,0,0:0:0:0:
277,177,125376,1,2,0:0:0:0:
277,177,125542,1,0,0:0:0:0:
278,179,125709,1,0,0:0:0:0:
282,181,125792,1,0,0:0:0:0:
284,182,125876,1,2,0:0:0:0:
285,181,126042,1,2,0:0:0:0:
285,181,126209,1,0,0:0:0:0:
285,181,126376,1,2,0:0:0:0:
286,180,126459,1,0,0:0:0:0:
284,181,126542,1,2,0:0:0:0:
284,181,126709,1,0,0:0:0:0:
284,182,126876,1,2,0:0:0:0:
285,181,126959,1,2,0:0:0:0:
285,181,127042,1,0,0:0:0:0:
285,181,127126,1,0,0:0:0:0:
285,181,127209,1,2,0:0:0:0:
285,181,127376,1,2,0:0:0:0:
288,179,127542,1,0,0:0:0:0:
286,169,127709,1,2,0:0:0:0:
286,169,127792,1,2,0:0:0:0:
269,164,127876,1,0,0:0:0:0:
286,169,128042,1,2,0:0:0:0:
265,179,128209,1,0,0:0:0:0:
286,132,128292,1,2,0:0:0:0:
265,181,128376,1,0,0:0:0:0:
265,175,128459,1,0,0:0:0:0:
266,173,128542,1,2,0:0:0:0:
261,168,128876,1,6,0:0:0:0:
244,134,129042,1,0,0:0:0:0:
244,134,129209,1,2,0:0:0:0:
244,134,129292,1,2,0:0:0:0:
248,136,129376,1,0,0:0:0:0:
253,138,129542,1,2,0:0:0:0:
252,132,129709,1,0,0:0:0:0:
252,132,129792,1,0,0:0:0:0:
252,132,129876,1,2,0:0:0:0:
257,134,130042,1,0,0:0:0:0:
257,134,130209,1,2,0:0:0:0:
257,134,130376,1,0,0:0:0:0:
257,134,130542,1,2,0:0:0:0:
263,134,130626,1,2,0:0:0:0:
265,128,130709,1,0,0:0:0:0:
266,129,130876,1,2,0:0:0:0:
266,132,131042,1,0,0:0:0:0:
266,132,131126,1,0,0:0:0:0:
266,132,131209,1,2,0:0:0:0:
240,128,131376,1,2,0:0:0:0:
240,128,131542,1,0,0:0:0:0:
252,159,131792,1,2,0:0:0:0:
242,174,131876,1,0,0:0:0:0:
226,220,132042,1,2,0:0:0:0:
235,195,132209,1,0,0:0:0:0:
235,191,132376,1,2,0:0:0:0:
267,177,132459,1,2,0:0:0:0:
235,194,132542,1,0,0:0:0:0:
233,194,132709,1,2,0:0:0:0:
229,188,132876,1,0,0:0:0:0:
267,177,133042,1,2,0:0:0:0:
267,177,133126,1,0,0:0:0:0:
265,175,133209,1,2,0:0:0:0:
267,177,133292,1,2,0:0:0:0:
267,177,133376,1,0,0:0:0:0:
267,177,133542,1,0,0:0:0:0:
257,190,133709,1,6,0:0:0:0:
252,192,133876,1,6,0:0:0:0:
252,192,134042,1,0,0:0:0:0:
251,188,134126,1,0,0:0:0:0:
251,188,134209,1,2,0:0:0:0:
271,188,134459,1,2,0:0:0:0:
271,188,134542,1,0,0:0:0:0:
271,188,134709,1,0,0:0:0:0:
271,188,134876,1,2,0:0:0:0:
291,210,135042,1,2,0:0:0:0:
240,128,135126,1,2,0:0:0:0:
240,128,135209,1,0,0:0:0:0:
284,190,135376,1,2,0:0:0:0:
276,176,135542,1,0,0:0:0:0:
276,177,135709,1,0,0:0:0:0:
276,177,135792,1,0,0:0:0:0:
277,177,135876,1,2,0:0:0:0:
277,177,136042,1,0,0:0:0:0:
277,177,136209,1,2,0:0:0:0:
276,184,136292,1,2,0:0:0:0:
278,179,136376,1,0,0:0:0:0:
282,181,136459,1,0,0:0:0:0:
284,182,136542,1,2,0:0:0:0:
285,181,136709,1,0,0:0:0:0:
285,181,136876,1,2,0:0:0:0:
285,181,137042,1,0,0:0:0:0:
286,180,137126,1,2,0:0:0:0:
284,181,137209,1,0,0:0:0:0:
284,181,137376,1,0,0:0:0:0:
284,182,137542,1,2,0:0:0:0:
283,193,137626,1,0,0:0:0:0:
285,181,137709,1,2,0:0:0:0:
285,181,137792,1,2,0:0:0:0:
285,181,137876,1,0,0:0:0:0:
285,181,138042,1,2,0:0:0:0:
288,179,138209,1,0,0:0:0:0:
286,169,138376,1,2,0:0:0:0:
286,169,138459,1,2,0:0:0:0:
286,169,138542,1,0,0:0:0:0:
286,169,138709,1,2,0:0:0:0:
265,179,138876,1,0,0:0:0:0:
264,179,138959,1,2,0:0:0:0:
265,181,139042,1,2,0:0:0:0:
265,175,139126,1,0,0:0:0:0:
266,173,139209,1,2,0:0:0:0:
244,182,139542,1,4,0:0:0:0:
257,181,139709,5,2,0:0:0:0:
253,178,139792,1,2,0:0:0:0:
257,181,139876,1,0,0:0:0:0:
253,178,140042,1,2,0:0:0:0:
253,178,140209,1,0,0:0:0:0:
251,174,140292,1,0,0:0:0:0:
252,179,140376,1,2,0:0:0:0:
251,176,140542,1,0,0:0:0:0:
257,181,140709,1,2,0:0:0:0:
257,181,140876,1,0,0:0:0:0:
253,178,141042,1,2,0:0:0:0:
252,179,141126,1,2,0:0:0:0:
250,183,141209,1,0,0:0:0:0:
252,179,141376,1,2,0:0:0:0:
250,183,141542,1,0,0:0:0:0:
250,183,141626,1,0,0:0:0:0:
250,183,141709,1,2,0:0:0:0:
250,183,141876,1,0,0:0:0:0:
256,171,142042,1,0,0:0:0:0:
259,182,142209,1,2,0:0:0:0:
265,166,142459,1,0,0:0:0:0:
264,165,142542,1,2,0:0:0:0:
241,151,142709,1,0,0:0:0:0:
243,151,142876,1,2,0:0:0:0:
261,190,143042,1,0,0:0:0:0:
241,177,143126,1,0,0:0:0:0:
267,185,143209,1,2,0:0:0:0:
283,162,143376,1,2,0:0:0:0:
283,162,143542,1,0,0:0:0:0:
283,162,143709,1,0,0:0:0:0:
248,153,143792,1,0,0:0:0:0:
256,156,143876,1,2,0:0:0:0:
256,156,143959,1,2,0:0:0:0:
256,156,144042,1,0,0:0:0:0:
257,158,144209,1,2,0:0:0:0:
257,158,144376,1,0,0:0:0:0:
257,158,144459,1,0,0:0:0:0:
257,159,144542,1,2,0:0:0:0:
257,159,144626,1,0,0:0:0:0:
257,159,144709,1,2,0:0:0:0:
257,159,144792,1,2,0:0:0:0:
269,143,144876,1,0,0:0:0:0:
269,145,145542,1,0,0:0:0:0:
269,145,146209,1,6,0:0:0:0:
269,145,146376,1,6,0:0:0:0:
269,145,146542,1,4,0:0:0:0:
269,145,146709,1,4,0:0:0:0:
269,145,146876,1,6,0:0:0:0:
240,167,147209,1,0,0:0:0:0:
240,167,147542,1,4,0:0:0:0:
237,184,147876,1,2,0:0:0:0:
238,183,148042,1,0,0:0:0:0:
254,188,148126,1,0,0:0:0:0:
254,188,148209,1,0,0:0:0:0:
233,203,148376,1,0,0:0:0:0:
234,202,148542,1,2,0:0:0:0:
254,188,148709,1,2,0:0:0:0:
261,194,148876,1,0,0:0:0:0:
261,194,149209,1,2,0:0:0:0:
279,176,149376,1,2,0:0:0:0:
261,194,149542,1,0,0:0:0:0:
261,194,149709,1,0,0:0:0:0:
261,194,149876,1,2,0:0:0:0:
261,194,150209,1,0,0:0:0:0:
271,186,150542,1,2,0:0:0:0:
273,186,150709,1,0,0:0:0:0:
254,188,150792,1,0,0:0:0:0:
254,188,150876,1,2,0:0:0:0:
274,186,151042,1,0,0:0:0:0:
275,186,151209,1,2,0:0:0:0:
254,188,151376,1,2,0:0:0:0:
271,186,151542,1,0,0:0:0:0:
274,186,151876,1,2,0:0:0:0:
289,174,152042,1,0,0:0:0:0:
278,180,152209,1,2,0:0:0:0:
282,186,152376,1,0,0:0:0:0:
283,186,152542,1,2,0:0:0:0:
279,176,152709,1,2,0:0:0:0:
269,180,152876,1,4,0:0:0:0:
285,182,153209,1,2,0:0:0:0:
285,182,153542,1,0,0:0:0:0:
285,182,153709,1,0,0:0:0:0:
285,182,153876,1,2,0:0:0:0:
262,188,154209,1,0,0:0:0:0:
266,190,154542,1,2,0:0:0:0:
254,188,154709,1,2,0:0:0:0:
254,188,154792,1,2,0:0:0:0:
254,188,154876,1,0,0:0:0:0:
270,190,155042,1,0,0:0:0:0:
270,190,155209,1,2,0:0:0:0:
265,182,155376,1,2,0:0:0:0:
298,218,155542,1,0,0:0:0:0:
256,179,155876,1,2,0:0:0:0:
270,190,156209,1,0,0:0:0:0:
280,173,156376,1,0,0:0:0:0:
274,175,156542,1,2,0:0:0:0:
274,175,156876,1,0,0:0:0:0:
270,143,157042,1,2,0:0:0:0:
270,143,157209,1,2,0:0:0:0:
270,143,157376,1,2,0:0:0:0:
261,130,157542,1,0,0:0:0:0:
258,151,157709,1,2,0:0:0:0:
258,151,157792,1,2,0:0:0:0:
282,154,157876,1,2,0:0:0:0:
274,171,158042,1,4,0:0:0:0:
285,165,158376,1,0,0:0:0:0:
285,165,158542,1,2,0:0:0:0:
272,156,158709,1,0,0:0:0:0:
272,156,158792,1,0,0:0:0:0:
298,159,158876,1,2,0:0:0:0:
285,166,159042,1,0,0:0:0:0:
285,165,159209,1,0,0:0:0:0:
271,161,159376,1,6,0:0:0:0:
297,158,159709,1,0,0:0:0:0:
298,159,159876,1,2,0:0:0:0:
296,128,160209,1,0,0:0:0:0:
296,128,160376,1,2,0:0:0:0:
296,128,160542,1,2,0:0:0:0:
270,147,160709,1,4,0:0:0:0:
256,155,161042,1,0,0:0:0:0:
265,154,161209,1,2,0:0:0:0:
272,156,161376,1,0,0:0:0:0:
272,157,161459,1,0,0:0:0:0:
272,157,161542,1,2,0:0:0:0:
266,143,161709,1,2,0:0:0:0:
266,147,161876,1,0,0:0:0:0:
270,147,162042,1,6,0:0:0:0:
266,147,162376,1,0,0:0:0:0:
270,147,162542,1,2,0:0:0:0:
253,151,162709,1,2,0:0:0:0:
266,147,162876,1,0,0:0:0:0:
270,147,163042,1,0,0:0:0:0:
270,147,163209,1,2,0:0:0:0:
270,147,163292,1,2,0:0:0:0:
270,147,163376,1,2,0:0:0:0:
272,158,163542,1,4,0:0:0:0:
282,173,163876,1,2,0:0:0:0:
283,173,164209,1,0,0:0:0:0:
283,173,164376,1,0,0:0:0:0:
283,173,164542,1,2,0:0:0:0:
282,173,164876,1,0,0:0:0:0:
283,173,165209,1,2,0:0:0:0:
265,168,165376,1,0,0:0:0:0:
270,192,165459,1,0,0:0:0:0:
271,181,165542,1,0,0:0:0:0:
282,173,165709,1,0,0:0:0:0:
284,177,165876,1,2,0:0:0:0:
283,173,166042,1,2,0:0:0:0:
283,173,166209,1,0,0:0:0:0:
284,177,166542,1,2,0:0:0:0:
284,177,166876,1,0,0:0:0:0:
283,173,167042,1,0,0:0:0:0:
286,177,167209,1,2,0:0:0:0:
284,177,167542,1,0,0:0:0:0:
284,177,167876,1,2,0:0:0:0:
283,173,168042,1,2,0:0:0:0:
286,177,168209,1,0,0:0:0:0:
290,181,168376,1,0,0:0:0:0:
290,181,168542,1,2,0:0:0:0:
289,181,168876,1,4,0:0:0:0:
285,182,169209,1,2,0:0:0:0:
270,171,169376,1,0,0:0:0:0:
269,170,169459,1,0,0:0:0:0:
269,170,169542,1,2,0:0:0:0:
269,171,169709,1,0,0:0:0:0:
269,171,169876,1,2,0:0:0:0:
269,171,170042,1,2,0:0:0:0:
269,171,170209,1,0,0:0:0:0:
269,170,170542,1,2,0:0:0:0:
269,171,170876,1,0,0:0:0:0:
269,171,171042,1,0,0:0:0:0:
269,171,171209,1,2,0:0:0:0:
259,172,171376,1,2,0:0:0:0:
263,172,171459,1,2,0:0:0:0:
269,170,171542,1,0,0:0:0:0:
273,175,171876,1,2,0:0:0:0:
274,177,172042,1,0,0:0:0:0:
269,171,172126,1,0,0:0:0:0:
270,175,172209,1,0,0:0:0:0:
274,173,172376,1,0,0:0:0:0:
274,173,172542,1,2,0:0:0:0:
260,197,172709,1,2,0:0:0:0:
255,160,172876,1,0,0:0:0:0:
262,201,173209,1,2,0:0:0:0:
262,201,173542,1,0,0:0:0:0:
262,201,173709,1,0,0:0:0:0:
262,201,173876,1,2,0:0:0:0:
263,172,173959,1,2,0:0:0:0:
271,166,174042,1,2,0:0:0:0:
271,166,174209,1,4,0:0:0:0:
262,201,174542,1,2,0:0:0:0:
262,201,174709,1,0,0:0:0:0:
262,201,174792,1,0,0:0:0:0:
262,201,174876,1,2,0:0:0:0:
262,201,175042,1,0,0:0:0:0:
262,201,175209,1,2,0:0:0:0:
262,201,175376,1,2,0:0:0:0:
262,201,175542,1,0,0:0:0:0:
262,201,175709,1,0,0:0:0:0:
262,201,175876,1,2,0:0:0:0:
262,201,176209,1,0,0:0:0:0:
262,194,176376,1,0,0:0:0:0:
270,210,176542,1,2,0:0:0:0:
270,197,176709,1,2,0:0:0:0:
270,197,176792,1,2,0:0:0:0:
271,210,176876,1,0,0:0:0:0:
271,166,177209,1,2,0:0:0:0:
271,166,177376,1,0,0:0:0:0:
271,166,177542,1,2,0:0:0:0:
271,166,177626,1,2,0:0:0:0:
271,166,177709,1,0,0:0:0:0:
271,166,177876,1,2,0:0:0:0:
271,166,178042,1,2,0:0:0:0:
271,166,178209,1,0,0:0:0:0:
265,167,178376,5,0,0:0:0:0:
276,164,178542,1,2,0:0:0:0:
276,162,178876,1,0,0:0:0:0:
309,197,179042,1,0,0:0:0:0:
270,197,179126,1,0,0:0:0:0:
309,197,179209,1,2,0:0:0:0:
309,197,179376,1,2,0:0:0:0:
309,197,179542,1,4,0:0:0:0:
309,197,179876,1,2,0:0:0:0:
309,197,180042,1,0,0:0:0:0:
309,197,180126,1,0,0:0:0:0:
309,190,180209,1,2,0:0:0:0:
309,187,180376,1,0,0:0:0:0:
309,187,180542,1,2,0:0:0:0:
309,187,180709,1,2,0:0:0:0:
309,186,180876,1,0,0:0:0:0:
289,201,181042,1,0,0:0:0:0:
289,201,181126,1,0,0:0:0:0:
312,186,181209,1,2,0:0:0:0:
290,202,181292,1,2,0:0:0:0:
309,187,181376,1,2,0:0:0:0:
309,187,181542,1,0,0:0:0:0:
309,187,181709,1,0,0:0:0:0:
309,186,181876,1,2,0:0:0:0:
260,182,182042,1,2,0:0:0:0:
260,182,182126,1,2,0:0:0:0:
292,186,182209,1,0,0:0:0:0:
291,186,182542,1,2,0:0:0:0:
292,186,182709,1,0,0:0:0:0:
292,186,182792,1,0,0:0:0:0:
294,193,182876,1,0,0:0:0:0:
292,186,183042,1,0,0:0:0:0:
292,186,183209,1,2,0:0:0:0:
293,197,183376,1,0,0:0:0:0:
300,183,183542,1,2,0:0:0:0:
288,196,183626,1,2,0:0:0:0:
300,184,183709,1,0,0:0:0:0:
315,176,183792,1,0,0:0:0:0:
300,185,183876,1,2,0:0:0:0:
300,185,184042,1,2,0:0:0:0:
300,185,184209,1,0,0:0:0:0:
300,183,184376,1,0,0:0:0:0:
300,183,184542,1,2,0:0:0:0:
261,195,184626,1,2,0:0:0:0:
283,196,184709,1,2,0:0:0:0:
300,185,184876,1,4,0:0:0:0:
270,199,185209,1,2,0:0:0:0:
283,203,185376,1,0,0:0:0:0:
290,250,185459,1,0,0:0:0:0:
295,222,185542,1,2,0:0:0:0:
295,220,185709,1,0,0:0:0:0:
295,220,185876,1,2,0:0:0:0:
295,220,186042,1,2,0:0:0:0:
259,216,186209,5,0,0:0:0:0:
259,216,186376,5,2,0:0:0:0:
259,216,186459,5,0,0:0:0:0:
253,203,186542,5,2,0:0:0:0:
259,216,186709,1,0,0:0:0:0:
259,216,186876,1,2,0:0:0:0:
259,216,187042,1,0,0:0:0:0:
259,216,187126,1,2,0:0:0:0:
259,216,187209,1,2,0:0:0:0:
265,212,187292,1,0,0:0:0:0:
259,216,187376,1,2,0:0:0:0:
263,186,187542,5,0,0:0:0:0:
263,186,187626,1,0,0:0:0:0:
263,186,187709,1,2,0:0:0:0:
263,186,187792,1,0,0:0:0:0:
263,186,187876,1,2,0:0:0:0:
263,186,187959,1,2,0:0:0:0:
265,194,188042,1,0,0:0:0:0:
265,195,188126,1,2,0:0:0:0:
265,195,188209,1,0,0:0:0:0:
265,195,188292,1,0,0:0:0:0:
265,195,188376,1,2,0:0:0:0:
265,195,188459,1,0,0:0:0:0:
264,195,188542,1,0,0:0:0:0:
264,195,188626,1,2,0:0:0:0:
264,195,188709,1,0,0:0:0:0:
264,195,188792,1,0,0:0:0:0:
264,196,188876,1,2,0:0:0:0:
265,194,189042,1,0,0:0:0:0:
265,195,189126,1,0,0:0:0:0:
256,199,189209,1,2,0:0:0:0:
265,195,189292,1,0,0:0:0:0:
255,201,189376,1,0,0:0:0:0:
255,201,189542,1,2,0:0:0:0:
253,201,189709,1,0,0:0:0:0:
253,201,189792,1,0,0:0:0:0:
253,201,189876,1,2,0:0:0:0:
246,205,190209,1,4,0:0:0:0:
256,192,190376,12,0,192876,0:0:0:0:
248,183,194209,5,2,0:0:0:0:
248,183,194459,1,2,0:0:0:0:
248,183,194542,1,2,0:0:0:0:
254,184,194709,1,2,0:0:0:0:
256,188,194876,1,2,0:0:0:0:
261,180,195209,1,2,0:0:0:0:
263,180,195376,1,2,0:0:0:0:
269,183,195542,1,2,0:0:0:0:
281,188,195876,1,0,0:0:0:0:
269,183,196209,1,2,0:0:0:0:
269,183,196876,1,2,0:0:0:0:
269,183,197126,1,2,0:0:0:0:
274,184,197209,1,2,0:0:0:0:
276,186,197376,1,2,0:0:0:0:
278,186,197542,1,2,0:0:0:0:
278,186,197876,1,2,0:0:0:0:
278,186,198042,1,2,0:0:0:0:
280,188,198209,1,0,0:0:0:0:
278,186,198542,1,0,0:0:0:0:
283,190,198876,1,2,0:0:0:0:
283,187,199542,1,2,0:0:0:0:
282,184,199876,1,0,0:0:0:0:
288,182,200042,1,2,0:0:0:0:
282,179,200209,1,2,0:0:0:0:
282,181,200542,1,2,0:0:0:0:
282,184,200876,1,2,0:0:0:0:
282,179,201209,1,0,0:0:0:0:
282,181,201542,1,2,0:0:0:0:
282,190,202209,1,2,0:0:0:0:
282,181,202542,1,0,0:0:0:0:
282,190,202709,1,2,0:0:0:0:
282,190,202792,1,2,0:0:0:0:
282,190,202876,1,2,0:0:0:0:
282,181,203376,1,0,0:0:0:0:
282,181,203542,1,2,0:0:0:0:
281,182,203876,1,2,0:0:0:0:
282,181,204209,1,0,0:0:0:0:
282,181,204542,1,0,0:0:0:0:
281,182,204876,1,6,0:0:0:0:
248,207,205126,1,2,0:0:0:0:
248,207,205209,1,0,0:0:0:0:
245,211,205292,1,2,0:0:0:0:
248,207,205376,1,0,0:0:0:0:
248,207,205542,1,2,0:0:0:0:
250,205,205709,1,0,0:0:0:0:
249,205,205792,1,2,0:0:0:0:
248,205,205876,1,0,0:0:0:0:
249,197,205959,1,0,0:0:0:0:
249,207,206042,1,2,0:0:0:0:
249,207,206209,1,0,0:0:0:0:
249,207,206376,1,0,0:0:0:0:
247,210,206459,1,0,0:0:0:0:
247,210,206542,1,2,0:0:0:0:
249,206,206709,1,0,0:0:0:0:
249,207,206876,1,2,0:0:0:0:
251,178,206959,1,2,0:0:0:0:
251,178,207042,1,0,0:0:0:0:
251,178,207126,1,0,0:0:0:0:
251,178,207209,1,2,0:0:0:0:
251,178,207376,1,0,0:0:0:0:
251,178,207542,1,2,0:0:0:0:
244,187,207626,1,0,0:0:0:0:
251,178,207709,1,0,0:0:0:0:
251,178,207792,1,2,0:0:0:0:
246,190,207876,1,0,0:0:0:0:
246,191,208042,1,2,0:0:0:0:
247,190,208209,1,0,0:0:0:0:
271,191,208292,1,2,0:0:0:0:
247,190,208376,1,0,0:0:0:0:
247,188,208459,1,0,0:0:0:0:
243,186,208542,1,2,0:0:0:0:
257,170,208626,1,2,0:0:0:0:
242,186,208709,1,0,0:0:0:0:
242,186,208876,1,2,0:0:0:0:
242,182,209042,1,2,0:0:0:0:
242,185,209126,1,2,0:0:0:0:
242,187,209209,1,0,0:0:0:0:
247,190,209376,1,2,0:0:0:0:
244,174,209542,1,0,0:0:0:0:
242,175,209626,1,2,0:0:0:0:
236,175,209709,1,2,0:0:0:0:
243,175,209792,1,0,0:0:0:0:
239,174,209876,1,2,0:0:0:0:
256,171,210209,1,6,0:0:0:0:
263,176,210376,1,0,0:0:0:0:
263,176,210459,1,0,0:0:0:0:
248,181,210542,1,2,0:0:0:0:
265,160,210709,1,0,0:0:0:0:
265,160,210876,1,2,0:0:0:0:
265,161,210959,1,2,0:0:0:0:
265,162,211042,1,0,0:0:0:0:
218,149,211126,1,0,0:0:0:0:
258,181,211209,1,2,0:0:0:0:
267,160,211376,1,0,0:0:0:0:
265,160,211542,1,2,0:0:0:0:
265,160,211709,1,0,0:0:0:0:
265,160,211792,1,0,0:0:0:0:
262,172,211876,1,2,0:0:0:0:
263,140,212042,1,0,0:0:0:0:
253,175,212209,1,2,0:0:0:0:
253,175,212292,1,2,0:0:0:0:
256,171,212376,1,0,0:0:0:0:
231,149,212459,1,0,0:0:0:0:
263,178,212542,1,2,0:0:0:0:
254,155,212709,1,0,0:0:0:0:
254,155,212876,1,2,0:0:0:0:
269,154,213126,1,0,0:0:0:0:
293,142,213209,1,2,0:0:0:0:
291,177,213292,1,2,0:0:0:0:
277,170,213376,1,0,0:0:0:0:
278,168,213542,1,2,0:0:0:0:
278,168,213709,1,0,0:0:0:0:
278,170,213792,1,0,0:0:0:0:
283,171,213876,1,2,0:0:0:0:
278,171,213959,1,0,0:0:0:0:
285,171,214042,1,2,0:0:0:0:
287,171,214209,1,0,0:0:0:0:
272,184,214376,1,0,0:0:0:0:
295,179,214459,1,0,0:0:0:0:
306,183,214542,1,2,0:0:0:0:
254,168,214626,1,0,0:0:0:0:
265,192,214709,1,2,0:0:0:0:
231,149,214792,1,2,0:0:0:0:
265,194,214876,1,0,0:0:0:0:
231,149,214959,1,2,0:0:0:0:
267,182,215042,1,0,0:0:0:0:
254,168,215126,1,0,0:0:0:0:
262,196,215209,1,2,0:0:0:0:
254,168,215292,1,0,0:0:0:0:
265,190,215376,1,2,0:0:0:0:
264,190,215459,1,2,0:0:0:0:
257,188,215542,1,0,0:0:0:0:
231,149,216209,1,0,0:0:0:0:
264,189,216876,1,6,0:0:0:0:
231,202,217042,1,6,0:0:0:0:
231,202,217209,1,4,0:0:0:0:
231,202,217376,1,4,0:0:0:0:
231,202,217542,1,6,0:0:0:0:
289,194,217876,1,2,0:0:0:0:
289,194,218042,1,2,0:0:0:0:
289,194,218209,1,4,0:0:0:0:
237,215,218542,1,2,0:0:0:0:
289,194,218876,1,4,0:0:0:0:
289,197,219209,1,2,0:0:0:0:
246,196,219542,1,4,0:0:0:0:
246,196,219709,1,4,0:0:0:0:
237,196,219876,1,6,0:0:0:0:
246,196,220042,1,6,0:0:0:0:
246,196,220209,1,4,0:0:0:0:
242,190,220376,1,2,0:0:0:0:
242,190,220459,1,2,0:0:0:0:
242,190,220542,1,0,0:0:0:0:
241,187,220626,1,0,0:0:0:0:
241,186,220709,1,0,0:0:0:0:
241,184,220876,1,6,0:0:0:0:
261,195,221042,1,0,0:0:0:0:
261,208,221126,1,0,0:0:0:0:
255,201,221209,1,2,0:0:0:0:
255,201,221376,1,0,0:0:0:0:
256,200,221542,1,2,0:0:0:0:
275,203,221626,1,2,0:0:0:0:
256,200,221709,1,0,0:0:0:0:
259,200,221792,1,0,0:0:0:0:
259,200,221876,1,2,0:0:0:0:
272,200,222042,1,0,0:0:0:0:
270,205,222209,1,2,0:0:0:0:
270,205,222376,1,0,0:0:0:0:
278,197,222459,1,0,0:0:0:0:
277,197,222542,1,2,0:0:0:0:
277,198,222709,1,2,0:0:0:0:
288,181,222876,1,0,0:0:0:0:
276,185,223209,1,2,0:0:0:0:
272,186,223376,1,2,0:0:0:0:
270,186,223542,1,0,0:0:0:0:
261,182,223709,1,0,0:0:0:0:
263,182,223792,1,0,0:0:0:0:
264,195,223876,1,2,0:0:0:0:
263,194,224042,1,0,0:0:0:0:
267,195,224209,1,2,0:0:0:0:
267,195,224542,1,2,0:0:0:0:
277,194,224709,1,0,0:0:0:0:
269,197,224876,1,2,0:0:0:0:
278,201,225042,1,2,0:0:0:0:
276,199,225126,1,2,0:0:0:0:
281,210,225209,1,0,0:0:0:0:
272,203,225376,1,0,0:0:0:0:
301,208,225542,1,2,0:0:0:0:
296,198,225876,1,0,0:0:0:0:
296,198,226042,1,0,0:0:0:0:
295,195,226209,1,2,0:0:0:0:
295,195,226376,1,0,0:0:0:0:
295,195,226459,1,0,0:0:0:0:
293,193,226542,1,2,0:0:0:0:
296,198,226709,1,0,0:0:0:0:
292,202,226876,1,2,0:0:0:0:
295,195,226959,1,2,0:0:0:0:
296,198,227042,1,0,0:0:0:0:
295,195,227126,1,0,0:0:0:0:
295,195,227209,1,2,0:0:0:0:
295,195,227376,1,0,0:0:0:0:
265,210,227542,1,2,0:0:0:0:
276,211,227709,1,0,0:0:0:0:
276,211,227792,1,0,0:0:0:0:
274,208,227876,1,2,0:0:0:0:
281,199,228042,1,0,0:0:0:0:
284,199,228209,1,2,0:0:0:0:
264,190,228376,1,0,0:0:0:0:
225,194,228542,5,2,0:0:0:0:
265,188,228709,1,2,0:0:0:0:
263,190,228876,1,4,0:0:0:0:
277,179,229209,1,2,0:0:0:0:
264,190,229376,1,4,0:0:0:0:
265,188,229542,1,4,0:0:0:0:
263,190,229876,1,2,0:0:0:0:
270,189,230209,1,4,0:0:0:0:
256,190,230376,1,2,0:0:0:0:
256,190,230459,1,2,0:0:0:0:
254,191,230542,1,0,0:0:0:0:
259,194,230709,1,0,0:0:0:0:
263,190,230876,1,6,0:0:0:0:
