osu file format v14

[General]
AudioFilename: audio.mp3
AudioLeadIn: 0
PreviewTime: 122702
Countdown: 0
SampleSet: Soft
StackLeniency: 0.2
Mode: 0
LetterboxInBreaks: 0
WidescreenStoryboard: 0

[Editor]
DistanceSpacing: 0.5
BeatDivisor: 4
GridSize: 8
TimelineZoom: 2

[Metadata]
Title:Hanagoyomi
TitleUnicode:華暦
Artist:Ayumi.
ArtistUnicode:Ayumi.
Creator:gazimal
Version:Existence
Source:花の野に咲くうたかたの
Tags:eringiRa eroge galgame video game vn visual novel opening op full japanese female vocal Hana no No ni Saku Utakata no applique soft -_Ex_- - Ex - AsuKow Grazuko L1gHT_u -Hitomi light Rock Pop jpop j-pop vgm version ver the sweet world of the ephemeral original soundtrack ost angel note j-rock jrock
BeatmapID:3969658
BeatmapSetID:1922996

[Difficulty]
HPDrainRate:5
CircleSize:4.2
OverallDifficulty:9
ApproachRate:9.4
SliderMultiplier:1.8
SliderTickRate:1

[Events]
//Background and Video events
0,0,"bg.png",0,0
//Break Periods
//Storyboard Layer 0 (Background)
//Storyboard Layer 1 (Fail)
//Storyboard Layer 2 (Pass)
//Storyboard Layer 3 (Foreground)
//Storyboard Layer 4 (Overlay)
//Storyboard Sound Samples

[TimingPoints]
1036,500,4,2,1,30,1,0
1536,500,4,2,2,45,1,0
1536,-125,4,2,2,45,0,0
3036,-125,4,2,1,30,0,0
5536,-125,4,2,2,45,0,0
6536,-125,4,2,1,30,0,0
8036,-250,4,2,1,30,0,0
9536,-250,4,2,2,45,0,0
10536,-250,4,2,1,30,0,0
13536,-250,4,2,2,45,0,0
14036,-250,4,2,1,45,0,0
16869,333.333333333333,4,2,1,70,1,0
16869,-83.3333333333333,4,2,1,70,0,0
19202,-200,4,2,1,70,0,0
19535,-76.9230769230769,4,2,1,70,0,0
19868,-133.333333333333,4,2,1,70,0,0
20202,-83.3333333333333,4,2,1,70,0,0
21868,-133.333333333333,4,2,1,70,0,0
22035,-100,4,2,1,70,0,0
22202,-83.3333333333333,4,2,1,70,0,0
22868,-71.4285714285714,4,2,1,70,0,0
23202,-133.333333333333,4,2,1,70,0,0
24202,-333.333333333333,4,2,1,70,0,0
24535,-66.6666666666667,4,2,1,70,0,0
24868,-40,4,2,1,60,0,0
24952,-40,4,2,1,5,0,0
25368,-40,4,2,1,60,0,0
25452,-40,4,2,1,5,0,0
25535,-40,4,2,1,60,0,0
25618,-40,4,2,1,5,0,0
25868,-333.333333333333,4,2,1,60,0,0
26118,-40,4,2,1,5,0,0
26202,-333.333333333333,4,2,1,70,0,0
27535,-333.333333333333,4,2,1,50,0,0
28202,-333.333333333333,4,2,1,45,0,0
28868,-1000,4,2,1,40,0,0
31535,-133.333333333333,4,2,1,40,0,0
32868,-500,4,2,1,40,0,0
34868,-500,4,2,1,45,0,0
40702,-133.333333333333,4,2,1,45,0,0
42202,-83.3333333333333,4,2,1,60,0,0
42368,-200,4,2,1,60,0,0
44202,-100,4,2,1,60,0,0
44535,-200,4,2,1,60,0,0
44868,-83.3333333333333,4,2,1,60,0,0
45202,-200,4,2,1,60,0,0
47535,-83.3333333333333,4,2,1,60,0,0
47868,-200,4,2,1,60,0,0
49535,-100,4,2,1,60,0,0
49868,-200,4,2,1,60,0,0
50202,-83.3333333333333,4,2,1,60,0,0
50535,-200,4,2,1,60,0,0
51702,-66.6666666666667,4,2,1,60,0,0
52535,-333.333333333333,4,2,1,60,0,0
52868,-333.333333333333,4,2,1,50,0,0
55535,-66.6666666666667,4,2,1,65,0,0
56285,-40,4,2,1,5,0,0
56368,-66.6666666666667,4,2,1,65,0,0
57535,-133.333333333333,4,2,1,65,0,0
58202,-133.333333333333,4,2,3,55,0,0
62202,-133.333333333333,4,2,1,80,0,0
62243,-133.333333333333,4,2,1,55,0,0
62285,-133.333333333333,4,2,1,50,0,0
62368,-133.333333333333,4,2,1,40,0,0
62535,-133.333333333333,4,2,1,30,0,0
62868,-133.333333333333,4,2,1,20,0,0
63868,-133.333333333333,4,2,1,25,0,0
64202,-133.333333333333,4,2,1,35,0,0
64535,-133.333333333333,4,2,1,55,0,0
64868,-55.5555555555556,4,2,1,80,0,1
65202,-83.3333333333333,4,2,1,80,0,1
65535,-66.6666666666667,4,2,1,80,0,1
65785,-40,4,2,1,5,0,1
65868,-66.6666666666667,4,2,1,80,0,1
66868,-133.333333333333,4,2,1,80,0,1
67535,-58.8235294117647,4,2,1,80,0,1
67868,-66.6666666666667,4,2,1,80,0,1
68452,-40,4,2,1,5,0,1
68535,-66.6666666666667,4,2,1,80,0,1
71868,-100,4,2,1,80,0,1
72202,-200,4,2,1,80,0,1
72535,-100,4,2,1,80,0,1
72785,-40,4,2,1,5,0,1
72868,-100,4,2,1,80,0,1
73202,-83.3333333333333,4,2,1,80,0,1
73535,-58.8235294117647,4,2,1,80,0,1
74202,-100,4,2,1,80,0,1
75535,-58.8235294117647,4,2,1,80,0,1
75785,-40,4,2,1,5,0,1
75868,-58.8235294117647,4,2,1,80,0,1
79118,-40,4,2,1,5,0,1
79202,-200,4,2,1,80,0,1
80368,-83.3333333333333,4,2,1,80,0,1
80702,-133.333333333333,4,2,1,80,0,1
80868,-66.6666666666667,4,2,1,80,0,1
82535,-100,4,2,1,80,0,1
82868,-200,4,2,1,80,0,1
83118,-40,4,2,1,5,0,1
83202,-66.6666666666667,4,2,1,80,0,1
83452,-40,4,2,1,5,0,1
83535,-100,4,2,1,80,0,1
85202,-66.6666666666667,4,2,1,80,0,1
86202,-100,4,2,1,75,0,1
87535,-66.6666666666667,4,2,1,80,0,1
88202,-66.6666666666667,4,2,1,80,0,0
88535,-66.6666666666667,4,2,1,60,0,0
88868,-83.3333333333333,4,2,1,70,0,0
91202,-200,4,2,1,70,0,0
91535,-76.9230769230769,4,2,1,70,0,0
91868,-133.333333333333,4,2,1,70,0,0
92202,-83.3333333333333,4,2,1,70,0,0
95202,-133.333333333333,4,2,1,70,0,0
96202,-333.333333333333,4,2,1,70,0,0
96535,-66.6666666666667,4,2,1,70,0,0
96868,-40,4,2,1,60,0,0
96952,-40,4,2,1,5,0,0
97368,-40,4,2,1,60,0,0
97452,-40,4,2,1,5,0,0
97535,-40,4,2,1,60,0,0
97618,-40,4,2,1,5,0,0
97868,-333.333333333333,4,2,1,60,0,0
98118,-333.333333333333,4,2,1,5,0,0
98202,-333.333333333333,4,2,1,70,0,0
99535,-333.333333333333,4,2,3,50,0,0
100202,-333.333333333333,4,2,3,45,0,0
100868,-333.333333333333,4,2,2,45,0,0
101202,-333.333333333333,4,2,3,45,0,0
102202,-333.333333333333,4,2,1,45,0,0
102535,-333.333333333333,4,2,3,45,0,0
105868,-55.5555555555556,4,2,1,45,0,0
106118,-333.333333333333,4,2,1,5,0,0
106202,-55.5555555555556,4,2,1,60,0,0
106702,-66.6666666666667,4,2,1,60,0,0
107702,-100,4,2,1,60,0,0
108202,-66.6666666666667,4,2,1,60,0,0
109535,-90.9090909090909,4,2,1,60,0,0
109868,-66.6666666666667,4,2,1,60,0,0
111202,-133.333333333333,4,2,1,60,0,0
111535,-133.333333333333,4,2,1,50,0,0
114202,-66.6666666666667,4,2,1,65,0,0
114952,-333.333333333333,4,2,1,5,0,0
115035,-66.6666666666667,4,2,1,65,0,0
115868,-83.3333333333333,4,2,1,65,0,0
116202,-133.333333333333,4,2,1,65,0,0
116869,-133.333333333333,4,2,3,55,0,0
120869,-66.6666666666667,4,2,1,80,0,0
122202,-66.6666666666667,4,2,1,70,0,0
122535,-100,4,2,1,70,0,0
123202,-333.333333333333,4,2,1,70,0,0
123452,-333.333333333333,4,2,1,5,0,0
123535,-55.5555555555556,4,2,1,80,0,1
123868,-83.3333333333333,4,2,1,80,0,1
124202,-66.6666666666667,4,2,1,80,0,1
124452,-66.6666666666667,4,2,1,5,0,1
124535,-83.3333333333333,4,2,1,80,0,1
125535,-133.333333333333,4,2,1,80,0,1
126202,-55.5555555555556,4,2,1,80,0,1
126535,-83.3333333333333,4,2,1,80,0,1
126868,-66.6666666666667,4,2,1,80,0,1
127118,-66.6666666666667,4,2,1,5,0,1
127202,-66.6666666666667,4,2,1,80,0,1
127535,-55.5555555555556,4,2,1,80,0,1
127868,-83.3333333333333,4,2,1,80,0,1
128868,-52.6315789473684,4,2,1,80,0,1
129118,-66.6666666666667,4,2,1,5,0,1
129202,-333.333333333333,4,2,1,80,0,1
129452,-66.6666666666667,4,2,1,5,0,1
129535,-58.8235294117647,4,2,1,80,0,1
129785,-66.6666666666667,4,2,1,5,0,1
129868,-66.6666666666667,4,2,1,80,0,1
130118,-66.6666666666667,4,2,1,5,0,1
130202,-66.6666666666667,4,2,1,80,0,1
130868,-133.333333333333,4,2,1,80,0,1
131535,-66.6666666666667,4,2,1,80,0,1
131868,-100,4,2,1,80,0,1
134202,-55.5555555555556,4,2,1,80,0,1
134452,-66.6666666666667,4,2,1,5,0,1
134535,-55.5555555555556,4,2,1,80,0,1
134702,-100,4,2,1,80,0,1
134868,-55.5555555555556,4,2,1,80,0,1
135202,-100,4,2,1,80,0,1
136202,-133.333333333333,4,2,1,80,0,1
136868,-55.5555555555556,4,2,1,80,0,1
137202,-133.333333333333,4,2,1,80,0,1
137535,-66.6666666666667,4,2,1,80,0,1
137868,-83.3333333333333,4,2,1,80,0,1
139202,-62.5,4,2,1,80,0,1
139452,-66.6666666666667,4,2,1,5,0,1
139535,-62.5,4,2,1,80,0,1
141535,-200,4,2,1,80,0,1
141868,-100,4,2,1,80,0,1
142202,-66.6666666666667,4,2,1,80,0,1
142535,-83.3333333333333,4,2,1,80,0,1
143868,-66.6666666666667,4,2,1,80,0,1
144868,-100,4,2,1,75,0,1
146202,-100,4,2,1,80,0,1
146868,-100,4,2,1,80,0,0
147202,-333.333333333333,4,2,1,80,0,0
147535,-58.8235294117647,4,2,1,70,0,0
147785,-58.8235294117647,4,2,1,5,0,0
147868,-133.333333333333,4,2,1,70,0,0
148035,-83.3333333333333,4,2,1,70,0,0
150202,-62.5,4,2,1,70,0,0
150452,-58.8235294117647,4,2,1,5,0,0
150535,-133.333333333333,4,2,1,70,0,0
150702,-83.3333333333333,4,2,1,70,0,0
152535,-133.333333333333,4,2,1,70,0,0
152785,-58.8235294117647,4,2,1,5,0,0
152868,-58.8235294117647,4,2,1,70,0,0
153118,-58.8235294117647,4,2,1,5,0,0
153202,-58.8235294117647,4,2,1,70,0,0
153868,-76.9230769230769,4,2,1,70,0,0
154118,-58.8235294117647,4,2,1,5,0,0
154202,-76.9230769230769,4,2,1,70,0,0
154452,-58.8235294117647,4,2,1,5,0,0
154535,-133.333333333333,4,2,1,70,0,0
154702,-71.4285714285714,4,2,1,70,0,0
155202,-200,4,2,1,70,0,0
155535,-71.4285714285714,4,2,1,70,0,0
157368,-133.333333333333,4,2,1,70,0,0
158035,-52.6315789473684,4,2,1,70,0,0
158285,-58.8235294117647,4,2,1,5,0,0
158368,-100,4,2,1,70,0,0
158535,-50,4,2,1,70,0,0
159202,-100,4,2,1,70,0,0
159368,-52.6315789473684,4,2,1,70,0,0
159618,-58.8235294117647,4,2,1,5,0,0
159702,-66.6666666666667,4,2,1,70,0,0
160535,-52.6315789473684,4,2,1,70,0,0
160952,-58.8235294117647,4,2,1,5,0,0
161035,-133.333333333333,4,2,1,70,0,0
161202,-58.8235294117647,4,2,1,70,0,0
161452,-58.8235294117647,4,2,1,5,0,0
161535,-133.333333333333,4,2,1,70,0,0
162035,-52.6315789473684,4,2,1,70,0,0
162285,-58.8235294117647,4,2,1,5,0,0
162368,-133.333333333333,4,2,1,70,0,0
162535,-58.8235294117647,4,2,1,70,0,0
162785,-58.8235294117647,4,2,1,5,0,0
162868,-200,4,2,1,70,0,0
164868,-83.3333333333333,4,2,1,70,0,0
168785,-58.8235294117647,4,2,1,5,0,0
168868,-55.5555555555556,4,2,1,75,0,0
169118,-58.8235294117647,4,2,1,5,0,0
169202,-133.333333333333,4,2,1,75,0,0
170035,-83.3333333333333,4,2,1,75,0,0
171452,-58.8235294117647,4,2,1,5,0,0
171535,-66.6666666666667,4,2,1,75,0,0
171785,-58.8235294117647,4,2,1,5,0,0
171868,-133.333333333333,4,2,1,75,0,0
172868,-83.3333333333333,4,2,1,75,0,0
174118,-58.8235294117647,4,2,1,5,0,0
174202,-83.3333333333333,4,2,1,75,0,0
174535,-66.6666666666667,4,2,1,75,0,0
174785,-58.8235294117647,4,2,1,5,0,0
174868,-66.6666666666667,4,2,1,75,0,0
175702,-133.333333333333,4,2,1,75,0,0
175868,-55.5555555555556,4,2,1,75,0,0
176118,-58.8235294117647,4,2,1,5,0,0
176202,-100,4,2,1,75,0,0
176535,-83.3333333333333,4,2,1,75,0,0
176785,-58.8235294117647,4,2,1,5,0,0
176868,-83.3333333333333,4,2,1,75,0,0
178202,-76.9230769230769,4,2,1,75,0,0
178452,-58.8235294117647,4,2,1,5,0,0
178535,-133.333333333333,4,2,1,75,0,0
178868,-83.3333333333333,4,2,1,75,0,0
179535,-55.5555555555556,4,2,1,75,0,0
179785,-58.8235294117647,4,2,1,5,0,0
179868,-66.6666666666667,4,2,1,75,0,0
180118,-58.8235294117647,4,2,1,5,0,0
180202,-133.333333333333,4,2,1,75,0,0
181202,-66.6666666666667,4,2,1,75,0,0
181452,-58.8235294117647,4,2,1,5,0,0
181535,-66.6666666666667,4,2,1,75,0,0
182452,-58.8235294117647,4,2,1,5,0,0
182535,-83.3333333333333,4,2,1,75,0,0
182785,-58.8235294117647,4,2,1,5,0,0
182868,-83.3333333333333,4,2,1,75,0,0
183868,-47.6190476190476,4,2,1,75,0,0
184118,-58.8235294117647,4,2,1,5,0,0
184202,-100,4,2,1,75,0,0
184535,-133.333333333333,4,2,1,75,0,0
184785,-58.8235294117647,4,2,1,5,0,0
184868,-52.6315789473684,4,2,1,75,0,0
185868,-83.3333333333333,4,2,1,75,0,0
186118,-58.8235294117647,4,2,1,5,0,0
186202,-83.3333333333333,4,2,1,75,0,0
187035,-133.333333333333,4,2,1,75,0,0
188868,-66.6666666666667,4,2,1,75,0,0
189118,-58.8235294117647,4,2,1,5,0,0
189202,-100,4,2,1,75,0,0
189452,-58.8235294117647,4,2,1,5,0,0
189535,-100,4,2,1,75,0,0
189868,-66.6666666666667,4,2,1,75,0,0
190118,-58.8235294117647,4,2,1,5,0,0
190202,-66.6666666666667,4,2,1,75,0,0
190285,-66.6666666666667,4,2,1,30,0,0
194202,-66.6666666666667,4,2,1,40,0,0
194368,-200,4,2,1,40,0,0
195535,-333.333333333333,4,2,1,40,0,0
197035,-200,4,2,1,40,0,0
198202,-333.333333333333,4,2,1,40,0,0
199535,-200,4,2,1,40,0,0
200202,-200,4,2,1,40,0,0
204285,-200,4,2,1,45,0,0
204368,-200,4,2,1,50,0,0
204452,-200,4,2,1,55,0,0
204535,-133.333333333333,4,2,1,70,0,0
204618,-100,4,2,1,70,0,0
204702,-80,4,2,1,70,0,0
204785,-66.6666666666667,4,2,1,70,0,0
204868,-50,4,2,1,80,0,1
205118,-50,4,2,1,5,0,1
205202,-83.3333333333333,4,2,1,80,0,1
205535,-55.5555555555556,4,2,1,80,0,1
205868,-100,4,2,1,80,0,1
206868,-133.333333333333,4,2,1,80,0,1
207535,-66.6666666666667,4,2,1,80,0,1
208452,-50,4,2,1,5,0,1
208535,-133.333333333333,4,2,1,80,0,1
210202,-66.6666666666667,4,2,1,80,0,1
212535,-55.5555555555556,4,2,1,80,0,1
213202,-90.9090909090909,4,2,1,80,0,1
213702,-55.5555555555556,4,2,1,80,0,1
214535,-90.9090909090909,4,2,1,80,0,1
215535,-100,4,2,1,75,0,1
216868,-66.6666666666667,4,2,1,80,0,1
217868,-100,4,2,1,75,0,1
219535,-66.6666666666667,4,2,1,80,0,1
220368,-133.333333333333,4,2,1,80,0,1
220535,-58.8235294117647,4,2,1,80,0,0
220785,-50,4,2,1,5,0,0
220868,-100,4,2,1,75,0,0
221535,-66.6666666666667,4,2,1,75,0,0
223202,-200,4,2,1,75,0,0
223535,-66.6666666666667,4,2,1,75,0,0
223868,-133.333333333333,4,2,1,75,0,0
224202,-83.3333333333333,4,2,1,75,0,0
228202,-200,4,2,1,75,0,0
228535,-66.6666666666667,4,2,1,75,0,0
228868,-40,4,2,1,65,0,0
228952,-50,4,2,1,5,0,0
229368,-40,4,2,1,65,0,0
229452,-50,4,2,1,5,0,0
229535,-40,4,2,1,65,0,0
229618,-50,4,2,1,5,0,0
229868,-333.333333333333,4,2,1,65,0,0
230202,-333.333333333333,4,2,1,75,0,0

[Colours]
Combo1 : 255,191,255
Combo2 : 255,128,255
Combo3 : 255,0,255
Combo4 : 215,215,215
Combo5 : 192,192,192

[HitObjects]
256,192,1036,69,2,0:0:0:0:
256,192,1286,1,2,0:0:0:0:
203,136,1536,6,0,B|217:118|251:114|251:114|259:65|213:1|157:12|151:9|151:9|138:39|149:62|172:70,1,288,2|0,0:0|0:0,0:0:0:0:
330,174,3536,54,0,B|339:195|326:226|326:226|363:258|441:250|460:196|466:192|466:192|446:166|421:164|403:180,1,288,2|2,0:0|0:0,0:0:0:0:
233,265,5536,6,0,B|211:262|190:235|190:235|144:251|112:323|149:366|150:374|150:374|182:369|196:349|192:325,1,288,2|2,0:0|0:0,0:0:0:0:
256,192,7536,53,2,0:0:0:0:
256,192,7786,1,2,0:0:0:0:
256,192,8036,2,0,L|265:145,2,36,2|2|2,0:0|0:0|0:0,0:0:0:0:
256,192,9536,5,2,0:0:0:0:
272,198,9786,1,0,0:0:0:0:
304,187,10036,1,0,0:0:0:0:
329,116,10286,1,0,0:0:0:0:
274,42,10536,53,2,0:0:0:0:
274,42,11036,1,2,0:0:0:0:
274,42,11536,5,2,0:0:0:0:
259,52,11786,1,0,0:0:0:0:
231,59,12036,1,2,0:0:0:0:
177,51,12286,1,0,0:0:0:0:
115,3,12536,53,2,0:0:0:0:
115,3,13036,1,2,0:0:0:0:
115,3,13536,5,2,0:0:0:0:
45,52,13786,1,0,0:0:0:0:
41,101,14036,1,2,0:0:0:0:
53,131,14286,1,0,0:0:0:0:
71,142,14536,53,2,0:0:0:0:
71,142,15036,1,2,0:0:0:0:
71,142,16869,22,0,P|99:134|122:110,1,53.9999983520508,12|0,0:0|0:0,0:0:0:0:
117,44,17035,1,0,3:2:0:0:
55,144,17202,2,0,P|47:172|57:204,1,53.9999983520508,10|0,0:0|0:0,0:0:0:0:
116,232,17368,1,0,3:2:0:0:
187,269,17535,2,0,P|134:271|99:310,1,107.999996704102,10|0,0:0|3:2,0:0:0:0:
230,375,17869,1,10,0:0:0:0:
311,297,18035,1,2,3:2:0:0:
154,309,18202,54,0,P|174:292|186:266,1,53.9999983520508,10|0,3:2|0:0,0:0:0:0:
207,154,18369,1,2,3:2:0:0:
202,146,18452,1,2,0:0:0:0:
197,138,18535,1,10,0:0:0:0:
287,182,18702,1,2,3:2:0:0:
408,117,18868,2,0,L|394:54,1,53.9999983520508,10|0,0:0|0:0,0:0:0:0:
322,105,19035,1,0,3:2:0:0:
478,44,19202,54,0,L|482:20,1,22.5,10|0,0:0|0:0,0:0:0:0:
448,160,19368,2,0,L|452:136,1,22.5,2|0,3:2|0:0,0:0:0:0:
401,235,19535,2,0,B|424:188|481:202|481:202|489:216|499:220,1,116.999994644165,10|0,0:0|3:2,0:0:0:0:
344,319,19868,22,0,P|329:309|320:296,1,33.7500012874604,10|0,0:0|0:0,0:0:0:0:
328,289,20035,2,0,P|342:298|351:311,1,33.7500012874604,2|0,3:2|0:0,0:0:0:0:
413,384,20202,2,0,P|423:358|442:339,1,53.9999983520508,10|0,0:0|0:0,0:0:0:0:
511,297,20368,1,0,3:2:0:0:
313,209,20535,2,0,P|303:183|284:164,1,53.9999983520508,10|0,0:0|0:0,0:0:0:0:
215,121,20701,1,0,3:2:0:0:
391,90,20868,54,0,P|408:72|443:60,1,53.9999983520508,10|0,0:0|0:0,0:0:0:0:
491,116,21035,1,2,3:2:0:0:
473,136,21118,1,2,0:0:0:0:
452,137,21202,1,10,0:0:0:0:
368,13,21368,1,2,3:2:0:0:
288,90,21535,2,0,L|301:27,1,53.9999983520508,10|0,0:0|0:0,0:0:0:0:
215,121,21702,1,0,3:2:0:0:
286,188,21868,54,0,P|304:204|326:212,1,33.7500012874604,10|0,0:0|0:0,0:0:0:0:
140,99,22035,2,0,P|135:122|139:145,1,45,2|0,3:2|0:0,0:0:0:0:
152,2,22202,22,0,P|123:7|88:21,1,53.9999983520508,14|0,0:0|0:0,0:0:0:0:
46,73,22368,1,0,3:2:0:0:
191,43,22535,2,0,P|162:37|127:24,1,53.9999983520508,10|0,0:0|0:0,0:0:0:0:
23,0,22702,1,0,3:2:0:0:
211,42,22868,2,0,P|154:57|118:133,1,125.999996154785,10|0,0:0|3:2,0:0:0:0:
37,258,23202,54,0,P|48:269|64:277,1,33.7500012874604,10|0,0:0|0:0,0:0:0:0:
70,268,23368,2,0,P|58:256|42:248,1,33.7500012874604,2|0,3:2|0:0,0:0:0:0:
77,377,23535,53,10,0:0:0:0:
157,358,23702,1,2,3:2:0:0:
166,185,23868,1,10,0:0:0:0:
207,276,24035,1,2,3:2:0:0:
69,144,24202,22,0,P|52:152|43:157,1,26.9999991760254,10|0,0:0|3:2,0:0:0:0:
44,155,24535,54,0,P|75:130|93:87,1,67.5000025749208,10|0,0:0|0:0,0:0:0:0:
83,0,24702,1,2,3:2:0:0:
42,97,24868,54,0,B|37:122|37:122|89:155|89:155|85:203,1,112.5,4|0,3:2|0:0,0:0:0:0:
340,366,25368,22,0,B|335:340|335:340|387:307|387:307|383:259,1,112.5,2|0,3:2|0:0,0:0:0:0:
385,282,25535,2,0,B|361:292|361:292|361:353|361:353|318:376,1,112.5,2|0,3:2|0:0,0:0:0:0:
488,59,25868,54,0,L|478:12,1,40.4999987640381,8|0,0:0|0:0,0:0:0:0:
479,19,26202,53,6,3:2:0:0:
392,95,26368,1,2,0:0:0:0:
392,95,26452,1,2,0:0:0:0:
392,95,26535,1,6,3:2:0:0:
504,226,26702,1,2,0:0:0:0:
307,304,26868,1,6,3:2:0:0:
307,304,27535,21,2,0:0:0:0:
159,288,27702,1,2,0:0:0:0:
248,169,27868,1,2,0:0:0:0:
127,172,28035,1,2,0:0:0:0:
186,97,28202,1,2,0:0:0:0:
106,87,28368,1,2,0:0:0:0:
119,39,28535,1,2,0:0:0:0:
108,31,28702,1,2,0:0:0:0:
248,169,28868,6,0,P|256:149|267:135,3,36,2|2|2|2,0:0|0:0|0:0|0:0,0:0:0:0:
172,278,31535,6,0,P|283:205|416:210,1,270.000010299683,2|2,0:0|0:0,0:0:0:0:
416,210,32868,2,0,L|424:167,2,36,2|2|2,0:0|0:0|0:0,0:0:0:0:
416,210,34202,53,2,0:0:0:0:
416,210,34535,1,0,0:0:0:0:
395,192,34702,1,0,0:0:0:0:
310,170,34868,1,2,0:0:0:0:
254,213,35035,1,0,0:0:0:0:
233,238,35202,1,0,0:0:0:0:
204,248,35368,1,0,0:0:0:0:
97,285,35535,5,2,0:0:0:0:
116,264,35702,1,0,0:0:0:0:
151,255,35868,1,2,0:0:0:0:
179,274,36035,1,0,0:0:0:0:
234,351,36202,1,2,0:0:0:0:
311,353,36368,1,0,0:0:0:0:
346,331,36535,1,0,0:0:0:0:
356,315,36702,1,0,0:0:0:0:
268,245,36868,53,2,0:0:0:0:
260,223,37035,1,0,0:0:0:0:
271,186,37202,1,0,0:0:0:0:
318,160,37368,1,0,0:0:0:0:
393,167,37535,1,2,0:0:0:0:
472,145,37702,1,0,0:0:0:0:
486,63,37868,1,2,0:0:0:0:
412,12,38035,1,0,0:0:0:0:
393,167,38202,5,2,0:0:0:0:
331,93,38368,2,0,L|333:77,2,9,0|0|2,0:0|0:0|0:0,0:0:0:0:
329,105,38702,1,2,0:0:0:0:
314,87,38868,1,2,0:0:0:0:
271,58,39035,1,0,0:0:0:0:
199,48,39202,1,2,0:0:0:0:
128,79,39368,1,2,0:0:0:0:
97,153,39535,5,2,0:0:0:0:
97,153,39702,1,0,0:0:0:0:
97,153,39868,1,2,0:0:0:0:
177,146,40035,1,0,0:0:0:0:
97,153,40202,1,2,0:0:0:0:
97,153,40535,5,2,0:0:0:0:
31,211,40702,2,0,L|26:187,2,22.5000008583069,2|0|0,0:0|0:0|0:0,0:0:0:0:
35,230,40868,1,2,0:0:0:0:
22,231,41035,1,2,0:0:0:0:
21,219,41202,1,2,0:0:0:0:
31,211,41368,1,2,0:0:0:0:
142,251,41535,21,2,0:0:0:0:
172,281,41646,5,2,0:0:0:0:
166,323,41757,5,2,0:0:0:0:
132,342,41868,5,2,0:0:0:0:
103,350,41980,21,2,0:0:0:0:
88,366,42091,5,2,0:0:0:0:
90,380,42202,38,0,P|73:355|41:340,1,53.9999983520508,6|0,3:2|0:0,0:0:0:0:
150,259,42368,1,2,0:3:0:0:
150,259,42452,1,2,0:3:0:0:
150,259,42535,2,0,L|173:254,1,22.5,8|0,0:0|0:0,0:0:0:0:
31,211,42702,2,0,L|54:206,1,22.5,2|0,0:3|0:0,0:0:0:0:
61,301,42868,1,2,3:3:0:0:
136,137,43035,5,2,0:3:0:0:
136,137,43118,1,2,0:3:0:0:
136,137,43202,2,0,L|140:160,1,22.5,8|0,0:0|0:0,0:0:0:0:
41,102,43368,2,0,L|45:125,1,22.5,2|0,0:3|0:0,0:0:0:0:
117,38,43535,53,0,3:2:0:0:
33,14,43702,1,2,0:3:0:0:
33,14,43785,1,2,0:3:0:0:
33,14,43868,1,8,0:0:0:0:
196,64,44035,1,2,0:3:0:0:
31,198,44202,6,0,P|9:191|-6:176,1,45,2|0,3:3|0:0,0:0:0:0:
119,272,44368,2,0,P|123:293|119:315,1,45,2|0,0:3|0:0,0:0:0:0:
140,159,44535,54,0,P|156:143|177:136,1,45,10|0,0:0|0:0,0:0:0:0:
349,76,44868,54,0,L|294:64,1,53.9999983520508,2|0,3:2|0:0,0:0:0:0:
423,33,45035,1,2,0:0:0:0:
423,33,45118,1,2,0:0:0:0:
423,33,45202,2,0,L|429:64,1,22.5,10|0,0:0|0:0,0:0:0:0:
505,37,45368,2,0,L|501:15,1,22.5,2|0,0:0|0:0,0:0:0:0:
410,132,45535,1,0,3:2:0:0:
493,197,45702,37,2,0:0:0:0:
493,197,45785,1,2,0:0:0:0:
493,197,45868,2,0,L|497:173,1,22.5,10|0,0:0|0:0,0:0:0:0:
444,285,46035,2,0,L|439:261,1,22.5,2|0,0:0|0:0,0:0:0:0:
496,359,46202,21,2,3:2:0:0:
367,310,46368,1,2,0:0:0:0:
367,310,46452,1,2,0:0:0:0:
367,310,46535,1,10,0:0:0:0:
383,384,46702,1,2,0:0:0:0:
344,228,46868,1,2,3:2:0:0:
444,285,47035,2,0,L|475:291,1,22.5,2|2,0:0|0:0,0:0:0:0:
282,282,47202,38,0,L|219:295,1,45,10|0,0:0|0:0,0:0:0:0:
16,272,47535,38,0,P|48:288|64:311,1,53.9999983520508,4|0,3:2|0:0,0:0:0:0:
101,384,47702,1,2,0:3:0:0:
101,384,47785,1,2,0:3:0:0:
101,384,47868,2,0,P|108:376|121:368,1,22.5,8|0,0:0|0:0,0:0:0:0:
135,291,48035,2,0,P|144:293|158:300,1,22.5,2|0,0:3|0:0,0:0:0:0:
0,348,48202,1,2,3:3:0:0:
92,228,48368,5,2,0:3:0:0:
92,228,48452,1,2,0:3:0:0:
92,228,48535,2,0,P|99:220|112:212,1,22.5,8|0,0:0|0:0,0:0:0:0:
39,162,48702,2,0,P|32:154|19:146,1,22.5,2|0,0:3|0:0,0:0:0:0:
18,41,48868,53,2,3:3:0:0:
191,98,49035,1,2,0:3:0:0:
191,98,49118,1,2,0:3:0:0:
191,98,49202,1,8,0:0:0:0:
103,69,49368,1,2,0:3:0:0:
103,69,49535,6,0,P|101:42|97:19,1,45,2|0,3:3|0:0,0:0:0:0:
118,162,49702,2,0,P|94:149|71:142,1,45,2|0,0:3|0:0,0:0:0:0:
206,195,49868,54,0,P|184:208|165:225,1,45,8|0,0:0|0:0,0:0:0:0:
269,379,50202,54,0,P|296:371|331:365,1,53.9999983520508,2|0,3:2|0:0,0:0:0:0:
488,342,50368,1,2,0:0:0:0:
488,342,50452,1,2,0:0:0:0:
488,342,50535,2,0,P|477:330|461:322,1,22.5,10|0,0:0|0:0,0:0:0:0:
458,253,50702,2,0,P|442:256|427:266,1,22.5,2|0,0:0|0:0,0:0:0:0:
334,287,50868,38,0,P|318:278|305:262,1,22.5,2|0,3:2|0:0,0:0:0:0:
372,188,51035,1,2,0:0:0:0:
372,188,51118,1,2,0:0:0:0:
372,188,51202,2,0,P|372:206|364:225,1,22.5,10|0,0:0|0:0,0:0:0:0:
268,205,51368,2,0,P|283:195|304:192,1,22.5,2|0,0:0|0:0,0:0:0:0:
435,135,51535,22,0,P|425:127|416:119,1,22.5,2|0,3:2|0:0,0:0:0:0:
365,53,51702,1,2,0:0:0:0:
365,53,51785,1,2,0:0:0:0:
365,53,51868,2,0,P|411:33|448:38,1,67.5000025749208,10|0,0:0|0:0,0:0:0:0:
262,91,52035,2,0,P|268:41|291:11,1,67.5000025749208,2|0,0:0|0:0,0:0:0:0:
256,192,52202,37,2,3:2:0:0:
256,192,52535,22,0,L|249:160,2,26.9999991760254,10|2|6,0:0|0:0|0:0,0:0:0:0:
246,384,53535,21,2,0:0:0:0:
231,374,53702,1,0,0:0:0:0:
218,337,53868,1,2,0:0:0:0:
246,297,54035,1,0,0:0:0:0:
318,304,54202,5,2,0:0:0:0:
380,246,54535,53,2,0:0:0:0:
339,174,54868,5,2,0:0:0:0:
256,192,55202,53,2,0:0:0:0:
256,192,55535,22,0,P|260:226|277:268,1,67.5000025749208,6|0,3:2|0:0,0:0:0:0:
281,266,55702,2,0,P|249:252|204:246,1,67.5000025749208,0|8,1:3|1:3,0:0:0:0:
105,320,55868,1,4,1:3:0:0:
81,325,55952,1,0,0:0:0:0:
70,340,56035,2,0,B|130:258|-31:255|10:169,1,202.500007724762,6|0,3:2|0:0,0:0:0:0:
88,154,56368,5,0,1:2:0:0:
125,226,56452,1,0,1:2:0:0:
85,282,56535,1,8,0:3:0:0:
66,314,56618,1,8,0:3:0:0:
70,340,56702,2,0,P|98:317|150:304,1,67.5000025749208,4|4,0:3|0:3,0:0:0:0:
343,321,56868,6,0,B|325:319|325:319|281:299|281:299|265:301,1,67.5000025749208,4|0,3:2|0:0,0:0:0:0:
278,322,57035,2,0,B|296:320|296:320|340:300|340:300|356:302,1,67.5000025749208,10|0,0:0|0:0,0:0:0:0:
399,219,57202,2,0,B|409:233|409:233|449:261|449:261|455:276,1,67.5000025749208,2|0,0:0|0:0,0:0:0:0:
460,378,57368,1,6,3:2:0:0:
301,210,57535,38,0,L|305:186,6,16.8750006437302,0|0|0|0|0|0|0,0:0|0:0|0:0|0:0|1:2|0:0|1:2,0:0:0:0:
242,362,57868,5,8,3:3:0:0:
246,372,57952,1,8,0:3:0:0:
250,382,58035,1,4,3:3:0:0:
127,306,58202,21,2,3:2:0:0:
399,219,58452,1,2,0:0:0:0:
409,215,58535,1,2,0:0:0:0:
354,353,58702,1,2,0:0:0:0:
301,210,58868,1,2,0:0:0:0:
220,347,59118,1,2,0:0:0:0:
230,343,59201,1,2,0:0:0:0:
25,270,59368,1,2,3:2:0:0:
217,187,59535,5,2,3:2:0:0:
95,65,59785,1,2,0:0:0:0:
99,75,59868,1,2,0:0:0:0:
192,19,60035,1,2,0:0:0:0:
0,102,60202,1,2,0:0:0:0:
122,224,60451,1,2,0:0:0:0:
118,214,60534,1,2,0:0:0:0:
25,270,60701,1,2,0:0:0:0:
217,187,60868,53,2,3:2:0:0:
290,328,61118,1,2,0:0:0:0:
294,318,61201,1,2,0:0:0:0:
387,374,61368,1,2,0:0:0:0:
195,291,61535,1,2,0:0:0:0:
447,209,61785,1,2,0:0:0:0:
451,219,61868,1,2,3:2:0:0:
288,127,62035,1,2,0:0:0:0:
509,21,62202,6,0,L|512:5,62,16.8750006437302,4|0|0|0|0|0|0|0|0|0|0|0|0|0|0|0|0|0|0|0|0|0|0|0|0|0|0|0|0|0|0|0|0|0|0|0|0|0|0|0|0|0|0|0|0|0|0|0|2|0|0|0|0|0|0|0|2|0|0|0|0|0|0,3:2|0:0|0:0|0:0|0:0|0:0|0:0|0:0|0:0|0:0|0:0|0:0|0:0|0:0|0:0|0:0|0:0|0:0|0:0|0:0|0:0|0:0|0:0|0:0|0:0|0:0|0:0|0:0|0:0|0:0|0:0|0:0|0:0|0:0|0:0|0:0|0:0|0:0|0:0|0:0|0:0|0:0|0:0|0:0|0:0|0:0|0:0|0:0|0:0|0:0|0:0|0:0|0:0|0:0|0:0|0:0|0:0|0:0|0:0|0:0|0:0|0:0|0:0,0:0:0:0:
427,66,64868,38,0,P|356:27|276:16,1,161.999995056153,6|0,3:2|0:0,0:0:0:0:
434,75,65118,1,0,0:0:0:0:
423,78,65202,2,0,P|394:86|359:118,1,53.9999983520508,8|0,0:0|0:0,0:0:0:0:
249,225,65368,1,0,0:0:0:0:
441,86,65535,54,0,B|461:114|444:157|397:172|396:168|394:164|362:148|318:168|326:214,1,202.500007724762,0|0,3:2|0:0,0:0:0:0:
301,285,65868,2,0,P|321:314|363:328,1,67.5000025749208,8|0,0:0|0:0,0:0:0:0:
364,324,66035,2,0,P|328:326|295:356,1,67.5000025749208
447,357,66202,53,0,3:2:0:0:
371,249,66368,1,0,0:0:0:0:
222,224,66535,1,8,0:0:0:0:
83,274,66702,1,0,0:0:0:0:
17,384,66868,22,0,L|8:344,1,33.7500012874604,2|0,3:2|0:0,0:0:0:0:
25,381,67035,54,0,L|6:345,1,33.7500012874604,2|0,0:0|0:0,0:0:0:0:
32,376,67202,54,0,L|5:346,1,33.7500012874604,10|0,0:0|0:0,0:0:0:0:
37,369,67368,22,0,L|3:347,1,33.7500012874604,2|0,0:0|0:0,0:0:0:0:
116,384,67535,54,0,B|119:370|119:354|119:354|145:296|221:295,1,153.000002918243,2|0,3:2|0:0,0:0:0:0:
127,378,67785,1,0,0:0:0:0:
129,365,67868,2,0,P|123:332|99:301,1,67.5000025749208,8|0,0:0|0:0,0:0:0:0:
0,210,68035,1,0,0:0:0:0:
116,384,68202,54,0,B|81:321|127:257|127:257|176:249|197:212,1,202.500007724762,0|0,3:2|0:0,0:0:0:0:
233,149,68535,2,0,P|255:120|301:117,1,67.5000025749208,8|0,0:0|0:0,0:0:0:0:
389,131,68702,2,0,P|420:121|439:94,1,67.5000025749208
436,3,68868,21,2,3:2:0:0:
500,158,69035,1,0,0:0:0:0:
405,6,69202,53,8,0:0:0:0:
298,111,69368,1,0,0:0:0:0:
341,264,69535,2,0,P|322:239|284:225,1,67.5000025749208,2|0,3:2|0:0,0:0:0:0:
130,178,69702,1,2,0:0:0:0:
256,384,69868,53,10,0:0:0:0:
267,367,69951,1,2,0:3:0:0:
256,351,70035,1,2,0:3:0:0:
236,357,70119,1,2,0:3:0:0:
236,377,70202,22,0,P|259:350|302:325,1,67.5000025749208,6|0,3:2|0:0,0:0:0:0:
415,291,70368,1,2,0:3:0:0:
230,282,70535,54,0,P|207:255|164:230,1,67.5000025749208,10|0,0:0|0:0,0:0:0:0:
51,196,70701,1,2,0:3:0:0:
289,225,70868,54,0,P|312:198|355:173,1,67.5000025749208,2|0,3:2|0:0,0:0:0:0:
480,149,71035,1,2,0:3:0:0:
301,230,71202,22,0,P|303:194|291:146,1,67.5000025749208,10|0,0:0|0:0,0:0:0:0:
210,24,71368,1,2,0:3:0:0:
276,90,71535,54,0,L|290:19,1,67.5000025749208,2|0,3:2|0:0,0:0:0:0:
141,249,71702,1,2,0:3:0:0:
224,244,71868,54,0,L|209:173,1,45,10|0,0:0|0:0,0:0:0:0:
338,359,72035,1,2,0:3:0:0:
258,381,72202,22,0,L|266:341,1,22.5,2|0,3:2|0:0,0:0:0:0:
316,263,72368,2,0,L|325:302,1,22.5,2|0,0:0|0:0,0:0:0:0:
224,244,72535,2,0,B|180:217|136:251|136:251|131:281|114:295,1,135,8|0,0:0|0:0,0:0:0:0:
14,242,72868,54,0,P|38:240|59:254,1,45,2|0,3:2|0:0,0:0:0:0:
199,314,73035,1,0,0:0:0:0:
199,314,73118,1,0,0:0:0:0:
199,314,73202,2,0,P|182:339|159:355,1,53.9999983520508,8|0,0:0|0:0,0:0:0:0:
41,378,73368,2,0,L|54:315,1,53.9999983520508
98,184,73535,2,0,B|73:132|203:125|166:49,2,153.000002918243,0|0|8,3:2|0:0|0:0,0:0:0:0:
28,39,74035,1,0,0:0:0:0:
491,66,74202,54,0,P|507:50|511:28,1,45,2|0,3:3|0:0,0:0:0:0:
453,46,74369,2,0,P|469:62|491:66,1,45,2|0,0:3|0:0,0:0:0:0:
474,8,74536,2,0,P|458:24|454:46,1,45,8|0,0:0|0:0,0:0:0:0:
512,28,74702,2,0,P|496:12|474:8,1,45,2|0,0:3|0:0,0:0:0:0:
495,81,74868,21,2,3:2:0:0:
341,64,75035,1,10,0:0:0:0:
267,203,75202,1,8,0:0:0:0:
442,353,75368,53,0,1:2:0:0:
462,352,75452,1,0,1:2:0:0:
475,341,75535,2,0,B|445:253|341:253|341:253|319:283|277:288,1,229.500004377365,6|0,3:2|0:0,0:0:0:0:
209,271,75868,2,0,P|213:316|238:346,1,76.5000014591217,8|0,0:0|0:0,0:0:0:0:
307,135,76035,1,0,0:0:0:0:
234,356,76202,2,0,P|277:273|267:207,1,153.000002918243,0|0,3:2|0:0,0:0:0:0:
221,147,76452,1,0,0:0:0:0:
221,147,76535,2,0,P|221:107|246:73,1,76.5000014591217,8|0,0:0|0:0,0:0:0:0:
369,0,76702,1,0,0:0:0:0:
463,122,76868,53,0,3:2:0:0:
377,86,77035,1,0,0:0:0:0:
34,60,77202,21,8,0:0:0:0:
155,97,77368,1,0,0:0:0:0:
256,2,77535,1,2,3:2:0:0:
256,2,77868,54,0,L|272:80,1,76.5000014591217,10|0,0:0|0:0,0:0:0:0:
301,205,78035,1,2,0:0:0:0:
295,13,78202,54,0,B|303:49|303:49|250:117|250:117|258:152,1,153.000002918243,2|0,3:2|0:0,0:0:0:0:
380,190,78535,2,0,P|365:155|334:133,1,76.5000014591217,8|0,0:0|0:0,0:0:0:0:
155,97,78702,1,0,0:0:0:0:
500,137,78868,22,0,B|433:100|393:166|400:166|355:234|291:200,1,229.500004377365,0|0,3:2|0:0,0:0:0:0:
187,203,79202,54,0,L|180:171,1,22.5,8|0,0:0|0:0,0:0:0:0:
213,309,79368,2,0,L|206:277,1,22.5
338,380,79535,53,2,3:2:0:0:
404,371,79618,1,2,0:0:0:0:
431,327,79702,1,2,0:0:0:0:
429,279,79785,1,2,0:0:0:0:
400,248,79868,1,10,0:0:0:0:
362,241,79952,1,2,0:0:0:0:
334,249,80035,1,2,0:0:0:0:
322,264,80118,1,2,0:0:0:0:
329,286,80202,21,2,3:3:0:0:
329,286,80285,1,2,0:3:0:0:
329,286,80368,2,0,P|355:283|385:263,1,53.9999983520508,2|2,0:3|0:3,0:0:0:0:
208,286,80535,1,10,0:0:0:0:
208,286,80618,1,2,0:3:0:0:
208,286,80702,2,0,P|225:287|249:297,1,33.7500012874604,2|2,0:3|0:3,0:0:0:0:
77,368,80868,54,0,P|79:333|100:292,1,67.5000025749208,6|0,3:2|0:0,0:0:0:0:
196,173,81035,1,2,0:3:0:0:
240,292,81202,54,0,P|208:307|162:310,1,67.5000025749208,10|0,0:0|0:0,0:0:0:0:
12,286,81369,1,2,0:3:0:0:
93,189,81535,22,0,P|122:208|147:246,1,67.5000025749208,2|0,3:2|0:0,0:0:0:0:
203,384,81702,1,2,0:3:0:0:
77,190,81868,54,0,P|108:174|154:171,1,67.5000025749208,10|0,0:0|0:0,0:0:0:0:
300,192,82035,1,2,0:3:0:0:
412,275,82202,54,0,P|443:290|489:293,1,67.5000025749208,2|0,3:2|0:0,0:0:0:0:
241,248,82368,1,2,0:3:0:0:
300,192,82535,22,0,P|331:176|377:173,1,45,10|0,0:0|0:0,0:0:0:0:
26,147,82702,1,2,0:3:0:0:
87,202,82868,54,0,P|103:179|105:133,1,67.5,2|0,3:2|0:0,0:0:0:0:
79,300,83202,54,0,B|76:322|42:368|15:391|-39:373|-39:318|15:307|41:318|52:349|54:353,1,202.500007724762,8|0,0:0|0:0,0:0:0:0:
127,384,83535,22,0,P|147:369|185:364,1,45,2|0,3:2|0:0,0:0:0:0:
333,302,83702,1,0,0:0:0:0:
352,309,83785,1,0,0:0:0:0:
364,329,83868,1,8,0:0:0:0:
282,384,84035,53,0,0:0:0:0:
203,249,84202,1,0,3:2:0:0:
402,99,84368,53,0,0:0:0:0:
333,302,84535,1,8,0:0:0:0:
183,120,84702,21,0,0:0:0:0:
489,243,84868,1,2,3:3:0:0:
489,156,85035,53,2,0:3:0:0:
489,156,85118,1,0,0:0:0:0:
489,156,85202,2,0,P|454:161|424:187,1,67.5000025749208,8|0,0:0|0:0,0:0:0:0:
263,273,85368,2,0,P|228:268|198:242,1,67.5000025749208,8|0,0:0|0:0,0:0:0:0:
84,172,85535,53,0,3:2:0:0:
26,165,85618,1,0,1:2:0:0:
0,219,85702,1,0,1:2:0:0:
256,192,85868,21,8,0:0:0:0:
293,155,85952,1,0,1:2:0:0:
300,97,86035,1,0,1:2:0:0:
285,44,86118,1,0,1:2:0:0:
256,8,86202,54,0,L|314:281,1,270,6|0,3:2|0:0,0:0:0:0:
338,45,86868,2,0,B|351:105|351:105|228:227|228:227|240:275,1,270,4|0,3:2|0:0,0:0:0:0:
188,138,87535,54,0,L|110:121,1,67.5000025749208,10|0,0:0|0:0,0:0:0:0:
392,187,87702,1,8,0:0:0:0:
392,187,87785,1,0,1:2:0:0:
392,187,87868,2,0,L|470:204,1,67.5000025749208,8|0,0:0|0:0,0:0:0:0:
256,8,88035,2,0,L|272:86,1,67.5000025749208,8|0,0:0|0:0,0:0:0:0:
337,347,88202,21,8,0:0:0:0:
337,347,88535,54,0,P|357:319|404:307,1,67.5000025749208,10|0,0:0|0:0,0:0:0:0:
386,306,88702,2,0,P|366:334|319:346,1,67.5000025749208,2|0,0:0|0:0,0:0:0:0:
80,244,88868,54,0,L|96:165,1,53.9999983520508,12|0,0:0|0:0,0:0:0:0:
263,302,89035,1,0,3:2:0:0:
192,359,89202,2,0,L|175:280,1,53.9999983520508,10|0,0:0|0:0,0:0:0:0:
18,180,89368,1,0,3:2:0:0:
90,275,89535,6,0,L|116:149,1,107.999996704102,10|0,0:0|3:2,0:0:0:0:
2,272,89868,1,10,0:0:0:0:
189,212,90035,1,2,3:2:0:0:
66,44,90202,54,0,P|48:26|12:14,1,53.9999983520508,10|0,3:2|0:0,0:0:0:0:
207,71,90368,1,2,3:2:0:0:
215,64,90452,1,2,0:0:0:0:
215,52,90535,1,10,0:0:0:0:
130,90,90702,1,2,3:2:0:0:
275,179,90868,2,0,P|305:167|330:140,1,53.9999983520508,10|0,0:0|0:0,0:0:0:0:
376,27,91035,1,0,3:2:0:0:
512,139,91202,6,0,L|488:134,1,22.5,10|0,0:0|0:0,0:0:0:0:
413,114,91368,2,0,L|389:109,1,22.5,2|0,3:2|0:0,0:0:0:0:
261,187,91535,54,0,P|317:180|365:212,1,116.999994644165,10|0,0:0|3:2,0:0:0:0:
439,337,91868,6,0,P|448:320|473:306,1,33.7500012874604,10|0,0:0|0:0,0:0:0:0:
468,317,92035,2,0,P|459:334|434:348,1,33.7500012874604,2|0,3:2|0:0,0:0:0:0:
258,375,92202,54,0,P|241:355|218:341,1,53.9999983520508,10|0,0:0|0:0,0:0:0:0:
70,293,92368,1,0,3:2:0:0:
223,302,92535,2,0,P|205:322|182:336,1,53.9999983520508,10|0,0:0|0:0,0:0:0:0:
34,384,92701,1,0,3:2:0:0:
231,221,92868,6,0,P|257:226|280:239,1,53.9999983520508,10|0,0:0|0:0,0:0:0:0:
411,342,93035,1,2,3:2:0:0:
447,342,93118,1,2,0:0:0:0:
468,317,93202,1,10,0:0:0:0:
307,317,93368,1,2,3:2:0:0:
367,159,93535,2,0,P|385:139|418:131,1,53.9999983520508,10|0,0:0|0:0,0:0:0:0:
422,53,93702,2,0,P|448:58|471:83,1,53.9999983520508,0|0,3:2|0:0,0:0:0:0:
429,206,93868,53,10,0:0:0:0:
184,106,94035,1,2,3:2:0:0:
294,34,94202,6,0,L|282:88,1,53.9999983520508,14|0,0:0|0:0,0:0:0:0:
167,223,94368,1,0,3:2:0:0:
257,232,94535,2,0,L|245:177,1,53.9999983520508,10|0,0:0|0:0,0:0:0:0:
395,353,94702,1,0,3:2:0:0:
327,279,94868,2,0,L|300:404,1,107.999996704102,10|0,0:0|3:2,0:0:0:0:
166,328,95202,54,0,P|174:313|188:304,1,33.7500012874604,10|0,0:0|0:0,0:0:0:0:
196,311,95368,2,0,P|187:325|173:334,1,33.7500012874604,2|0,3:2|0:0,0:0:0:0:
46,364,95535,5,10,0:0:0:0:
9,275,95702,1,2,3:2:0:0:
194,176,95868,1,10,0:0:0:0:
65,175,96035,1,2,3:2:0:0:
280,251,96202,54,0,P|296:237|303:229,1,26.9999991760254,10|0,0:0|3:2,0:0:0:0:
266,255,96535,6,0,P|306:263|335:289,1,67.5000025749208,10|0,0:0|0:0,0:0:0:0:
412,384,96702,1,2,3:2:0:0:
494,240,96868,54,0,B|460:247|460:247|437:293|437:293|411:300,1,112.5,4|0,3:2|0:0,0:0:0:0:
18,240,97368,6,0,B|51:247|51:247|74:293|74:293|100:300,1,112.5,2|0,3:2|0:0,0:0:0:0:
100,299,97535,2,0,B|82:270|82:270|32:262|32:262|17:239,1,112.5,2|0,3:2|0:0,0:0:0:0:
439,73,97868,54,0,L|485:63,1,40.4999987640381,8|0,0:0|0:0,0:0:0:0:
478,64,98202,37,14,3:2:0:0:
334,49,98368,1,2,0:0:0:0:
334,49,98452,1,2,0:0:0:0:
334,49,98535,1,6,3:2:0:0:
234,156,98702,1,2,0:0:0:0:
77,0,98868,1,6,3:2:0:0:
77,0,99535,5,2,0:0:0:0:
116,108,99702,1,2,0:0:0:0:
80,89,99785,1,2,0:0:0:0:
126,58,99868,1,2,0:0:0:0:
179,167,100035,1,2,0:0:0:0:
79,285,100202,1,2,0:0:0:0:
121,308,100368,1,2,0:0:0:0:
108,338,100535,1,2,0:0:0:0:
127,344,100702,1,2,0:0:0:0:
285,349,100868,54,0,P|261:362|247:384,2,53.9999983520508,2|2|2,0:0|0:0|0:0,0:0:0:0:
285,349,102202,5,2,0:0:0:0:
367,306,102535,54,0,P|352:283|329:270,2,53.9999983520508,2|2|2,0:0|0:0|0:0,0:0:0:0:
195,295,103535,6,0,P|223:284|254:269,2,53.9999983520508,2|2|2,0:0|0:0|0:0,0:0:0:0:
195,295,105035,53,2,0:0:0:0:
51,253,105202,1,2,0:0:0:0:
51,253,105535,5,2,0:0:0:0:
51,253,105868,6,0,B|122:240|137:147|91:104|91:104|103:144|95:174,1,242.999992584229,8|0,3:2|0:0,0:0:0:0:
130,242,106202,22,0,B|117:256|131:298|182:298|182:296|183:293|237:288|241:317|231:333,1,161.999995056153,4|0,3:2|0:0,0:0:0:0:
169,381,106452,1,0,1:0:0:0:
169,381,106535,1,8,3:2:0:0:
232,212,106702,1,0,1:0:0:0:
232,212,106868,54,0,B|243:222|237:258|196:264|195:263|194:260|150:263|150:288|160:300,1,135.000005149842,0|0,3:2|0:0,0:0:0:0:
236,336,107118,1,0,1:0:0:0:
236,336,107201,1,8,3:2:0:0:
154,146,107368,1,0,1:0:0:0:
154,146,107535,53,2,3:2:0:0:
335,223,107702,1,0,0:0:0:0:
344,223,107785,2,0,P|370:216|392:200,2,45,0|8|0,1:0|3:2|0:0,0:0:0:0:
291,126,108035,2,0,P|317:137|336:163,1,45,0|0,1:0|0:0,0:0:0:0:
324,252,108202,22,0,P|336:185|371:128,1,135.000005149842,0|0,3:2|0:0,0:0:0:0:
429,77,108452,1,0,1:0:0:0:
429,77,108535,1,8,3:2:0:0:
256,3,108702,1,0,1:0:0:0:
256,3,108868,54,0,B|252:14|257:34|257:34|219:78|165:42,1,135.000005149842,0|0,3:2|0:0,0:0:0:0:
131,27,109118,1,0,1:0:0:0:
200,68,109202,2,0,P|150:112|126:175,1,135.000005149842,8|0,3:2|1:0,0:0:0:0:
161,197,109452,1,0,0:0:0:0:
99,154,109535,2,0,P|56:128|8:118,1,99.0000030212403,0|0,3:2|0:0,0:0:0:0:
103,201,109785,1,0,1:0:0:0:
103,201,109868,2,0,P|135:174|184:150,1,67.5000025749208,8|0,3:2|0:0,0:0:0:0:
329,156,110035,1,0,1:0:0:0:
439,226,110202,53,0,3:2:0:0:
496,114,110368,1,0,0:0:0:0:
496,114,110452,1,0,1:0:0:0:
496,114,110535,1,8,3:2:0:0:
439,226,110702,1,0,1:0:0:0:
375,45,110868,1,0,3:2:0:0:
338,354,111118,21,0,1:0:0:0:
372,368,111202,2,0,L|363:328,1,33.7500012874604,8|0,3:2|0:0,0:0:0:0:
277,176,111368,1,10,0:0:0:0:
260,178,111452,1,2,0:0:0:0:
256,192,111535,5,4,0:0:0:0:
256,192,112202,5,2,0:0:0:0:
256,192,112868,53,2,0:0:0:0:
256,192,113535,5,2,0:0:0:0:
256,192,113868,53,2,0:0:0:0:
270,215,114202,54,0,P|253:184|214:165,1,67.5000025749208,6|0,3:2|0:0,0:0:0:0:
14,157,114368,1,0,1:3:0:0:
22,110,114452,1,8,1:3:0:0:
69,99,114535,54,0,B|28:88|28:88|37:79|37:79|55:85,1,67.5000025749208,4|0,1:3|0:0,0:0:0:0:
205,85,114702,2,0,B|326:36|326:36|312:29|312:29|248:52,1,202.500007724762,6|0,3:2|0:0,0:0:0:0:
156,84,115035,53,0,1:2:0:0:
218,35,115118,1,0,1:2:0:0:
284,56,115202,1,8,0:3:0:0:
321,89,115285,1,8,0:3:0:0:
362,89,115368,2,0,B|346:91|331:96|331:96|316:112|320:137,1,67.5000025749208,4|4,0:3|0:3,0:0:0:0:
451,307,115535,22,0,B|487:293|487:293|489:289|489:289|536:275,1,67.5000025749208,4|0,3:2|0:0,0:0:0:0:
365,381,115702,1,10,0:0:0:0:
365,381,115785,1,2,0:0:0:0:
365,381,115868,2,0,P|340:364|326:339,1,53.9999983520508,2|0,0:0|0:0,0:0:0:0:
204,252,116035,2,0,P|179:269|165:294,1,53.9999983520508,6|0,3:2|0:0,0:0:0:0:
7,353,116202,54,0,L|0:321,6,16.8750006437302,0|0|0|0|0|0|0,0:0|0:0|0:0|0:0|1:2|0:0|1:2,0:0:0:0:
91,260,116535,53,8,3:3:0:0:
92,251,116618,1,8,0:3:0:0:
94,243,116701,1,4,3:3:0:0:
204,252,116868,5,2,3:2:0:0:
43,165,117118,1,2,0:0:0:0:
48,179,117201,1,2,0:0:0:0:
113,55,117368,1,2,0:0:0:0:
156,188,117535,1,2,0:0:0:0:
256,91,117785,1,2,0:0:0:0:
241,86,117868,1,2,0:0:0:0:
419,37,118035,1,2,3:2:0:0:
368,201,118202,5,2,3:2:0:0:
492,120,118452,1,2,0:0:0:0:
476,126,118535,1,2,0:0:0:0:
337,121,118702,1,2,0:0:0:0:
405,324,118868,1,2,0:0:0:0:
280,197,119118,1,2,0:0:0:0:
286,184,119202,1,2,0:0:0:0:
435,243,119368,1,2,0:0:0:0:
255,347,119535,5,2,3:2:0:0:
368,201,119785,1,2,0:0:0:0:
362,214,119869,1,2,0:0:0:0:
405,324,120035,1,2,0:0:0:0:
203,271,120202,1,2,0:0:0:0:
329,368,120452,1,2,0:0:0:0:
325,351,120535,1,2,0:0:0:0:
143,346,120702,1,2,0:0:0:0:
256,192,120868,5,6,3:2:0:0:
0,192,122202,21,0,1:2:0:0:
48,202,122285,1,0,1:2:0:0:
98,212,122368,1,0,3:2:0:0:
147,223,122451,1,0,3:2:0:0:
197,233,122535,2,0,L|145:210,1,45,8|0,0:0|0:0,0:0:0:0:
322,240,122702,2,0,L|270:217,1,45,8|0,0:0|0:0,0:0:0:0:
429,208,122868,5,0,3:2:0:0:
451,203,122951,1,0,3:2:0:0:
473,198,123035,2,0,P|455:221|444:254,1,45,8|0,0:0|0:0,0:0:0:0:
256,356,123202,6,0,P|243:338|227:329,1,40.4999987640381,8|0,0:0|0:0,0:0:0:0:
263,381,123535,54,0,P|287:304|348:253,1,161.999995056153,6|0,3:2|0:0,0:0:0:0:
232,252,123785,1,0,0:0:0:0:
232,252,123868,2,0,P|213:231|182:217,1,53.9999983520508,8|0,0:0|0:0,0:0:0:0:
20,158,124035,1,0,0:0:0:0:
142,133,124202,6,0,B|138:220|53:233|53:233|88:219|94:183,1,202.500007724762,0|0,3:2|0:0,0:0:0:0:
138,284,124535,2,0,P|161:296|179:316,1,53.9999983520508,8|0,0:0|0:0,0:0:0:0:
217,139,124702,2,0,P|217:165|209:191,1,53.9999983520508
49,50,124868,37,0,3:2:0:0:
163,0,125035,1,0,0:0:0:0:
445,145,125202,5,8,0:0:0:0:
256,65,125369,1,0,0:0:0:0:
445,145,125535,6,0,L|436:105,1,33.7500012874604,2|0,3:2|0:0,0:0:0:0:
446,154,125702,38,0,L|448:114,1,33.7500012874604,2|0,0:0|0:0,0:0:0:0:
444,162,125868,6,0,L|456:123,1,33.7500012874604,10|0,0:0|0:0,0:0:0:0:
439,169,126035,6,0,L|460:135,1,33.7500012874604,2|0,0:0|0:0,0:0:0:0:
265,261,126202,38,0,B|287:196|367:216|367:216|382:240|412:247,1,161.999995056153,2|0,3:2|0:0,0:0:0:0:
470,222,126452,1,0,0:0:0:0:
470,222,126535,2,0,P|461:202|438:177,1,53.9999983520508,8|0,0:0|0:0,0:0:0:0:
189,119,126702,1,0,0:0:0:0:
337,297,126868,6,0,B|319:204|247:177|247:177|223:200|188:196,1,202.500007724762,0|0,3:2|0:0,0:0:0:0:
131,177,127202,2,0,P|99:184|68:198,1,67.5000025749208,8|0,0:0|0:0,0:0:0:0:
274,79,127368,2,0,P|250:54|223:34,1,67.5000025749208
440,179,127535,6,0,B|451:152|486:148|486:148|477:159|473:173,1,80.9999975280763,2|0,3:2|0:0,0:0:0:0:
358,76,127702,2,0,B|346:49|368:21|368:21|370:35|377:48,1,80.9999975280763
343,175,127868,2,0,P|318:185|297:202,1,53.9999983520508,8|0,0:0|0:0,0:0:0:0:
258,320,128035,2,0,P|278:303|311:292,1,53.9999983520508
424,382,128202,37,2,3:2:0:0:
274,354,128368,1,2,0:0:0:0:
119,326,128535,1,10,0:0:0:0:
123,313,128618,1,0,0:0:0:0:
126,302,128702,1,2,0:0:0:0:
128,293,128785,1,0,0:0:0:0:
130,285,128868,6,0,B|115:268|77:270|77:270|106:207|164:176|247:206,1,256.499993150711,6|0,3:2|0:0,0:0:0:0:
342,165,129202,22,0,P|356:184|362:204,1,40.4999987640381,10|0,0:0|0:0,0:0:0:0:
320,288,129535,54,0,B|284:214|372:208|457:178|409:113,1,229.500004377365,2|0,3:2|0:0,0:0:0:0:
320,127,129868,54,0,B|280:182|355:209|433:214|402:280,1,202.500007724762,10|0,0:0|0:0,0:0:0:0:
368,362,130202,54,0,P|308:331|241:322,1,135.000005149842,2|2,3:2|0:3,0:0:0:0:
61,361,130535,2,0,B|82:359|82:359|100:337|104:300,1,67.5000025749208,10|0,0:0|0:0,0:0:0:0:
26,167,130702,1,2,0:3:0:0:
253,267,130868,2,0,P|243:282|217:306,1,33.7500012874604,2|0,3:2|0:0,0:0:0:0:
171,242,131035,2,0,P|181:226|207:203,1,33.7500012874604,2|0,0:0|0:0,0:0:0:0:
410,114,131202,1,8,0:0:0:0:
410,114,131535,22,0,B|439:117|458:89|446:51|446:51|442:84|420:96,1,135.000005149842,2|0,3:2|0:0,0:0:0:0:
320,127,131785,1,0,0:0:0:0:
320,127,131868,2,0,P|327:153|342:174,1,45,8|0,0:0|0:0,0:0:0:0:
363,41,132035,2,0,P|336:34|311:36,1,45
81,88,132202,53,0,3:2:0:0:
160,10,132368,1,0,0:0:0:0:
189,104,132535,1,8,0:0:0:0:
5,32,132702,1,0,0:0:0:0:
35,228,132868,53,2,3:3:0:0:
252,156,133035,1,2,0:3:0:0:
295,225,133202,1,8,0:0:0:0:
214,227,133368,1,2,0:3:0:0:
472,143,133535,1,2,3:2:0:0:
497,252,133702,2,0,P|469:238|450:216,1,45,10|0,0:0|0:0,0:0:0:0:
318,66,133868,21,8,0:0:0:0:
362,56,133951,1,0,1:2:0:0:
406,47,134034,1,0,1:2:0:0:
450,37,134118,1,0,1:2:0:0:
494,28,134202,6,0,B|452:69|452:69|327:7|327:7|307:33|266:36,1,242.999992584229,6|0,3:2|0:0,0:0:0:0:
216,19,134535,1,8,0:0:0:0:
472,143,134702,2,0,P|494:138|513:109,1,45
243,92,134868,6,0,L|281:271,1,161.999995056153,0|0,3:2|0:0,0:0:0:0:
317,315,135118,1,0,0:0:0:0:
317,315,135202,2,0,P|338:300|350:272,1,45,8|0,0:0|0:0,0:0:0:0:
232,384,135368,2,0,P|211:369|199:341,1,45
7,271,135535,37,0,3:2:0:0:
201,208,135702,1,0,0:0:0:0:
7,145,135868,1,8,0:0:0:0:
127,310,136035,1,0,0:0:0:0:
127,106,136202,54,0,P|121:85|118:66,1,33.7500012874604,2|0,3:2|0:0,0:0:0:0:
168,193,136368,54,0,P|182:183|202:173,1,33.7500012874604,2|0,0:0|0:0,0:0:0:0:
97,258,136535,22,0,P|112:271|126:284,1,33.7500012874604,10|0,0:0|0:0,0:0:0:0:
20,208,136702,54,0,P|12:227|3:244,1,33.7500012874604,2|0,0:0|0:0,0:0:0:0:
220,87,136868,54,0,B|253:37|325:61|325:61|331:90|359:107,1,161.999995056153,2|0,3:2|0:0,0:0:0:0:
399,43,137118,1,0,0:0:0:0:
399,43,137202,2,0,P|404:26|420:8,1,33.7500012874604,8|0,0:0|0:0,0:0:0:0:
489,150,137368,1,0,0:0:0:0:
360,249,137535,2,0,P|330:188|279:144,1,135.000005149842,0|0,3:2|0:0,0:0:0:0:
360,276,137785,1,0,0:0:0:0:
360,276,137868,2,0,P|372:253|409:232,1,53.9999983520508,8|0,0:0|0:0,0:0:0:0:
437,140,138035,2,0,P|462:138|499:160,1,53.9999983520508
492,319,138202,21,2,3:2:0:0:
254,239,138368,1,2,0:0:0:0:
61,384,138535,1,10,0:0:0:0:
272,336,138702,1,2,0:0:0:0:
21,239,138868,1,2,3:3:0:0:
21,239,139202,54,0,B|105:193|90:98|-5:94|-16:151|6:169,1,216,10|2,0:0|0:3,0:0:0:0:
144,192,139535,54,0,P|174:170|225:158,1,72,6|0,3:2|0:0,0:0:0:0:
390,137,139702,1,2,0:3:0:0:
262,48,139868,2,0,P|296:62|331:101,1,72,10|0,0:0|0:0,0:0:0:0:
473,198,140035,1,2,0:3:0:0:
272,336,140202,21,2,3:2:0:0:
389,57,140368,1,2,0:3:0:0:
382,243,140535,1,10,0:0:0:0:
262,48,140702,1,2,0:3:0:0:
297,255,140868,54,0,P|272:231|231:225,1,72,2|0,3:2|0:0,0:0:0:0:
68,339,141035,1,2,0:3:0:0:
232,174,141202,2,0,P|215:205|187:226,1,72,10|0,0:0|0:0,0:0:0:0:
0,217,141368,1,2,0:3:0:0:
125,140,141535,54,0,P|117:176|108:218,1,67.5,2|0,3:2|0:0,0:0:0:0:
18,55,141868,22,0,L|6:1,1,45,8|0,0:0|0:0,0:0:0:0:
24,0,142035,2,0,L|33:44,1,45
107,223,142202,54,0,B|82:173|22:192|22:192|13:212|-9:221,1,135.000005149842,2|0,3:2|0:0,0:0:0:0:
135,247,142452,1,0,0:0:0:0:
135,247,142535,2,0,P|159:232|179:201,1,53.9999983520508,8|0,0:0|0:0,0:0:0:0:
187,80,142702,1,0,0:0:0:0:
32,303,142868,2,0,P|79:327|113:369,1,107.999996704102,0|0,3:2|0:0,0:0:0:0:
316,384,143202,2,0,P|338:362|367:349,1,53.9999983520508,8|0,0:0|0:0,0:0:0:0:
505,308,143368,1,0,0:0:0:0:
256,192,143535,53,2,3:3:0:0:
437,349,143702,1,2,0:3:0:0:
437,349,143785,1,0,0:0:0:0:
437,349,143868,2,0,L|420:270,1,67.5000025749208,8|0,0:0|0:0,0:0:0:0:
388,97,144035,2,0,L|371:18,1,67.5000025749208,8|0,0:0|0:0,0:0:0:0:
373,204,144202,21,0,3:2:0:0:
406,192,144285,1,0,1:2:0:0:
439,180,144368,1,0,1:2:0:0:
439,171,144535,53,8,0:0:0:0:
410,159,144618,1,0,1:2:0:0:
373,195,144702,1,0,1:2:0:0:
311,156,144785,1,0,1:2:0:0:
260,232,144868,54,0,B|177:235|158:143|160:79|271:63|289:133|252:169,1,270,6|0,3:2|0:0,0:0:0:0:
142,330,145535,2,0,B|103:402|14:373|-40:340|2:236|71:255|83:304,1,270,4|0,3:2|0:0,0:0:0:0:
330,194,146202,22,0,P|357:202|384:226,1,45,10|0,0:0|0:0,0:0:0:0:
476,333,146368,1,8,0:0:0:0:
485,328,146452,1,0,1:2:0:0:
494,323,146535,53,8,0:0:0:0:
260,232,146702,1,8,0:0:0:0:
26,141,146868,1,8,0:0:0:0:
26,140,147202,54,0,P|39:125|43:106,1,40.4999987640381,8|0,0:0|0:0,0:0:0:0:
32,11,147535,38,0,B|67:101|165:90|165:90|190:53|230:42,1,229.500004377365,6|0,3:2|0:0,0:0:0:0:
262,0,147868,2,0,P|278:16|282:36,1,33.7500012874604,8|0,0:0|0:0,0:0:0:0:
362,152,148035,2,0,P|390:105|435:76,1,107.999996704102,0|0,0:0|3:2,0:0:0:0:
263,105,148368,1,0,3:2:0:0:
337,285,148535,2,0,P|309:238|264:209,1,107.999996704102,8|0,0:0|0:0,0:0:0:0:
43,106,148868,6,0,L|91:332,2,215.999993408203,0|8|0,3:2|0:0|3:2,0:0:0:0:
143,167,149702,1,0,3:2:0:0:
11,327,149868,2,0,L|0:272,1,53.9999983520508,8|0,0:0|0:0,0:0:0:0:
165,246,150035,1,0,0:0:0:0:
87,317,150202,6,0,L|42:105,1,216,4|0,3:2|0:0,0:0:0:0:
48,30,150535,2,0,P|70:32|90:42,1,33.7500012874604,8|0,0:0|0:0,0:0:0:0:
214,89,150702,2,0,P|170:120|142:166,1,107.999996704102,0|0,0:0|3:2,0:0:0:0:
454,115,151035,1,0,3:2:0:0:
386,23,151202,2,0,P|336:1|283:0,1,107.999996704102,8|0,0:0|0:0,0:0:0:0:
409,326,151535,38,0,L|457:100,2,215.999993408203,0|8|0,3:2|0:0|3:2,0:0:0:0:
512,264,152368,1,0,3:2:0:0:
297,75,152535,2,0,B|265:79|265:111|265:111|279:87|299:80,1,101.250003862381,8|0,0:0|0:0,0:0:0:0:
334,145,152868,6,0,P|238:82|127:54,1,229.500004377365,6|0,3:2|0:0,0:0:0:0:
50,44,153202,1,8,0:0:0:0:
50,44,153535,5,0,3:2:0:0:
149,193,153702,1,0,3:2:0:0:
0,293,153868,2,0,B|0:224|75:220|75:220|84:254|118:262,1,175.499991966248,8|0,0:0|0:0,0:0:0:0:
246,346,154202,38,0,B|175:325|192:262|192:262|194:300|222:312,1,175.499991966248,0|0,3:2|0:0,0:0:0:0:
121,338,154535,2,0,P|107:355|80:365,1,33.7500012874604,8|0,0:0|0:0,0:0:0:0:
268,252,154702,2,0,L|401:223,1,125.999996154785,2|0,0:0|3:2,0:0:0:0:
246,346,155035,1,0,3:2:0:0:
89,143,155202,2,0,P|71:129|50:120,1,45,10|0,0:0|0:0,0:0:0:0:
246,346,155535,5,6,3:2:0:0:
221,311,155702,1,0,0:0:0:0:
342,230,155868,1,8,0:0:0:0:
317,265,156035,1,0,0:0:0:0:
178,230,156202,5,2,3:2:0:0:
125,138,156368,1,0,3:2:0:0:
397,38,156535,1,8,0:0:0:0:
344,130,156701,1,0,0:0:0:0:
7,110,156868,37,2,3:2:0:0:
141,30,157035,1,2,1:2:0:0:
248,140,157202,1,10,0:0:0:0:
365,229,157368,2,0,P|355:252|333:278,1,33.7500012874604,2|0,1:2|1:2,0:0:0:0:
468,211,157535,1,0,3:2:0:0:
505,164,157618,1,0,1:2:0:0:
492,113,157702,1,0,1:2:0:0:
456,92,157785,1,0,1:2:0:0:
419,93,157868,2,0,P|424:113|442:132,1,33.7500012874604,8|0,0:0|0:0,0:0:0:0:
474,298,158035,6,0,P|361:238|234:222,1,256.499993150711,6|0,3:2|0:0,0:0:0:0:
167,299,158368,2,0,P|141:296|107:271,1,45,0|0,3:2|0:0,0:0:0:0:
2,205,158535,2,0,B|15:164|15:164|17:162|17:162|36:94,2,90,10|0|0,0:0|0:0|0:0,0:0:0:0:
75,384,158868,1,0,3:2:0:0:
35,299,159035,1,0,3:2:0:0:
241,333,159202,2,0,P|227:357|209:374,1,45,8|0,0:0|0:0,0:0:0:0:
135,178,159368,6,0,B|112:123|162:85|232:100|232:103|233:106|278:117|320:76|291:28,1,256.499993150711,6|0,3:2|0:0,0:0:0:0:
298,27,159702,2,0,P|300:63|335:97,1,67.5000025749208,0|0,3:2|0:0,0:0:0:0:
512,192,159868,1,8,0:0:0:0:
512,192,160202,37,0,3:2:0:0:
384,123,160368,1,0,3:2:0:0:
371,273,160535,2,0,B|400:261|401:227|401:227|387:253|375:259,1,85.4999977169037,8|0,0:0|0:0,0:0:0:0:
215,369,160702,6,0,B|139:377|104:314|142:263|138:238|138:238|147:279|187:298,1,256.499993150711,6|0,3:2|0:0,0:0:0:0:
99,356,161035,2,0,P|84:369|61:379,1,33.7500012874604,0|0,3:2|0:0,0:0:0:0:
224,219,161202,2,0,B|184:164|217:109|274:116|291:102|291:102|263:127|266:167,1,229.500004377365,8|0,0:0|0:0,0:0:0:0:
166,150,161535,2,0,P|147:143|127:128,1,33.7500012874604,0|0,3:2|0:0,0:0:0:0:
65,66,161702,1,0,3:2:0:0:
265,296,161868,2,0,P|268:315|265:340,1,33.7500012874604,8|0,0:0|0:0,0:0:0:0:
343,162,162035,6,0,B|374:92|456:94|471:151|494:160|494:160|454:148|418:173,1,256.499993150711,6|0,3:2|0:0,0:0:0:0:
265,156,162368,2,0,P|256:131|256:106,1,33.7500012874604,0|0,3:2|0:0,0:0:0:0:
176,292,162535,2,0,B|148:354|84:353|61:300|41:292|41:292|76:304|109:281,1,229.500004377365,8|0,0:0|0:0,0:0:0:0:
224,219,162868,38,0,L|263:227,1,22.5,0|0,3:2|0:0,0:0:0:0:
320,243,163035,2,0,L|359:251,1,22.5,0|0,3:2|0:0,0:0:0:0:
449,267,163202,5,8,0:0:0:0:
438,217,163285,1,8,0:0:0:0:
427,167,163368,1,8,0:0:0:0:
417,118,163452,1,8,0:0:0:0:
406,68,163535,6,0,P|415:54|435:39,2,22.5,6|2|2,3:2|0:0|0:0,0:0:0:0:
379,197,163868,2,0,P|394:200|420:198,2,22.5,10|2|2,0:0|0:0|0:0,0:0:0:0:
256,192,164202,2,0,P|267:180|289:168,2,22.5,2|2|2,3:2|0:0|3:2,0:0:0:0:
212,284,164535,2,0,P|227:287|253:285,2,22.5,10|2|2,0:0|0:0|0:0,0:0:0:0:
299,106,164868,38,0,P|316:85|343:74,1,53.9999983520508,6|2,3:2|0:0,0:0:0:0:
426,53,165035,1,2,0:0:0:0:
170,235,165202,6,0,P|145:241|119:236,1,53.9999983520508,10|2,0:0|0:0,0:0:0:0:
37,203,165368,1,2,0:0:0:0:
350,205,165535,6,0,P|375:214|392:234,1,53.9999983520508,2|2,3:2|0:0,0:0:0:0:
439,309,165702,1,2,3:2:0:0:
188,124,165869,38,0,P|173:102|171:72,1,53.9999983520508,10|2,0:0|0:0,0:0:0:0:
178,0,166035,1,2,0:0:0:0:
271,286,166202,5,6,3:2:0:0:
271,286,166285,1,2,0:0:0:0:
271,286,166368,2,0,P|270:313|254:338,1,53.9999983520508,2|0,0:0|0:0,0:0:0:0:
299,106,166535,5,10,0:0:0:0:
299,106,166618,1,2,0:0:0:0:
299,106,166702,2,0,P|316:85|343:74,1,53.9999983520508,2|0,0:0|0:0,0:0:0:0:
171,235,166868,37,2,3:2:0:0:
171,235,166952,1,2,0:0:0:0:
171,235,167035,2,0,P|145:242|119:236,1,53.9999983520508,2|0,3:2|0:0,0:0:0:0:
350,205,167202,5,10,0:0:0:0:
350,205,167285,1,2,0:0:0:0:
350,205,167369,2,0,P|376:215|393:235,1,53.9999983520508,2|0,0:0|0:0,0:0:0:0:
188,124,167535,5,2,3:2:0:0:
188,124,167618,1,2,0:0:0:0:
188,124,167703,2,0,P|173:102|171:72,1,53.9999983520508,2|0,0:0|0:0,0:0:0:0:
196,384,167868,37,8,0:0:0:0:
196,384,168201,6,0,P|189:356|184:329,1,53.9999983520508,2|0,3:2|0:0,0:0:0:0:
100,324,168368,2,0,P|107:351|112:377,1,53.9999983520508,0|0,3:2|0:0,0:0:0:0:
350,205,168535,2,0,B|362:138|433:150|433:150|399:163|392:187,1,161.999995056153,8|0,0:0|0:0,0:0:0:0:
255,301,168868,38,0,P|187:200|89:129,1,242.999992584229,6|0,3:2|0:0,0:0:0:0:
56,56,169202,2,0,P|29:78|-13:95,1,67.5000025749208,10|0,0:0|0:0,0:0:0:0:
195,35,169535,2,0,P|168:13|126:-4,1,67.5000025749208,2|0,3:2|3:2,0:0:0:0:
241,128,169868,1,10,0:0:0:0:
412,97,170035,54,0,B|416:68|416:68|379:22|379:22|387:-7,2,107.999996704102,2|0|0,0:0|3:2|0:0,0:0:0:0:
393,293,170535,2,0,P|403:253|462:268,1,107.999996704102,10|0,0:0|0:0,0:0:0:0:
397,315,170868,2,0,P|373:292|362:262,1,53.9999983520508,2|0,3:2|0:0,0:0:0:0:
341,171,171035,1,0,3:2:0:0:
413,327,171202,2,0,P|343:286|263:280,1,161.999995056153,10|0,0:0|0:0,0:0:0:0:
364,273,171535,22,0,B|299:247|277:310|279:314|250:371|191:350,1,202.500007724762,2|0,3:2|0:0,0:0:0:0:
94,384,171868,2,0,P|77:354|54:330,1,67.5000025749208,8|2,0:0|0:0,0:0:0:0:
163,181,172202,2,0,L|153:227,1,33.7500012874604,0|0,3:2|0:0,0:0:0:0:
132,305,172368,1,0,3:2:0:0:
54,209,172535,1,10,0:0:0:0:
226,115,172702,1,2,0:0:0:0:
117,80,172868,6,0,B|109:114|109:114|180:181|180:181|169:222,1,161.999995056153,2|0,3:2|0:0,0:0:0:0:
117,80,173202,1,10,0:0:0:0:
117,80,173535,37,0,3:2:0:0:
34,18,173702,1,0,3:2:0:0:
226,115,173868,2,0,P|271:52|349:54,1,161.999995056153,8|0,0:0|0:0,0:0:0:0:
441,107,174202,53,4,3:2:0:0:
459,103,174285,1,2,0:3:0:0:
466,93,174368,1,2,0:3:0:0:
464,78,174452,1,2,0:3:0:0:
450,67,174535,22,0,P|372:108|329:214,1,202.500007724762,10|0,0:0|0:0,0:0:0:0:
460,56,174868,2,0,P|456:88|434:121,1,67.5000025749208,2|0,3:2|0:0,0:0:0:0:
252,197,175035,1,0,3:2:0:0:
349,54,175202,2,0,B|354:86|354:86|359:90|359:90|366:132,1,67.5000025749208,10|0,0:0|0:0,0:0:0:0:
452,227,175368,2,0,B|439:287|439:287|433:293|433:293|420:357,1,135.000005149842,2|0,0:0|3:2,0:0:0:0:
241,286,175702,6,0,L|280:277,1,33.7500012874604,2|0,0:0|0:0,0:0:0:0:
54,281,175868,2,0,P|10:193|107:210,1,242.999992584229,10|0,0:0|0:0,0:0:0:0:
147,290,176202,2,0,P|141:312|126:336,1,45,2|0,3:2|0:0,0:0:0:0:
56,227,176368,1,0,3:2:0:0:
104,355,176535,2,0,P|154:305|263:290,1,161.999995056153,10|0,0:0|0:0,0:0:0:0:
355,273,176868,38,0,P|301:237|291:192,1,107.999996704102,6|0,3:2|0:0,0:0:0:0:
366,275,177202,2,0,P|335:288|315:312,1,53.9999983520508,8|0,0:0|0:0,0:0:0:0:
464,375,177368,2,0,P|498:334|497:282,2,107.999996704102,2|0|0,0:0|3:2|3:2,0:0:0:0:
228,149,177868,2,0,P|247:130|280:120,1,53.9999983520508,10|0,0:0|0:0,0:0:0:0:
424,97,178035,1,0,0:0:0:0:
290,197,178202,54,0,B|253:136|183:130|183:130|165:153|128:159,1,175.499991966248,2|0,3:2|0:0,0:0:0:0:
119,80,178535,2,0,P|99:45|71:28,1,67.5000025749208,8|0,0:0|0:0,0:0:0:0:
145,249,178868,2,0,B|183:244|200:214|200:214|179:229|150:230,1,107.999996704102,2|0,3:2|3:2,0:0:0:0:
24,274,179202,2,0,P|40:304|60:325,1,53.9999983520508,10|0,0:0|0:0,0:0:0:0:
70,143,179368,1,2,0:0:0:0:
422,305,179535,22,0,P|412:196|361:269,1,242.999992584229,6|0,3:2|0:0,0:0:0:0:
335,331,179868,2,0,B|285:343|250:380|250:380|284:342|287:280,1,202.500007724762,10|0,0:0|0:0,0:0:0:0:
285,197,180202,2,0,P|264:170|237:150,1,67.5000025749208,2|0,3:2|3:2,0:0:0:0:
385,44,180535,1,10,0:0:0:0:
338,91,180702,2,0,P|358:64|385:44,1,67.5000025749208,2|0,0:0|3:2,0:0:0:0:
286,285,181035,5,2,0:0:0:0:
286,285,181118,1,2,0:0:0:0:
286,285,181202,2,0,L|239:65,1,202.500007724762,10|0,0:0|0:0,0:0:0:0:
230,13,181535,1,0,3:2:0:0:
353,200,181702,1,0,3:2:0:0:
84,272,181868,37,10,0:0:0:0:
65,259,181951,1,2,0:0:0:0:
46,225,182034,1,2,0:0:0:0:
71,177,182118,1,2,0:0:0:0:
130,179,182202,54,0,B|38:186|10:120|10:120|28:95|20:56,1,202.500007724762,2|0,3:2|0:0,0:0:0:0:
232,211,182535,2,0,P|165:254|135:328,1,161.999995056153,10|0,0:0|0:0,0:0:0:0:
353,200,182868,2,0,P|327:191|305:175,1,53.9999983520508,2|0,3:2|0:0,0:0:0:0:
230,63,183035,1,0,3:2:0:0:
395,218,183202,2,0,P|369:226|347:243,1,53.9999983520508,10|0,0:0|0:0,0:0:0:0:
259,372,183368,1,2,0:0:0:0:
512,192,183535,21,0,3:2:0:0:
512,192,183868,6,0,B|492:183|477:172|477:172|278:226|278:226|262:210|243:203,1,283.499991348267,10|0,0:0|0:0,0:0:0:0:
306,141,184202,2,0,L|352:129,1,45,0|0,3:2|0:0,0:0:0:0:
461,251,184368,2,0,L|415:263,1,45,0|0,3:2|0:0,0:0:0:0:
176,265,184535,38,0,L|50:238,1,101.250003862381,10|0,0:0|0:0,0:0:0:0:
208,36,184868,54,0,L|279:372,2,341.999990867615,6|8|0,3:2|0:0|3:2,0:0:0:0:
349,129,185702,1,0,3:2:0:0:
53,357,185868,2,0,B|-3:341|6:278|6:278|21:310|54:316,1,161.999995056153,8|0,0:0|0:0,0:0:0:0:
77,244,186202,22,0,P|120:209|177:198,1,107.999996704102,2|0,3:2|0:0,0:0:0:0:
148,228,186452,2,0,P|121:209|95:200,2,53.9999983520508,2|8|0,0:0|0:0|0:0,0:0:0:0:
85,120,186702,2,0,P|55:133|34:151,1,53.9999983520508,2|0,0:0|0:0,0:0:0:0:
127,317,186868,6,0,B|161:351|204:348|204:348|214:333|228:328,1,107.999996704102,2|0,3:2|3:2,0:0:0:0:
292,299,187118,2,0,L|300:338,2,33.7500012874604,2|8|0,0:0|0:0|0:0,0:0:0:0:
358,246,187368,2,0,L|366:285,1,33.7500012874604,2|0,0:0|0:0,0:0:0:0:
428,381,187535,37,2,3:2:0:0:
489,345,187618,1,2,0:0:0:0:
502,276,187702,1,2,0:0:0:0:
476,222,187785,1,2,0:0:0:0:
426,204,187868,1,10,0:0:0:0:
392,173,187952,1,2,0:0:0:0:
391,125,188035,1,2,0:0:0:0:
426,93,188118,1,2,0:0:0:0:
474,100,188202,53,2,3:2:0:0:
439,131,188285,1,2,0:0:0:0:
391,125,188368,1,2,3:2:0:0:
357,104,188452,1,2,0:0:0:0:
342,80,188535,1,10,0:0:0:0:
317,68,188618,1,2,0:0:0:0:
297,69,188702,1,2,0:0:0:0:
288,78,188785,1,2,0:0:0:0:
287,88,188868,54,0,P|375:78|452:-7,1,202.500007724762,2|0,3:2|0:0,0:0:0:0:
271,101,189202,2,0,P|295:38|348:0,1,135,10|0,0:0|0:0,0:0:0:0:
256,187,189535,38,0,P|229:181|205:160,1,45,2|0,3:2|0:0,0:0:0:0:
118,88,189702,1,0,3:2:0:0:
329,202,189868,2,0,B|225:180|196:237|196:237|205:276|183:300,1,202.500007724762,10|0,0:0|0:0,0:0:0:0:
75,349,190202,53,6,3:2:0:0:
256,192,190285,12,0,192868,0:0:0:0:
256,192,194202,5,2,0:0:0:0:
256,192,194368,2,0,L|249:160,2,22.5,2|2|2,0:0|0:0|0:0,0:0:0:0:
274,274,194702,1,2,0:0:0:0:
279,352,194868,2,0,P|250:318|207:312,1,90,2|2,0:0|0:0,0:0:0:0:
207,312,195368,1,2,0:0:0:0:
348,310,195535,2,0,L|402:298,2,53.9999983520508,2|2|2,0:0|0:0|0:0,0:0:0:0:
348,310,196868,5,2,0:0:0:0:
348,310,197035,2,0,L|354:278,2,22.5,2|2|2,0:0|0:0|0:0,0:0:0:0:
348,310,197368,1,2,0:0:0:0:
445,274,197535,1,2,0:0:0:0:
381,189,197868,2,0,L|387:220,2,22.5,2|0|2,0:0|0:0|0:0,0:0:0:0:
453,138,198202,54,0,L|466:200,2,53.9999983520508,2|2|2,0:0|0:0|0:0,0:0:0:0:
256,192,199535,5,2,0:0:0:0:
256,192,199702,2,0,L|287:185,2,22.5,0|0|2,0:0|0:0|0:0,0:0:0:0:
148,171,200202,2,0,P|168:156|179:136,1,45,2|0,0:0|0:0,0:0:0:0:
105,83,200535,2,0,L|109:106,2,22.5,2|0|0,0:0|0:0|0:0,0:0:0:0:
12,42,200868,54,0,L|31:135,2,90,2|2|2,0:0|0:0|0:0,0:0:0:0:
12,42,202202,5,2,0:0:0:0:
12,42,202535,2,0,P|33:58|69:64,1,45,2|2,0:0|0:0,0:0:0:0:
130,45,202785,1,2,0:0:0:0:
130,45,202868,2,0,P|151:26|171:18,2,45,2|2|2,0:0|0:0|0:0,0:0:0:0:
256,192,203535,53,2,0:0:0:0:
256,192,203868,1,2,0:0:0:0:
256,192,204202,21,2,0:0:0:0:
264,190,204285,1,2,0:0:0:0:
272,188,204368,1,2,0:0:0:0:
280,186,204452,1,2,0:0:0:0:
288,184,204535,6,0,P|279:196|270:204,1,16.8750006437302,2|0,0:0|0:0,0:0:0:0:
247,165,204618,2,0,P|233:170|220:172,1,22.5,2|0,0:0|0:0,0:0:0:0:
209,115,204702,2,0,P|196:103|185:88,1,28.125,2|0,0:0|0:0,0:0:0:0:
227,51,204785,2,0,P|220:31|219:13,1,33.7500012874604,2|0,0:0|0:0,0:0:0:0:
292,11,204868,6,0,L|233:284,1,270,6|0,3:2|0:0,0:0:0:0:
247,347,205202,2,0,P|224:325|189:309,1,53.9999983520508,8|0,0:0|0:0,0:0:0:0:
201,344,205368,2,0,P|224:322|259:306,1,53.9999983520508
311,355,205535,2,0,P|239:316|162:291,1,161.999995056153,0|0,3:2|0:0,0:0:0:0:
82,325,205785,1,0,0:0:0:0:
82,325,205868,2,0,P|57:318|29:313,1,45,8|0,0:0|0:0,0:0:0:0:
247,165,206035,1,0,0:0:0:0:
19,118,206202,37,0,3:2:0:0:
142,64,206368,1,0,0:0:0:0:
478,109,206535,5,8,0:0:0:0:
335,145,206702,1,0,0:0:0:0:
263,20,206868,6,0,P|279:8|302:0,1,33.7500012874604,2|0,3:2|0:0,0:0:0:0:
247,41,207035,38,0,P|244:21|249:-2,1,33.7500012874604,2|0,0:0|0:0,0:0:0:0:
257,65,207202,6,0,P|238:57|220:41,1,33.7500012874604,10|0,0:0|0:0,0:0:0:0:
428,18,207368,1,2,0:0:0:0:
355,232,207535,6,0,B|370:178|420:165|420:165|444:187|477:186,1,135.000005149842,2|0,3:2|0:0,0:0:0:0:
359,247,207785,1,0,0:0:0:0:
359,247,207868,2,0,P|370:215|362:169,1,67.5000025749208,8|0,0:0|0:0,0:0:0:0:
257,65,208035,1,0,0:0:0:0:
170,347,208202,38,0,B|189:303|134:274|105:296|105:299|106:303|57:314|34:274|48:240,1,202.500007724762,0|0,3:2|0:0,0:0:0:0:
90,323,208535,2,0,P|82:341|73:353,1,33.7500012874604,8|0,0:0|0:0,0:0:0:0:
121,190,208702,2,0,P|131:205|138:219,1,33.7500012874604
15,135,208868,5,2,3:2:0:0:
222,1,209035,1,2,0:0:0:0:
478,144,209202,1,10,0:0:0:0:
296,121,209368,1,2,0:0:0:0:
468,24,209535,5,2,3:3:0:0:
471,33,209618,1,2,0:3:0:0:
471,47,209702,1,2,0:3:0:0:
466,59,209785,1,2,0:3:0:0:
402,96,209868,37,10,0:0:0:0:
387,124,209952,1,2,0:3:0:0:
389,156,210035,1,2,0:3:0:0:
409,178,210118,1,2,0:3:0:0:
437,233,210202,6,0,P|404:243|379:272,1,67.5000025749208,6|0,3:2|0:0,0:0:0:0:
381,266,210368,2,0,P|388:232|376:196,1,67.5000025749208,2|0,0:3|0:0,0:0:0:0:
125,264,210535,6,0,P|146:290|177:303,1,67.5000025749208,10|0,0:0|0:0,0:0:0:0:
176,302,210702,2,0,P|142:307|116:327,1,67.5000025749208,2|0,0:3|0:0,0:0:0:0:
198,14,210868,38,0,P|222:36|255:44,1,67.5000025749208,2|0,3:2|0:0,0:0:0:0:
255,44,211035,2,0,P|223:53|200:78,1,67.5000025749208,2|0,0:3|0:0,0:0:0:0:
252,337,211202,6,0,P|285:346|310:369,1,67.5000025749208,10|0,0:0|0:0,0:0:0:0:
308,366,211368,2,0,P|300:334|307:301,1,67.5000025749208,2|0,0:3|0:0,0:0:0:0:
125,114,211535,6,0,P|113:144|117:178,1,67.5000025749208,2|0,3:2|0:0,0:0:0:0:
64,137,211702,2,0,P|97:133|125:114,1,67.5000025749208,2|0,0:3|0:0,0:0:0:0:
386,51,211868,38,0,P|374:82|380:116,1,67.5000025749208,10|0,0:0|0:0,0:0:0:0:
380,116,212035,2,0,P|359:89|329:77,1,67.5000025749208,2|0,0:3|0:0,0:0:0:0:
125,264,212202,6,0,P|146:290|177:303,1,67.5000025749208,2|0,3:2|0:0,0:0:0:0:
176,302,212369,2,0,P|142:307|116:327,1,67.5000025749208,2|0,0:0|0:0,0:0:0:0:
256,192,212535,5,8,0:0:0:0:
256,192,212868,38,0,B|233:161|244:115|244:115|233:161|190:172,1,161.999995056153,2|0,3:2|0:0,0:0:0:0:
322,143,213118,1,0,0:0:0:0:
322,143,213202,2,0,P|346:142|367:130,1,49.5000015106202,8|0,0:0|0:0,0:0:0:0:
123,86,213368,2,0,P|147:86|168:98,1,49.5000015106202
433,172,213535,2,0,P|444:150|444:125,1,49.5000015106202,0|0,3:2|0:0,0:0:0:0:
298,60,213702,2,0,B|265:123|390:126|353:195,2,161.999995056153,0|8|0,0:0|0:0|0:0,0:0:0:0:
84,158,214202,6,0,P|15:160|39:96,1,161.999995056153,2|2,3:2|0:3,0:0:0:0:
123,86,214452,1,2,0:0:0:0:
123,86,214535,2,0,P|147:86|168:98,1,49.5000015106202,8|0,0:0|0:0,0:0:0:0:
277,190,214702,2,0,P|264:210|244:222,1,49.5000015106202,10|0,0:0|0:0,0:0:0:0:
40,312,214868,5,0,3:2:0:0:
81,244,214952,1,0,1:2:0:0:
159,244,215035,1,0,1:2:0:0:
159,244,215202,37,8,0:0:0:0:
120,175,215285,1,0,1:2:0:0:
40,175,215369,1,0,1:2:0:0:
1,244,215453,1,0,1:2:0:0:
40,312,215535,6,0,B|73:308|92:326|92:326|177:318|180:220|180:220|157:250|115:252,1,270,6|0,3:2|0:0,0:0:0:0:
48,384,216202,2,0,L|104:117,1,270,4|0,3:2|0:0,0:0:0:0:
300,279,216868,6,0,P|334:280|365:320,1,67.5000025749208,10|0,0:0|0:0,0:0:0:0:
358,301,217035,2,0,P|342:271|361:224,1,67.5000025749208,8|0,0:0|1:2,0:0:0:0:
154,181,217202,38,0,P|135:209|86:217,1,67.5000025749208,8|0,0:0|0:0,0:0:0:0:
105,220,217369,2,0,P|139:221|170:260,1,67.5000025749208,8|0,0:0|0:0,0:0:0:0:
256,192,217535,5,8,0:0:0:0:
312,103,217868,6,0,B|290:82|303:41|303:41|290:82|231:84,1,135,8|0,0:0|0:0,0:0:0:0:
129,110,218202,38,0,B|52:86|80:5|80:5|173:-17|182:60,1,270,6|0,3:2|0:0,0:0:0:0:
399,188,218868,2,0,B|471:219|498:126|498:126|441:62|383:116,1,270,4|0,3:2|0:0,0:0:0:0:
142,330,219535,6,0,P|137:296|107:262,1,67.5000025749208,10|0,0:0|0:0,0:0:0:0:
272,157,219702,1,8,0:0:0:0:
272,157,219785,1,0,1:2:0:0:
272,157,219868,2,0,P|277:191|307:225,1,67.5000025749208,8|0,0:0|0:0,0:0:0:0:
293,311,220035,6,0,P|259:316|225:346,1,67.5000025749208,8|0,0:0|0:0,0:0:0:0:
120,181,220202,2,0,P|154:176|188:146,1,67.5000025749208,8|0,0:0|0:0,0:0:0:0:
208,240,220368,38,0,L|202:254,3,16.8750006437302,2|2|2|2,0:0|0:0|0:0|0:0,0:0:0:0:
194,269,220535,6,0,B|161:236|191:182|235:187|236:190|238:192|284:200|324:153|279:95,1,229.500004377365,8|0,0:0|0:0,0:0:0:0:
394,242,220868,6,0,P|409:257|429:268,1,45,12|0,0:0|0:0,0:0:0:0:
512,352,221035,1,2,3:3:0:0:
512,352,221118,1,2,0:3:0:0:
512,352,221202,2,0,P|490:357|470:369,1,45,10|0,0:0|0:0,0:0:0:0:
293,311,221368,1,2,3:3:0:0:
366,374,221535,38,0,L|399:217,1,135.000005149842,10|0,0:0|3:2,0:0:0:0:
281,251,221785,1,2,0:3:0:0:
281,251,221868,2,0,P|276:283|306:319,1,67.5000025749208,10|0,0:0|0:0,0:0:0:0:
293,311,222035,2,0,P|266:290|221:298,1,67.5000025749208,2|0,3:2|0:0,0:0:0:0:
31,356,222202,5,10,3:2:0:0:
137,366,222368,1,2,3:2:0:0:
164,338,222452,1,2,0:0:0:0:
153,300,222535,1,10,0:0:0:0:
7,226,222702,1,2,3:2:0:0:
98,191,222868,2,0,L|83:261,1,67.5000025749208,10|0,0:0|0:0,0:0:0:0:
194,157,223035,1,0,3:2:0:0:
22,45,223202,6,0,L|-9:38,1,22.5,10|0,0:0|0:0,0:0:0:0:
137,73,223368,2,0,L|105:66,1,22.5,2|0,3:2|0:0,0:0:0:0:
296,41,223535,2,0,B|193:19|193:19|208:33|211:48,1,135.000005149842,10|0,0:0|3:2,0:0:0:0:
449,87,223868,38,0,P|464:80|471:65,1,33.7500012874604,10|0,0:0|0:0,0:0:0:0:
463,58,224035,2,0,P|448:65|441:80,1,33.7500012874604,2|0,3:2|0:0,0:0:0:0:
362,199,224202,6,0,P|388:189|432:184,1,53.9999983520508,10|0,0:0|0:0,0:0:0:0:
254,156,224368,1,0,3:2:0:0:
415,200,224535,2,0,P|389:190|344:185,1,53.9999983520508,10|0,0:0|0:0,0:0:0:0:
495,265,224702,1,0,3:2:0:0:
379,164,224868,6,0,P|386:191|390:218,1,53.9999983520508,10|0,0:0|0:0,0:0:0:0:
364,384,225035,1,2,3:2:0:0:
342,378,225119,1,2,0:0:0:0:
336,356,225202,1,10,0:0:0:0:
475,348,225368,1,2,3:2:0:0:
380,216,225535,2,0,P|384:189|390:163,1,53.9999983520508,10|0,0:0|0:0,0:0:0:0:
442,13,225702,1,0,3:2:0:0:
497,111,225868,38,0,P|472:98|439:91,1,53.9999983520508,10|0,0:0|0:0,0:0:0:0:
351,17,226035,2,0,P|324:25|295:43,1,53.9999983520508,2|0,3:2|0:0,0:0:0:0:
53,146,226202,6,0,L|41:91,1,53.9999983520508,14|0,0:0|0:0,0:0:0:0:
159,36,226368,1,2,3:3:0:0:
171,44,226452,1,2,0:3:0:0:
169,58,226535,2,0,B|160:72|140:73|140:73|130:63|117:57,1,53.9999983520508,10|0,0:0|0:0,0:0:0:0:
157,163,226702,1,0,3:1:0:0:
173,166,226786,1,0,0:1:0:0:
186,160,226868,5,10,0:0:0:0:
158,169,226952,1,2,0:3:0:0:
139,203,227035,1,2,3:3:0:0:
141,239,227118,1,2,0:3:0:0:
165,265,227202,2,0,P|137:247|101:250,1,53.9999983520508,10|0,0:0|0:0,0:0:0:0:
246,379,227368,2,0,P|247:345|226:316,1,53.9999983520508,2|0,3:2|0:0,0:0:0:0:
2,384,227535,37,10,0:0:0:0:
7,243,227702,1,2,3:2:0:0:
127,92,227868,1,10,0:0:0:0:
378,76,228035,1,2,3:2:0:0:
512,275,228202,6,0,P|490:289|478:309,1,45,10|0,0:0|3:2,0:0:0:0:
290,384,228535,6,0,L|275:313,1,67.5000025749208,10|0,0:0|0:0,0:0:0:0:
256,192,228702,1,2,3:2:0:0:
246,366,228868,38,0,B|241:342|241:342|288:297|288:297|283:257,1,112.5,4|0,3:2|0:0,0:0:0:0:
404,50,229368,6,0,B|428:45|428:45|473:92|473:92|513:87,1,112.5,2|0,3:2|0:0,0:0:0:0:
495,88,229535,2,0,B|481:69|481:69|416:69|416:69|403:49,1,112.5,2|0,3:2|0:0,0:0:0:0:
12,26,229868,6,0,L|58:16,1,40.4999987640381,8|0,0:0|0:0,0:0:0:0:
51,17,230202,37,6,3:2:0:0:
279,227,230368,5,2,0:2:0:0:
213,194,230452,1,2,0:0:0:0:
275,153,230535,1,14,0:0:0:0:
160,364,230702,5,2,3:2:0:0:
341,42,230868,1,14,0:0:0:0:
