osu file format v14

[General]
AudioFilename: hanagoyomi.mp3
AudioLeadIn: 0
PreviewTime: 64100
Countdown: 1
SampleSet: None
StackLeniency: 0.7
Mode: 0
LetterboxInBreaks: 1
WidescreenStoryboard: 0

[Editor]
DistanceSpacing: 1.92
BeatDivisor: 4
GridSize: 4
TimelineZoom: 2.599999

[Metadata]
Title:Hanagoyomi
TitleUnicode:華暦
Artist:Ayumi.
ArtistUnicode:Ayumi.
Creator:chucentry
Version:Flower
Source:花の野に咲くうたかたの
Tags:
BeatmapID:2109919
BeatmapSetID:1008119

[Difficulty]
HPDrainRate:6
CircleSize:4
OverallDifficulty:8
ApproachRate:9.2
SliderMultiplier:1.7
SliderTickRate:1

[Events]
//Background and Video events
0,0,"maxresdefault.jpg",0,0
//Break Periods
//Storyboard Layer 0 (Background)
//Storyboard Layer 1 (Fail)
//Storyboard Layer 2 (Pass)
//Storyboard Layer 3 (Foreground)
//Storyboard Sound Samples

[TimingPoints]
-548,500,4,2,1,100,1,0
1452,-200,4,2,2,40,0,0
13452,-100,4,2,2,60,0,0
13827,-100,4,2,2,5,0,0
13952,-111.111111111111,4,2,2,60,0,0
14327,-111.111111111111,4,2,2,5,0,0
14452,-125,4,2,2,60,0,0
14827,-125,4,2,2,5,0,0
14952,-200,4,2,2,60,0,0
16767,333.333333333333,4,1,0,100,1,0
16767,-100,4,2,1,60,0,0
27433,-166.666666666667,4,2,2,40,0,0
27766,-166.666666666667,4,2,2,35,0,0
28100,-166.666666666667,4,2,2,30,0,0
28433,-166.666666666667,4,2,2,25,0,0
28766,-142.857142857143,4,2,2,35,0,0
42100,-100,4,2,1,60,0,0
52766,-100,4,2,2,60,0,0
53433,-125,4,2,2,40,0,0
55433,-100,4,2,1,60,0,0
64100,-133.333333333333,4,2,1,40,0,0
64766,-90.9090909090909,4,2,3,80,0,1
74100,-90.9090909090909,4,2,3,80,0,0
75433,-90.9090909090909,4,2,3,80,0,1
86100,-125,4,2,1,60,0,0
88433,-100,4,2,1,60,0,0

[Colours]
Combo1 : 240,240,240
Combo2 : 255,187,187
Combo3 : 255,183,255
Combo4 : 183,255,255
Combo5 : 255,255,255

[HitObjects]
104,104,1452,6,0,B|85:156|127:198|127:198|105:233|129:259,1,170,6|0,0:0|0:0,0:0:0:0:
176,132,2952,5,0,0:0:0:0:
200,232,3202,1,0,0:0:0:0:
292,277,3452,2,0,P|300:228|288:176,2,85,6|0|0,0:0|0:0|0:0,0:0:0:0:
200,32,4952,5,0,0:0:0:0:
176,132,5202,1,0,0:0:0:0:
152,232,5452,2,0,L|332:244,2,170,6|0|0,0:0|0:0|0:0,0:0:0:0:
71,205,7702,1,0,0:0:0:0:
71,121,7952,1,0,0:0:0:0:
152,95,8202,1,0,0:0:0:0:
201,163,8452,1,0,0:0:0:0:
152,232,9452,6,0,P|184:272|220:284,1,85,6|0,0:0|0:0,0:0:0:0:
380,248,10452,2,0,P|348:208|312:196,1,85
298,275,11452,1,0,0:0:0:0:
376,334,11952,1,0,0:0:0:0:
458,282,12452,1,0,0:0:0:0:
432,184,12952,1,0,0:0:0:0:
334,177,13452,6,0,L|312:44,1,127.5,6|0,0:0|0:0,0:0:0:0:
236,51,13952,6,0,L|254:164,1,114.749996498108,6|0,0:0|0:0,0:0:0:0:
184,208,14452,6,0,L|168:96,1,102,6|0,0:0|0:0,0:0:0:0:
104,56,14952,6,0,B|60:124|124:148|78:171|78:171|128:192|56:220|104:296,1,255,6|0,0:0|0:0,0:0:0:0:
208,320,16767,6,0,P|248:332|320:324,1,85,4|0,0:0|0:0,0:0:0:0:
388,236,17100,2,0,P|348:224|276:232,1,85,8|0,0:0|0:0,0:0:0:0:
460,316,17433,2,0,L|476:212,1,85
360,64,17767,2,0,L|344:168,1,85,8|0,0:0|0:0,0:0:0:0:
336,304,18100,1,0,0:0:0:0:
214,181,18267,1,0,0:0:0:0:
177,183,18350,1,0,0:0:0:0:
145,200,18433,1,8,0:0:0:0:
48,292,18600,5,2,0:0:0:0:
124,116,18766,1,2,0:0:0:0:
196,264,18933,1,0,0:0:0:0:
199,300,19016,1,0,0:0:0:0:
186,334,19099,1,8,0:0:0:0:
145,200,19266,1,2,0:0:0:0:
248,96,19433,2,0,P|283:123|302:175,1,85,2|0,0:0|0:0,0:0:0:0:
48,292,19766,6,0,L|44:196,1,85,8|0,0:0|0:0,0:0:0:0:
44,180,20016,1,0,0:0:0:0:
44,153,20100,1,2,0:0:0:0:
100,40,20266,1,0,0:0:0:0:
223,175,20433,1,8,0:0:0:0:
145,200,20600,1,0,0:0:0:0:
248,96,20766,6,0,P|320:104|352:132,1,85,2|0,0:0|0:0,0:0:0:0:
347,128,21016,1,0,0:0:0:0:
360,150,21100,1,8,0:0:0:0:
144,120,21266,1,2,0:0:0:0:
356,36,21433,1,2,0:0:0:0:
248,248,21600,1,2,0:0:0:0:
248,96,21766,5,8,0:0:0:0:
352,276,21933,1,0,0:0:0:0:
145,200,22100,2,0,P|88:220|64:252,1,85,4|0,0:0|0:0,0:0:0:0:
312,140,22433,2,0,P|323:80|307:43,1,85,4|0,0:0|0:0,0:0:0:0:
280,314,22766,2,0,P|325:353|365:358,1,85,4|0,0:0|0:0,0:0:0:0:
220,173,23100,5,8,0:0:0:0:
136,320,23266,1,2,0:0:0:0:
136,320,23350,1,0,0:0:0:0:
136,320,23433,1,2,0:0:0:0:
352,276,23600,1,2,0:0:0:0:
142,205,23766,1,8,0:0:0:0:
327,84,23933,1,2,0:0:0:0:
223,257,24100,6,0,L|219:157,1,85,2|0,0:0|0:0,0:0:0:0:
248,40,24433,1,8,0:0:0:0:
350,173,24600,1,2,0:0:0:0:
142,205,24766,1,6,0:0:0:0:
142,205,25266,5,4,0:0:0:0:
297,343,25432,1,4,0:0:0:0:
297,343,25766,6,0,L|308:244,1,85,4|0,0:0|0:0,0:0:0:0:
392,148,26100,1,8,0:0:0:0:
384,120,26183,1,0,0:0:0:0:
364,96,26266,1,2,0:0:0:0:
304,168,26433,1,2,0:0:0:0:
471,105,26600,1,2,0:0:0:0:
306,258,26766,6,0,P|226:274|158:258,1,127.5,4|0,0:0|0:0,0:0:0:0:
159,244,27100,2,0,P|79:228|11:244,1,127.5
48,152,27433,6,0,L|56:84,1,50.9999984436036,2|0,0:0|0:0,0:0:0:0:
136,128,27766,2,0,L|156:62,1,50.9999984436036,2|0,0:0|0:0,0:0:0:0:
226,121,28100,2,0,L|258:60,1,50.9999984436036,2|0,0:0|0:0,0:0:0:0:
315,131,28433,2,0,L|358:78,1,50.9999984436036,2|0,0:0|0:0,0:0:0:0:
457,253,28766,6,0,P|441:193|381:149,1,118.999996368408,4|0,0:0|0:0,0:0:0:0:
226,121,29266,1,0,0:0:0:0:
226,121,29433,2,0,P|242:181|302:225,1,118.999996368408
372,240,29933,1,0,0:0:0:0:
185,303,30100,5,0,0:0:0:0:
327,170,30266,1,0,0:0:0:0:
135,194,30433,1,0,0:0:0:0:
304,288,30600,1,0,0:0:0:0:
226,121,30766,2,0,P|188:90|62:104,1,178.499994552612,2|0,0:0|0:0,0:0:0:0:
327,170,31433,6,0,P|372:152|423:36,1,178.499994552612,2|0,0:0|0:0,0:0:0:0:
234,232,32100,2,0,P|226:280|301:382,1,178.499994552612,2|0,0:0|0:0,0:0:0:0:
320,280,32766,5,0,0:0:0:0:
240,148,32933,1,0,0:0:0:0:
234,232,33100,1,0,0:0:0:0:
314,100,33267,1,0,0:0:0:0:
380,200,33433,2,0,P|420:280|368:368,1,178.499994552612,2|0,0:0|0:0,0:0:0:0:
248,332,34100,6,0,P|184:308|132:320,1,118.999996368408,2|0,0:0|0:0,0:0:0:0:
48,284,34600,1,0,0:0:0:0:
48,284,34766,2,0,P|98:237|151:229,1,118.999996368408,2|0,0:0|0:0,0:0:0:0:
233,242,35266,1,0,0:0:0:0:
315,210,35433,1,0,0:0:0:0:
372,143,35599,1,0,0:0:0:0:
389,56,35766,1,0,0:0:0:0:
301,73,35933,5,0,0:0:0:0:
288,159,36100,1,0,0:0:0:0:
320,241,36267,1,0,0:0:0:0:
387,298,36433,1,0,0:0:0:0:
474,315,36600,1,0,0:0:0:0:
457,227,36766,6,0,L|368:140,1,118.999996368408
320,241,37266,1,0,0:0:0:0:
320,241,37433,2,0,P|320:296|312:320,1,59.4999981842042
248,272,37766,2,0,P|209:310|186:322,1,59.4999981842042
175,243,38100,1,0,0:0:0:0:
251,166,38266,1,0,0:0:0:0:
251,166,38350,1,0,0:0:0:0:
251,166,38433,1,0,0:0:0:0:
152,121,38600,1,0,0:0:0:0:
252,78,38766,6,0,P|280:80|312:104,1,59.4999981842042
384,204,39100,2,0,P|396:229|391:268,1,59.4999981842042
326,328,39433,1,8,0:0:0:0:
251,166,39600,1,2,0:0:0:0:
136,300,39766,1,2,0:0:0:0:
61,138,39933,1,2,0:0:0:0:
252,78,40100,1,8,0:0:0:0:
252,78,40433,6,0,L|324:116,1,59.4999981842042,2|0,0:0|0:0,0:0:0:0:
328,120,40683,1,0,0:0:0:0:
328,120,40766,1,8,0:0:0:0:
420,96,40933,1,2,0:0:0:0:
472,180,41100,1,2,0:0:0:0:
440,272,41266,1,2,0:0:0:0:
352,308,41433,6,0,P|320:320|292:340,2,39.6666654561361,8|0|0,0:0|0:0|0:0,0:0:0:0:
272,260,41766,2,0,P|248:284|231:314,2,39.6666654561361
360,208,42100,6,0,P|376:116|352:60,1,127.5,4|0,0:0|0:0,0:0:0:0:
304,144,42433,2,0,P|256:148|208:132,1,85,8|0,0:0|0:0,0:0:0:0:
96,60,42766,2,0,P|102:120|68:194,1,127.5
16,240,43100,2,0,P|52:262|128:252,1,85,8|0,0:0|0:0,0:0:0:0:
304,144,43433,1,0,0:0:0:0:
187,275,43600,1,0,0:0:0:0:
358,238,43766,1,8,0:0:0:0:
199,168,43933,1,0,0:0:0:0:
287,320,44100,6,0,P|328:344|396:340,1,85
476,264,44433,2,0,P|435:240|367:244,1,85,8|0,0:0|0:0,0:0:0:0:
187,275,44766,2,0,P|146:299|52:288,1,127.5
43,271,45100,2,0,L|36:168,1,85,8|0,0:0|0:0,0:0:0:0:
100,92,45433,2,0,P|136:92|152:100,1,42.5
199,168,45600,2,0,P|235:168|251:160,1,42.5
348,92,45766,6,0,P|401:86|449:102,1,85,8|0,0:0|0:0,0:0:0:0:
392,272,46100,1,0,0:0:0:0:
392,164,46266,1,0,0:0:0:0:
488,296,46433,1,8,0:0:0:0:
324,344,46600,1,0,0:0:0:0:
200,168,46766,5,0,0:0:0:0:
160,153,46849,1,0,0:0:0:0:
118,153,46932,1,0,0:0:0:0:
79,167,47016,1,0,0:0:0:0:
47,193,47100,2,0,L|60:240,1,42.5,2|0,0:0|0:0,0:0:0:0:
128,308,47266,2,0,L|174:319,1,42.5
268,270,47433,6,0,P|321:257|403:278,1,127.5,4|0,0:0|0:0,0:0:0:0:
464,204,47766,2,0,P|472:156|456:104,1,85,8|0,0:0|0:0,0:0:0:0:
312,40,48100,2,0,L|324:144,1,85
224,296,48433,2,0,L|212:192,1,85,8|0,0:0|0:0,0:0:0:0:
72,84,48766,5,2,0:0:0:0:
136,232,48933,1,2,0:0:0:0:
344,160,49100,1,8,0:0:0:0:
301,348,49267,1,2,0:0:0:0:
136,296,49433,1,0,0:0:0:0:
117,257,49516,1,0,0:0:0:0:
111,216,49599,1,0,0:0:0:0:
118,174,49683,1,0,0:0:0:0:
138,136,49766,1,8,0:0:0:0:
260,44,49933,5,0,0:0:0:0:
260,44,50016,1,0,0:0:0:0:
260,44,50100,2,0,L|268:144,1,85,8|0,0:0|0:0,0:0:0:0:
372,104,50349,1,0,0:0:0:0:
372,104,50433,2,0,L|357:203,1,85,8|0,0:0|0:0,0:0:0:0:
469,185,50682,1,0,0:0:0:0:
469,185,50766,2,0,L|433:279,1,85,8|0,0:0|0:0,0:0:0:0:
301,348,51100,2,0,P|293:300|309:236,1,85,8|0,0:0|0:0,0:0:0:0:
372,104,51433,5,8,0:0:0:0:
136,216,51600,1,2,0:0:0:0:
351,81,51766,5,8,0:0:0:0:
301,348,51933,1,2,0:0:0:0:
140,180,52100,2,0,P|132:132|148:76,1,85,0|2,0:0|0:0,0:0:0:0:
344,264,52433,1,8,0:0:0:0:
88,336,52600,1,2,0:0:0:0:
216,136,52766,5,4,0:0:0:0:
216,136,53433,5,2,0:0:0:0:
158,201,53600,1,2,0:0:0:0:
199,270,53766,1,2,0:0:0:0:
285,257,53933,1,2,0:0:0:0:
290,172,54100,6,0,L|352:140,1,68,2|0,0:0|0:0,0:0:0:0:
448,92,54433,2,0,L|440:188,1,68,2|0,0:0|0:0,0:0:0:0:
356,296,54766,2,0,L|364:200,1,68,2|0,0:0|0:0,0:0:0:0:
490,232,55100,2,0,L|428:264,1,68,2|0,0:0|0:0,0:0:0:0:
283,329,55433,5,8,0:0:0:0:
241,339,55516,1,0,0:0:0:0:
199,338,55599,1,0,0:0:0:0:
159,325,55683,1,0,0:0:0:0:
123,302,55766,2,0,L|120:248,1,42.5
204,200,55933,2,0,L|200:145,1,42.5,4|0,0:0|0:0,0:0:0:0:
100,136,56100,2,0,L|96:81,1,42.5
184,40,56266,1,0,0:0:0:0:
184,40,56350,1,0,0:0:0:0:
184,40,56433,6,0,L|240:56,1,42.5
364,116,56600,2,0,L|308:132,1,42.5
204,200,56766,1,8,0:0:0:0:
168,195,56849,1,0,0:0:0:0:
147,197,56932,1,0,0:0:0:0:
139,232,57016,1,0,0:0:0:0:
118,262,57099,1,0,0:0:0:0:
88,281,57182,1,0,0:0:0:0:
52,281,57266,1,0,0:0:0:0:
23,260,57349,1,0,0:0:0:0:
7,227,57433,6,0,L|16:164,1,42.5,4|0,0:0|0:0,0:0:0:0:
184,40,57600,2,0,L|192:103,1,42.5
203,281,57766,1,8,0:0:0:0:
238,312,57849,1,0,0:0:0:0:
283,328,57932,1,0,0:0:0:0:
330,327,58016,1,0,0:0:0:0:
374,309,58100,2,0,P|440:300|480:312,1,85
300,244,58433,6,0,P|288:184|316:124,1,127.5
364,192,58766,2,0,P|408:204|456:188,1,85,8|0,0:0|0:0,0:0:0:0:
378,61,59100,2,0,P|329:38|250:61,1,127.5
199,113,59433,2,0,L|88:112,1,85,8|0,0:0|0:0,0:0:0:0:
41,184,59766,2,0,P|13:248|41:320,1,127.5
92,344,60100,1,8,0:0:0:0:
192,236,60266,1,0,0:0:0:0:
304,308,60433,2,0,P|324:237|296:164,1,127.5
256,132,60766,6,0,L|168:128,1,85,8|0,0:0|0:0,0:0:0:0:
40,184,61100,1,0,0:0:0:0:
168,48,61266,1,0,0:0:0:0:
192,236,61433,2,0,P|252:260|328:236,1,127.5,8|0,0:0|0:0,0:0:0:0:
384,200,61766,1,0,0:0:0:0:
256,132,61933,1,0,0:0:0:0:
320,340,62100,5,12,0:0:0:0:
256,192,62183,12,0,63933,0:0:0:0:
27,330,64100,6,0,P|71:338|127:322,1,95.6250036478044,2|0,0:0|0:0,0:0:0:0:
173,271,64433,2,0,P|220:268|264:284,1,95.6250036478044,2|0,0:0|0:0,0:0:0:0:
320,340,64766,6,0,P|344:268|316:196,1,140.25000428009,4|0,0:0|0:0,0:0:0:0:
264,156,65100,2,0,P|248:204|260:260,1,93.5000028533936,8|0,0:0|0:0,0:0:0:0:
400,156,65433,2,0,P|416:108|404:52,1,93.5000028533936,2|0,0:0|0:0,0:0:0:0:
385,41,65683,1,0,0:0:0:0:
352,24,65766,1,8,0:0:0:0:
232,76,65933,1,2,0:0:0:0:
432,236,66100,5,2,0:0:0:0:
264,156,66266,1,2,0:0:0:0:
164,332,66433,1,8,0:0:0:0:
177,199,66600,1,2,0:0:0:0:
320,340,66767,1,2,0:0:0:0:
400,156,66933,5,2,0:0:0:0:
400,156,67016,1,0,0:0:0:0:
400,156,67100,2,0,P|408:100|396:64,1,93.5000028533936,8|0,0:0|0:0,0:0:0:0:
264,156,67433,2,0,L|276:296,1,140.25000428009,2|0,0:0|0:0,0:0:0:0:
320,340,67766,1,8,0:0:0:0:
177,199,67933,1,2,0:0:0:0:
368,240,68100,1,2,0:0:0:0:
200,332,68266,5,2,0:0:0:0:
200,332,68350,1,0,0:0:0:0:
200,332,68433,2,0,P|155:334|108:308,1,93.5000028533936,8|0,0:0|0:0,0:0:0:0:
69,175,68766,1,2,0:0:0:0:
264,156,68933,1,2,0:0:0:0:
94,58,69100,1,8,0:0:0:0:
174,235,69266,1,2,0:0:0:0:
227,85,69433,6,0,P|275:80|329:104,1,93.5000028533936,2|0,0:0|0:0,0:0:0:0:
342,120,69683,1,0,0:0:0:0:
366,144,69766,2,0,L|355:189,1,46.7500014266968,8|0,0:0|0:0,0:0:0:0:
436,284,69933,2,0,L|446:238,1,46.7500014266968,2|0,0:0|0:0,0:0:0:0:
312,312,70100,6,0,P|264:321|203:303,1,93.5000028533936,4|0,0:0|0:0,0:0:0:0:
162,258,70350,1,0,0:0:0:0:
162,258,70433,2,0,P|116:249|70:258,1,93.5000028533936,8|0,0:0|0:0,0:0:0:0:
115,345,70766,1,2,0:0:0:0:
268,224,70933,1,2,0:0:0:0:
80,132,71100,2,0,L|92:244,1,93.5000028533936,8|0,0:0|0:0,0:0:0:0:
292,112,71433,5,2,0:0:0:0:
168,168,71600,1,2,0:0:0:0:
352,168,71766,1,8,0:0:0:0:
312,32,71933,1,2,0:0:0:0:
268,224,72100,2,0,P|264:272|276:328,1,93.5000028533936,2|0,0:0|0:0,0:0:0:0:
355,260,72350,1,0,0:0:0:0:
355,260,72433,6,0,P|359:212|347:156,1,93.5000028533936,8|0,0:0|0:0,0:0:0:0:
108,19,72766,2,0,P|104:67|116:123,1,93.5000028533936,2|0,0:0|0:0,0:0:0:0:
168,168,73016,1,0,0:0:0:0:
168,168,73100,2,0,P|172:216|160:272,1,93.5000028533936,8|0,0:0|0:0,0:0:0:0:
88,212,73433,5,2,0:0:0:0:
355,260,73600,1,2,0:0:0:0:
264,100,73766,1,8,0:0:0:0:
140,296,73933,1,2,0:0:0:0:
396,239,74100,5,8,0:0:0:0:
168,168,74266,1,2,0:0:0:0:
367,137,74433,5,8,0:0:0:0:
88,212,74599,1,2,0:0:0:0:
452,164,74766,5,8,0:0:0:0:
91,126,74933,1,2,0:0:0:0:
72,160,75016,1,2,0:0:0:0:
61,197,75099,1,2,0:0:0:0:
58,235,75182,1,2,0:0:0:0:
63,274,75266,1,2,0:0:0:0:
76,310,75349,1,2,0:0:0:0:
96,343,75433,6,0,P|144:352|196:344,1,93.5000028533936,4|0,0:0|0:0,0:0:0:0:
244,290,75683,1,0,0:0:0:0:
244,290,75766,2,0,P|290:284|335:293,1,93.5000028533936,8|0,0:0|0:0,0:0:0:0:
416,340,76100,1,2,0:0:0:0:
320,200,76266,1,2,0:0:0:0:
452,164,76433,2,0,L|436:256,1,93.5000028533936,8|0,0:0|0:0,0:0:0:0:
292,360,76766,5,2,0:0:0:0:
160,172,76933,1,2,0:0:0:0:
320,200,77100,1,8,0:0:0:0:
128,326,77267,1,2,0:0:0:0:
252,116,77433,1,2,0:0:0:0:
388,284,77600,5,2,0:0:0:0:
400,312,77683,1,0,0:0:0:0:
416,340,77766,1,8,0:0:0:0:
456,200,77933,1,2,0:0:0:0:
264,334,78100,2,0,P|224:342|120:322,1,140.25000428009,2|0,0:0|0:0,0:0:0:0:
64,262,78433,2,0,P|60:212|76:152,1,93.5000028533936,8|0,0:0|0:0,0:0:0:0:
252,116,78766,5,2,0:0:0:0:
388,284,78933,1,2,0:0:0:0:
200,260,79100,1,8,0:0:0:0:
379,138,79267,1,2,0:0:0:0:
264,334,79433,5,2,0:0:0:0:
148,168,79600,1,2,0:0:0:0:
344,212,79766,1,8,0:0:0:0:
112,256,79933,1,2,0:0:0:0:
252,116,80100,1,2,0:0:0:0:
264,334,80266,1,0,0:0:0:0:
298,347,80349,1,0,0:0:0:0:
336,350,80432,1,8,0:0:0:0:
372,344,80515,1,0,0:0:0:0:
406,328,80599,1,0,0:0:0:0:
435,304,80682,1,0,0:0:0:0:
456,274,80766,6,0,L|464:156,1,93.5000028533936,4|0,0:0|0:0,0:0:0:0:
252,116,81100,2,0,P|296:160|344:168,1,93.5000028533936,8|0,0:0|0:0,0:0:0:0:
416,76,81433,1,2,0:0:0:0:
348,256,81600,1,2,0:0:0:0:
332,84,81766,1,8,0:0:0:0:
256,208,81933,1,2,0:0:0:0:
256,208,82016,1,0,0:0:0:0:
256,208,82100,6,0,P|208:216|140:192,1,93.5000028533936,2|0,0:0|0:0,0:0:0:0:
108,149,82350,1,0,0:0:0:0:
108,149,82433,2,0,P|62:139|16:147,1,93.5000028533936,8|0,0:0|0:0,0:0:0:0:
56,260,82766,1,0,0:0:0:0:
88,293,82849,1,0,0:0:0:0:
131,310,82932,1,0,0:0:0:0:
177,308,83015,1,0,0:0:0:0:
219,288,83100,1,8,0:0:0:0:
332,84,83266,1,2,0:0:0:0:
383,235,83433,6,0,P|283:199|231:223,1,140.25000428009,2|0,0:0|0:0,0:0:0:0:
144,232,83766,2,0,L|140:124,1,93.5000028533936,8|0,0:0|0:0,0:0:0:0:
332,84,84100,1,2,0:0:0:0:
308,280,84266,1,2,0:0:0:0:
140,138,84433,1,8,0:0:0:0:
164,334,84600,1,2,0:0:0:0:
258,210,84766,6,0,P|327:198|390:246,1,140.25000428009,2|0,0:0|0:0,0:0:0:0:
464,296,85100,2,0,L|476:192,1,93.5000028533936,8|8,0:0|0:0,0:0:0:0:
432,36,85433,2,0,L|424:120,1,46.7500014266968,8|0,0:0|0:0,0:0:0:0:
327,130,85600,2,0,L|335:46,1,46.7500014266968,2|0,0:0|0:0,0:0:0:0:
228,44,85766,1,8,0:0:0:0:
187,39,85849,1,0,0:0:0:0:
148,48,85932,1,0,0:0:0:0:
114,70,86015,1,0,0:0:0:0:
89,101,86100,6,0,L|104:264,1,136,4|0,0:0|0:0,0:0:0:0:
339,265,86766,2,0,L|324:102,1,136,4|0,0:0|0:0,0:0:0:0:
184,124,87433,5,8,0:0:0:0:
248,228,87600,1,2,0:0:0:0:
253,237,87683,1,0,0:0:0:0:
259,247,87766,1,8,0:0:0:0:
326,129,87933,1,2,0:0:0:0:
184,308,88100,1,8,0:0:0:0:
184,308,88433,6,0,L|68:300,1,85,2|0,0:0|0:0,0:0:0:0:
48,196,88766,2,0,P|80:192|136:200,1,85,12|0,0:0|0:0,0:0:0:0:
259,247,89100,2,0,P|300:253|343:249,1,85,2|0,0:0|0:0,0:0:0:0:
216,80,89433,2,0,L|204:192,1,85,8|0,0:0|0:0,0:0:0:0:
184,308,89766,1,0,0:0:0:0:
336,168,89933,1,0,0:0:0:0:
370,168,90016,1,0,0:0:0:0:
402,190,90100,1,8,0:0:0:0:
325,269,90266,1,0,0:0:0:0:
291,269,90349,1,0,0:0:0:0:
259,247,90433,5,8,0:0:0:0:
152,144,90600,1,0,0:0:0:0:
304,40,90766,2,0,L|292:152,1,85,8|0,0:0|0:0,0:0:0:0:
184,308,91100,1,2,0:0:0:0:
325,269,91266,1,2,0:0:0:0:
148,232,91433,6,0,P|116:260|96:312,1,85,4|0,0:0|0:0,0:0:0:0:
152,144,91766,2,0,P|143:102|108:58,1,85,8|0,0:0|0:0,0:0:0:0:
226,191,92100,2,0,P|266:204|321:196,1,85,2|0,0:0|0:0,0:0:0:0:
392,120,92433,2,0,P|351:106|296:114,1,85,8|0,0:0|0:0,0:0:0:0:
325,269,92766,1,2,0:0:0:0:
464,164,92933,1,0,0:0:0:0:
472,128,93016,1,0,0:0:0:0:
468,92,93100,1,8,0:0:0:0:
340,184,93266,5,0,0:0:0:0:
228,280,93433,2,0,P|192:288|128:268,1,85,2|0,0:0|0:0,0:0:0:0:
36,320,93766,1,8,0:0:0:0:
144,172,93933,1,0,0:0:0:0:
325,269,94100,6,0,L|448:284,1,85,4|0,0:0|0:0,0:0:0:0:
144,172,94433,2,0,L|21:157,1,85,4|0,0:0|0:0,0:0:0:0:
340,184,94766,2,0,L|352:72,1,85,4|0,0:0|0:0,0:0:0:0:
148,256,95100,2,0,L|136:368,1,85,4|0,0:0|0:0,0:0:0:0:
138,340,95350,1,0,0:0:0:0:
138,340,95433,1,8,0:0:0:0:
264,136,95600,5,2,0:0:0:0:
66,255,95766,1,8,0:0:0:0:
325,314,95933,1,2,0:0:0:0:
144,172,96100,2,0,P|132:112|160:44,1,127.5,8|0,0:0|0:0,0:0:0:0:
168,32,96433,1,8,0:0:0:0:
316,208,96600,1,2,0:0:0:0:
66,255,96766,1,8,0:0:0:0:
66,255,97266,5,2,0:0:0:0:
172,332,97433,2,0,P|217:344|307:326,1,127.5,4|0,0:0|0:0,0:0:0:0:
364,284,97766,1,8,0:0:0:0:
228,160,98100,2,0,L|232:256,1,85,2|0,0:0|0:0,0:0:0:0:
232,245,98350,1,0,0:0:0:0:
232,245,98433,1,8,0:0:0:0:
66,255,98600,1,2,0:0:0:0:
364,284,98766,5,12,0:0:0:0:
