osu file format v14

[General]
AudioFilename: sus.mp3
AudioLeadIn: 0
PreviewTime: 64084
Countdown: 0
SampleSet: Soft
StackLeniency: 0.5
Mode: 0
LetterboxInBreaks: 0
WidescreenStoryboard: 1

[Editor]
DistanceSpacing: 0.3
BeatDivisor: 4
GridSize: 32
TimelineZoom: 1.6

[Metadata]
Title:Hanagoyomi (Short Ver.)
TitleUnicode:華暦 (Short Ver.)
Artist:Ayumi.
ArtistUnicode:Ayumi.
Creator:dog food
Version:Hard
Source:花の野に咲くうたかたの
Tags:xiced door weapon eroge visual novel vn video game jpop pop japanese Hana no No ni Saku Utakata no The Sweet World of The Ephemeral
BeatmapID:3017078
BeatmapSetID:1469530

[Difficulty]
HPDrainRate:5
CircleSize:3.8
OverallDifficulty:6
ApproachRate:7.4
SliderMultiplier:1.4
SliderTickRate:1

[Events]
//Background and Video events
0,0,"bg.jpg",0,0
//Break Periods
2,28884,41379
//Storyboard Layer 0 (Background)
//Storyboard Layer 1 (Fail)
//Storyboard Layer 2 (Pass)
//Storyboard Layer 3 (Foreground)
//Storyboard Layer 4 (Overlay)
//Storyboard Sound Samples

[TimingPoints]
-434,500,4,2,4,45,1,0
1066,-166.666666666667,4,2,4,45,0,0
16885,333.333333333333,4,2,4,70,1,0
16885,-100,4,2,4,70,0,0
28884,-125,4,2,4,50,0,0
42218,-100,4,2,4,65,0,0
52884,-100,4,2,4,50,0,0
54218,-142.857142857143,4,2,4,50,0,0
55551,-100,4,2,4,70,0,0
58218,-142.857142857143,4,2,4,55,0,0
64884,-90.9090909090909,4,2,4,80,0,0
88884,-100,4,2,4,70,0,0
99551,-100,4,2,4,30,0,0

[Colours]
Combo1 : 240,140,140
Combo2 : 200,180,220
Combo3 : 240,200,155
Combo4 : 150,185,220

[HitObjects]
39,219,1066,6,0,P|54:236|61:270,1,41.9999987182618
30,362,1566,2,0,P|90:290|170:301,1,167.999994873047,6|0,0:0|0:0,0:0:0:0:
316,347,3066,2,0,P|328:324|327:302,1,41.9999987182618,0|0,0:0|0:0,0:0:0:0:
272,230,3566,2,0,L|259:51,1,167.999994873047,2|0,0:0|0:0,0:0:0:0:
64,147,5066,5,0,0:0:0:0:
64,147,5316,1,0,0:0:0:0:
127,212,5566,2,0,B|137:325|83:272|83:375,2,167.999994873047,2|2|2,0:0|0:0|0:0,0:0:0:0:
127,17,8066,1,0,0:0:0:0:
212,62,8316,1,0,0:0:0:0:
299,22,8566,2,0,P|341:32|392:39,1,83.9999974365235,0|0,0:0|0:0,0:0:0:0:
389,235,9566,6,0,P|434:238|459:353,1,167.999994873047,2|0,0:0|0:0,0:0:0:0:
278,263,11066,1,0,0:0:0:0:
117,345,11566,2,0,P|71:353|34:363,1,83.9999974365235,2|0,0:0|0:0,0:0:0:0:
106,192,12566,2,0,P|152:200|189:210,1,83.9999974365235,2|0,0:0|0:0,0:0:0:0:
413,133,13566,5,2,0:0:0:0:
338,55,14066,1,2,0:0:0:0:
185,54,14566,1,2,0:0:0:0:
168,219,15066,2,0,B|210:187|223:107|-2:113|2:233|38:196,1,251.999992309571,2|2,0:0|0:0,0:0:0:0:
132,344,16885,6,0,P|169:334|202:331,1,70,14|0,0:0|0:0,0:0:0:0:
236,206,17218,2,0,P|199:216|166:219,1,70,14|8,0:0|0:1,0:0:0:0:
78,251,17551,2,0,B|78:173|41:200|55:104,1,140,14|10,0:0|0:0,0:0:0:0:
119,44,18051,1,10,0:1:0:0:
207,103,18218,6,0,P|252:99|271:73,1,70,10|10,0:0|0:1,0:0:0:0:
273,73,18468,1,2,0:0:0:0:
273,62,18551,1,10,0:0:0:0:
361,17,18718,1,10,0:1:0:0:
443,82,18884,2,0,B|434:152|434:152|430:155|430:155|421:228,1,140,10|10,3:2|0:0,0:0:0:0:
354,299,19384,1,10,0:1:0:0:
268,241,19551,6,0,L|191:251,1,70,14|8,0:0|0:1,0:0:0:0:
116,183,19884,1,10,0:0:0:0:
176,118,20051,1,10,0:1:0:0:
137,44,20218,2,0,B|83:56|83:56|58:84|58:84|3:94,2,140,14|14|14,0:0|0:0|0:0,0:0:0:0:
231,16,21051,5,8,0:1:0:0:
231,16,21134,1,8,0:1:0:0:
231,16,21218,1,10,0:0:0:0:
284,93,21384,1,10,0:1:0:0:
363,34,21551,2,0,L|510:55,1,140,10|10,3:2|0:0,0:0:0:0:
429,142,22051,1,10,0:1:0:0:
490,212,22218,6,0,P|491:258|477:295,1,70,14|8,0:0|0:1,0:0:0:0:
372,348,22551,2,0,P|371:302|385:265,1,70,14|8,0:0|0:1,0:0:0:0:
301,192,22884,2,0,P|231:180|150:162,1,140,10|10,3:2|0:0,0:0:0:0:
74,209,23384,1,10,0:1:0:0:
18,129,23551,6,0,P|12:93|28:60,2,70,10|10|14,0:0|0:1|0:0,0:0:0:0:
74,209,24051,1,10,0:1:0:0:
163,165,24218,2,0,P|149:240|137:302,1,140,10|10,3:2|0:0,0:0:0:0:
194,372,24718,1,10,0:1:0:0:
286,349,24884,5,14,0:1:0:0:
264,166,25384,1,14,0:1:0:0:
264,166,25551,2,0,P|252:98|273:17,1,140,14|8,0:1|0:0,0:0:0:0:
494,188,26218,5,14,0:1:0:0:
466,106,26384,1,0,3:0:0:0:
466,106,26468,1,0,3:0:0:0:
466,106,26551,2,0,L|479:25,1,70,14|2,0:1|0:0,0:0:0:0:
366,71,26884,2,0,B|347:24|247:94|187:152|106:126|124:63,1,280,14|2,0:1|0:1,0:0:0:0:
139,171,42218,6,0,P|213:156|284:151,1,140,14|8,0:1|0:0,0:0:0:0:
360,213,42718,1,2,3:2:0:0:
360,213,42884,2,0,P|378:183|371:140,1,70,10|0,0:1|3:0,0:0:0:0:
347,52,43218,2,0,L|416:62,1,70,10|2,0:0|3:2,0:0:0:0:
444,160,43551,2,0,L|374:148,2,70,10|0|10,0:1|3:0|0:0,0:0:0:0:
489,250,44050,1,0,3:0:0:0:
413,321,44218,1,10,0:1:0:0:
413,321,44384,1,10,3:1:0:0:
413,321,44551,1,14,0:0:0:0:
165,341,44884,6,0,P|183:267|179:186,1,140,10|8,0:1|0:0,0:0:0:0:
121,137,45384,1,2,3:2:0:0:
172,62,45551,1,10,0:1:0:0:
238,117,45718,2,0,L|284:123,2,35,0|0|10,3:0|3:0|0:0,0:0:0:0:
316,33,46051,1,0,3:0:0:0:
417,102,46218,6,0,P|433:62|428:20,1,70,10|0,0:1|3:0,0:0:0:0:
432,35,46468,1,0,3:2:0:0:
432,35,46551,2,0,L|507:46,2,70,8|2|10,3:2|3:2|0:1,0:0:0:0:
485,147,47051,1,2,0:1:0:0:
485,147,47218,1,10,0:0:0:0:
282,18,47551,6,0,P|234:-5|204:70,1,140,14|8,0:1|0:0,0:0:0:0:
250,132,48051,1,2,3:2:0:0:
182,189,48218,2,0,L|98:193,1,70,10|0,0:1|3:0,0:0:0:0:
168,298,48551,2,0,L|258:310,1,70,8|0,0:0|3:0,0:0:0:0:
328,330,48884,2,0,P|337:287|313:244,1,70,10|0,0:1|3:0,0:0:0:0:
278,194,49218,1,10,0:0:0:0:
278,194,49384,1,0,3:0:0:0:
337,124,49551,2,0,L|349:39,2,70,10|10|10,0:1|3:1|0:0,0:0:0:0:
169,111,50218,5,10,0:1:0:0:
100,49,50384,2,0,L|56:59,2,35,0|0|10,3:0|3:0|0:0,0:0:0:0:
174,8,50718,1,0,3:0:0:0:
174,8,50801,1,0,3:0:0:0:
174,8,50884,2,0,L|264:23,1,70,10|0,0:1|3:0,0:0:0:0:
276,127,51218,2,0,L|366:142,1,70,10|0,0:0|3:0,0:0:0:0:
461,134,51551,6,0,P|455:197|447:206,1,70,10|0,0:1|3:0,0:0:0:0:
345,138,51884,2,0,P|342:68|365:2,2,140,10|10|10,0:0|0:1|0:0,0:0:0:0:
312,213,52718,1,0,3:0:0:0:
359,285,52884,1,2,0:1:0:0:
20,272,54218,6,0,L|-3:379,1,97.9999970092774,2|2,0:0|0:0,0:0:0:0:
188,240,54884,2,0,L|168:336,1,97.9999970092774,2|2,0:0|0:0,0:0:0:0:
69,166,55551,5,14,0:1:0:0:
121,88,55718,1,10,0:0:0:0:
121,88,55801,1,8,0:0:0:0:
121,88,55884,1,10,0:1:0:0:
207,151,56051,2,0,B|281:166|247:217|335:215,1,140,14|8,0:1|0:0,0:0:0:0:
403,121,56551,2,0,L|395:73,3,35,8|8|8|8,0:0|0:0|0:0|0:0,0:0:0:0:
399,70,56884,5,14,0:1:0:0:
329,8,57051,1,10,0:0:0:0:
329,8,57134,1,8,0:0:0:0:
329,8,57218,1,10,0:0:0:0:
241,55,57384,2,0,P|176:60|101:66,1,140,14|8,0:1|0:0,0:0:0:0:
51,154,57884,2,0,L|2:142,2,35,8|8|0,0:0|0:0|0:0,0:0:0:0:
122,244,58218,6,0,L|131:303,1,48.9999985046387,8|0,3:1|0:0,0:0:0:0:
187,365,58551,2,0,P|233:356|296:344,2,97.9999970092774,8|8|8,0:0|0:0|0:0,0:0:0:0:
129,292,59384,1,8,0:1:0:0:
215,248,59551,2,0,P|227:216|225:149,1,97.9999970092774,10|8,3:1|0:0,0:0:0:0:
159,91,60051,1,8,0:0:0:0:
217,21,60218,2,0,L|292:30,1,73.4999977569581,10|0,0:0|3:0,0:0:0:0:
289,29,60551,1,8,0:0:0:0:
357,92,60718,1,0,3:0:0:0:
445,59,60884,6,0,P|476:108|466:151,1,97.9999970092774,10|8,0:1|0:0,0:0:0:0:
443,231,61384,1,2,0:0:0:0:
354,201,61551,2,0,P|321:202|282:243,1,73.4999977569581,8|8,0:0|3:1,0:0:0:0:
289,225,61884,1,2,1:0:0:0:
242,295,62051,1,8,3:1:0:0:
312,348,62218,5,14,0:1:0:0:
256,192,62301,12,0,63551,0:0:0:0:
58,318,64884,6,0,P|119:300|174:290,1,115.50000352478,14|2,0:1|0:0,0:0:0:0:
180,284,65218,2,0,P|198:235|179:200,1,77.0000023498536,10|2,0:0|3:2,0:0:0:0:
72,162,65551,2,0,B|92:76|45:103|69:8,1,154.000004699707,10|10,0:1|0:0,0:0:0:0:
163,64,66051,1,0,3:2:0:0:
242,9,66218,2,0,P|282:20|323:26,1,77.0000023498536,10|2,0:1|3:2,0:0:0:0:
424,107,66551,2,0,P|442:73|440:35,1,77.0000023498536,10|2,0:0|3:2,0:0:0:0:
327,127,66884,2,0,B|312:225|362:187|336:281,1,154.000004699707,10|10,0:1|0:0,0:0:0:0:
337,276,67384,1,0,3:2:0:0:
292,358,67551,6,0,P|253:355|231:311,1,77.0000023498536,14|0,0:1|3:0,0:0:0:0:
233,314,67801,1,0,3:0:0:0:
236,302,67884,1,10,0:0:0:0:
298,198,68051,1,0,3:2:0:0:
220,127,68218,2,0,P|140:138|62:149,1,154.000004699707,10|10,0:1|0:0,0:0:0:0:
13,228,68718,1,2,3:2:0:0:
90,289,68884,6,0,P|90:330|84:365,1,77.0000023498536,10|2,0:1|3:2,0:0:0:0:
186,322,69218,1,10,0:0:0:0:
278,360,69384,1,2,3:2:0:0:
266,263,69551,2,0,B|286:172|232:203|248:101,1,154.000004699707,10|8,0:1|0:0,0:0:0:0:
382,161,70218,6,0,P|412:107|480:121,1,115.50000352478,14|0,0:1|0:0,0:0:0:0:
467,115,70551,2,0,L|474:197,1,77.0000023498536,10|0,0:0|3:0,0:0:0:0:
421,316,70884,2,0,P|370:326|332:270,1,115.50000352478,10|0,0:1|0:0,0:0:0:0:
326,271,71218,2,0,P|320:231|311:195,1,77.0000023498536,10|0,0:0|3:0,0:0:0:0:
352,76,71551,6,0,P|397:134|469:111,2,154.000004699707,14|10|10,0:1|0:0|0:1,0:0:0:0:
267,8,72384,1,0,3:0:0:0:
175,44,72551,2,0,L|85:60,1,77.0000023498536,8|0,0:0|3:0,0:0:0:0:
43,158,72884,6,0,P|63:213|77:274,1,115.50000352478,14|0,0:1|3:0,0:0:0:0:
85,275,73218,2,0,P|128:268|156:235,1,77.0000023498536,10|0,0:0|3:0,0:0:0:0:
209,161,73551,1,10,0:1:0:0:
209,161,73718,1,2,3:2:0:0:
285,231,73884,2,0,L|272:310,1,77.0000023498536,10|2,0:0|3:2,0:0:0:0:
390,298,74218,6,0,P|436:309|466:320,1,77.0000023498536,10|0,0:1|3:0,0:0:0:0:
433,195,74551,2,0,B|408:101|465:145|441:28,1,154.000004699707,10|10,0:0|0:1,0:0:0:0:
347,9,75051,1,14,0:0:0:0:
271,66,75218,1,14,0:0:0:0:
347,130,75384,5,8,0:0:0:0:
347,130,75468,1,8,0:0:0:0:
347,130,75551,2,0,P|329:227|320:287,1,154.000004699707,14|10,0:1|0:0,0:0:0:0:
255,335,76051,1,0,3:0:0:0:
181,282,76218,2,0,P|122:282|93:354,1,115.50000352478,10|2,0:1|0:0,0:0:0:0:
87,335,76551,1,10,0:0:0:0:
9,260,76718,1,0,3:0:0:0:
79,190,76884,6,0,P|84:146|92:112,1,77.0000023498536,10|2,0:1|3:2,0:0:0:0:
97,104,77134,1,0,3:0:0:0:
107,98,77218,2,0,P|151:103|185:111,1,77.0000023498536,10|2,0:0|3:2,0:0:0:0:
283,192,77551,2,0,P|304:129|298:39,1,154.000004699707,10|10,0:1|0:0,0:0:0:0:
298,42,78051,1,2,3:2:0:0:
394,71,78218,6,0,P|459:71|504:120,1,115.50000352478,10|2,0:1|3:2,0:0:0:0:
494,113,78551,2,0,L|476:195,1,77.0000023498536,10|0,0:0|3:2,0:0:0:0:
378,269,78884,2,0,B|290:242|362:200|249:170,1,154.000004699707,10|10,0:1|0:0,0:0:0:0:
175,206,79384,1,2,3:2:0:0:
117,133,79551,6,0,L|127:84,3,38.5000011749268,10|2|2|2,0:1|0:0|3:2|0:0,0:0:0:0:
134,89,79884,1,10,0:0:0:0:
223,51,80051,1,2,3:2:0:0:
308,107,80218,2,0,P|390:102|479:83,1,154.000004699707,10|10,0:1|0:0,0:0:0:0:
321,345,80884,6,0,P|350:297|337:243,1,115.50000352478,14|0,0:1|0:0,0:0:0:0:
326,238,81217,2,0,L|233:223,1,77.0000023498536,10|0,0:0|3:0,0:0:0:0:
97,104,81551,2,0,B|129:152|129:152|181:123,1,115.50000352478,10|0,0:1|0:0,0:0:0:0:
184,113,81884,2,0,L|179:34,1,77.0000023498536,10|0,0:0|3:0,0:0:0:0:
312,89,82217,6,0,B|406:101|360:153|455:160,2,154.000004699707,10|10|10,0:1|0:0|0:1,0:0:0:0:
250,165,83050,1,0,3:0:0:0:
302,239,83218,2,0,P|296:279|286:329,1,77.0000023498536,8|0,0:0|3:0,0:0:0:0:
173,363,83551,6,0,P|114:358|98:306,1,115.50000352478,10|2,0:1|3:2,0:0:0:0:
100,299,83884,2,0,B|111:262|111:262|87:216,1,77.0000023498536,10|0,0:0|3:2,0:0:0:0:
27,155,84217,1,10,0:1:0:0:
27,155,84384,1,0,3:0:0:0:
101,93,84551,2,0,L|184:109,1,77.0000023498536,10|0,0:0|3:0,0:0:0:0:
270,166,84884,6,0,P|282:133|282:90,1,77.0000023498536,10|0,0:1|3:0,0:0:0:0:
157,198,85218,1,10,0:0:0:0:
157,198,85384,1,8,3:2:0:0:
222,288,85551,2,0,P|261:281|309:275,1,77.0000023498536,10|0,0:1|3:0,0:0:0:0:
399,342,85884,5,10,0:0:0:0:
399,342,85968,1,8,0:0:0:0:
399,342,86051,1,10,0:0:0:0:
399,342,86134,1,8,0:0:0:0:
399,342,86217,2,0,P|410:265|425:190,1,154.000004699707,14|2,0:1|0:0,0:0:0:0:
230,12,86884,2,0,P|218:88|203:163,1,154.000004699707,14|2,0:1|0:0,0:0:0:0:
14,373,87551,6,0,P|19:329|27:295,1,77.0000023498536,14|10,0:1|0:0,0:0:0:0:
27,298,87800,1,8,0:0:0:0:
27,298,87884,2,0,P|71:303|105:311,1,77.0000023498536,10|10,0:0|0:0,0:0:0:0:
191,384,88217,2,0,P|220:323|191:240,1,154.000004699707,10|8,0:1|0:0,0:0:0:0:
194,244,88717,1,2,0:0:0:0:
312,224,88884,6,0,P|370:232|431:244,1,105,14|0,0:0|0:0,0:0:0:0:
425,236,89217,2,0,P|448:199|441:161,1,70,14|8,0:0|0:1,0:0:0:0:
335,102,89550,2,0,P|251:79|248:32,1,140,14|10,0:0|0:0,0:0:0:0:
246,38,90050,1,10,0:1:0:0:
146,121,90218,6,0,L|129:196,1,70,14|10,0:0|0:1,0:0:0:0:
127,199,90468,1,2,0:0:0:0:
122,208,90551,1,10,0:0:0:0:
46,308,90718,1,10,0:1:0:0:
152,350,90884,2,0,P|226:342|299:338,1,140,10|10,3:2|0:0,0:0:0:0:
386,376,91384,1,8,0:1:0:0:
464,304,91551,6,0,P|468:269|468:234,1,70,14|0,0:0|0:0,0:0:0:0:
386,170,91884,1,10,0:0:0:0:
437,99,92051,1,10,0:1:0:0:
369,52,92218,2,0,P|294:55|227:68,2,140,14|14|14,0:0|0:0|0:0,0:0:0:0:
303,154,93051,5,10,0:1:0:0:
303,154,93134,1,2,0:0:0:0:
303,154,93218,1,10,0:0:0:0:
209,186,93384,1,10,0:1:0:0:
138,121,93551,2,0,L|-9:142,1,140,10|10,3:2|0:0,0:0:0:0:
63,221,94051,1,8,0:1:0:0:
8,297,94218,6,0,P|7:343|21:380,1,70,14|0,0:0|0:0,0:0:0:0:
185,289,94551,2,0,P|186:243|172:206,1,70,14|8,0:0|0:1,0:0:0:0:
110,328,94884,2,0,P|179:337|248:349,1,140,14|10,0:0|0:0,0:0:0:0:
333,315,95384,1,8,0:1:0:0:
440,365,95551,6,0,P|446:329|430:296,1,70,14|10,0:0|0:1,0:0:0:0:
339,230,95884,2,0,P|332:196|346:164,1,70,10|10,0:0|0:1,0:0:0:0:
445,169,96218,2,0,P|456:99|471:31,1,140,10|10,3:2|0:0,0:0:0:0:
373,57,96718,1,8,0:1:0:0:
299,7,96884,5,14,0:1:0:0:
305,319,97384,1,14,0:1:0:0:
305,319,97551,2,0,P|366:324|443:376,1,140,14|8,0:1|0:0,0:0:0:0:
157,365,98218,5,14,0:1:0:0:
64,306,98384,1,2,0:0:0:0:
64,306,98468,1,2,0:0:0:0:
64,306,98551,2,0,L|77:225,1,70,10|2,0:1|0:0,0:0:0:0:
142,118,98884,2,0,B|161:71|261:141|321:199|402:173|384:110,1,280,14|0,0:1|0:0,0:0:0:0:
