osu file format v14

[General]
AudioFilename: sus.mp3
AudioLeadIn: 0
PreviewTime: 64084
Countdown: 0
SampleSet: Soft
StackLeniency: 0.3
Mode: 0
LetterboxInBreaks: 0
WidescreenStoryboard: 0

[Editor]
DistanceSpacing: 1.2
BeatDivisor: 4
GridSize: 32
TimelineZoom: 1.6

[Metadata]
Title:Hanagoyomi (Short Ver.)
TitleUnicode:華暦 (Short Ver.)
Artist:Ayumi.
ArtistUnicode:Ayumi.
Creator:dog food
Version:Blossom
Source:花の野に咲くうたかたの
Tags:xiced door weapon eroge visual novel vn video game jpop pop japanese Hana no No ni Saku Utakata no The Sweet World of The Ephemeral
BeatmapID:3017076
BeatmapSetID:1469530

[Difficulty]
HPDrainRate:7
CircleSize:4
OverallDifficulty:8.2
ApproachRate:9
SliderMultiplier:1.74
SliderTickRate:1

[Events]
//Background and Video events
0,0,"bg.jpg",0,0
//Break Periods
//Storyboard Layer 0 (Background)
//Storyboard Layer 1 (Fail)
//Storyboard Layer 2 (Pass)
//Storyboard Layer 3 (Foreground)
//Storyboard Layer 4 (Overlay)
//Storyboard Sound Samples

[TimingPoints]
-434,500,4,2,4,45,1,0
1566,-125,4,2,4,45,0,0
16885,333.333333333333,4,2,4,70,1,0
16885,-66.6666666666667,4,2,4,70,0,0
17218,-83.3333333333333,4,2,4,70,0,0
20218,-71.4285714285714,4,2,4,70,0,0
20551,-100,4,2,4,70,0,0
20884,-83.3333333333333,4,2,4,70,0,0
27551,-83.3333333333333,4,2,4,50,0,0
28884,-250,4,2,4,50,0,0
42218,-100,4,2,4,65,0,0
47218,-76.9230769230769,4,2,4,65,0,0
47551,-100,4,2,4,65,0,0
52884,-100,4,2,4,50,0,0
55551,-71.4285714285714,4,2,4,70,0,0
58218,-71.4285714285714,4,2,4,55,0,0
64218,-250,4,2,4,30,0,0
64468,-250,4,2,4,5,0,0
64551,-166.666666666667,4,2,4,40,0,0
64801,-166.666666666667,4,2,4,5,0,0
64884,-62.5,4,2,4,80,0,1
65551,-76.9230769230769,4,2,4,80,0,1
71884,-71.4285714285714,4,2,4,80,0,1
72218,-66.6666666666667,4,2,4,80,0,1
72884,-76.9230769230769,4,2,4,80,0,1
80551,-125,4,2,4,80,0,1
80884,-76.9230769230769,4,2,4,80,0,1
82551,-71.4285714285714,4,2,4,80,0,1
82884,-66.6666666666667,4,2,4,80,0,1
83551,-76.9230769230769,4,2,4,80,0,1
86218,-66.6666666666667,4,2,4,80,0,1
88551,-66.6666666666667,4,2,4,80,0,0
88884,-66.6666666666667,4,2,4,70,0,0
89218,-83.3333333333333,4,2,4,70,0,0
92218,-71.4285714285714,4,2,4,70,0,0
92551,-125,4,2,4,70,0,0
92884,-83.3333333333333,4,2,4,70,0,0
98884,-100,4,2,4,70,0,0
99551,-100,4,2,4,30,0,0

[Colours]
Combo1 : 240,140,140
Combo2 : 200,180,220
Combo3 : 240,200,155
Combo4 : 150,185,220

[HitObjects]
19,185,1482,5,2,0:0:0:0:
26,192,1566,2,0,B|189:257|126:60|315:123|315:123|255:117|219:172,1,417.6,6|0,0:0|0:0,0:0:0:0:
417,256,3566,2,0,B|387:325|464:365|464:365|555:308|539:164|437:132,1,417.6,2|0,0:0|0:0,0:0:0:0:
346,173,5316,1,0,0:0:0:0:
260,116,5566,6,0,P|204:109|164:185,1,139.2,2|0,0:0|0:0,0:0:0:0:
349,384,6566,2,0,P|351:317|293:285,1,139.2,2|0,0:0|0:0,0:0:0:0:
55,294,7566,2,0,P|146:337|259:115,1,417.6,2|0,0:0|0:0,0:0:0:0:
319,353,9482,5,2,0:0:0:0:
327,353,9566,2,0,B|341:275|450:248|519:289|519:289|388:278|354:368,1,417.6,2|0,0:0|0:0,0:0:0:0:
354,204,11566,2,0,P|346:131|410:92,1,139.2,2|0,0:0|0:0,0:0:0:0:
470,85,12316,1,0,0:0:0:0:
507,12,12566,1,2,0:0:0:0:
278,80,13066,1,0,0:0:0:0:
198,51,13566,5,2,0:0:0:0:
419,174,14066,5,2,0:0:0:0:
313,143,14566,5,2,0:0:0:0:
163,365,15066,6,2,B|220:398|297:285|224:171|140:228|59:289|-6:158|89:93,1,417.6,2|2,0:0|0:0,0:1:0:0:
256,34,16885,6,0,B|298:61|310:121|283:159|283:159|261:135|280:104,1,195.75000746727,14|0,0:0|0:0,0:0:0:0:
285,104,17218,2,0,P|317:67|372:69,1,104.399996813965,14|8,0:0|0:1,0:0:0:0:
486,194,17551,1,14,0:0:0:0:
340,315,17718,5,8,0:1:0:0:
346,308,17801,1,8,0:1:0:0:
356,304,17885,1,10,0:0:0:0:
191,368,18051,1,10,0:1:0:0:
81,338,18218,5,10,0:0:0:0:
300,229,18385,1,10,0:1:0:0:
306,218,18468,1,2,0:0:0:0:
306,205,18551,1,10,0:0:0:0:
187,234,18718,1,10,0:1:0:0:
370,53,18884,6,0,P|292:39|215:25,1,156.599995220947,10|0,3:2|0:0,0:0:0:0:
204,30,19218,1,10,0:0:0:0:
274,174,19384,1,10,0:1:0:0:
59,36,19551,6,0,P|24:95|45:136,1,104.399996813965,14|8,0:0|0:1,0:0:0:0:
152,358,19884,1,10,0:0:0:0:
34,270,20051,1,10,0:1:0:0:
197,211,20218,6,0,B|303:224|216:305|365:306,1,182.699994424439,14|0,0:0|0:0,0:0:0:0:
433,266,20551,6,0,P|431:219|354:225,1,130.5,14|0,0:0|0:0,0:0:0:0:
339,304,20884,6,0,B|333:339|347:356|347:356|343:334|355:306,1,104.399996813965,14|8,0:0|0:1,0:0:0:0:
365,309,21134,1,8,0:1:0:0:
372,316,21218,1,10,0:0:0:0:
470,365,21384,1,10,0:1:0:0:
281,159,21551,6,0,P|198:158|169:226,1,156.599995220947,10|0,3:2|0:0,0:0:0:0:
217,289,21884,1,10,0:0:0:0:
84,344,22051,1,10,0:1:0:0:
311,350,22218,6,0,P|342:306|324:259,1,104.399996813965,14|8,0:0|0:1,0:0:0:0:
225,64,22551,2,0,P|193:106|211:153,1,104.399996813965,14|8,0:0|0:1,0:0:0:0:
479,107,22884,6,0,P|395:117|316:129,1,156.599995220947,10|0,3:2|0:0,0:0:0:0:
314,125,23218,1,10,0:0:0:0:
152,15,23384,1,10,0:1:0:0:
0,289,23551,5,10,0:0:0:0:
134,131,23718,1,10,0:1:0:0:
56,182,23884,5,14,0:0:0:0:
270,310,24051,1,10,0:1:0:0:
476,231,24218,6,0,P|466:134|455:61,1,156.599995220947,10|0,3:2|0:0,0:0:0:0:
447,68,24551,1,10,0:0:0:0:
332,222,24718,1,10,0:1:0:0:
182,78,24884,6,0,L|173:12,1,52.1999984069825,14|0,0:1|0:0,0:0:0:0:
90,367,25384,6,0,L|154:378,1,52.1999984069825,14|0,0:1|0:0,0:0:0:0:
240,323,25551,2,0,B|258:280|238:209|180:192|180:192|203:223|204:255,1,208.79999362793,14|8,0:1|0:0,0:0:0:0:
201,234,26218,6,0,B|161:245|161:245|140:263|140:263|106:275,1,104.399996813965,14|0,0:1|3:0,0:0:0:0:
31,233,26468,1,0,3:0:0:0:
29,226,26551,1,14,0:1:0:0:
191,116,26718,5,2,0:0:0:0:
318,223,26884,2,2,B|403:288|540:231|522:110|522:110|435:70|399:146,1,417.59998725586,14|2,0:1|0:1,0:1:0:0:
323,140,27718,5,0,0:0:0:0:
262,81,27884,1,2,0:0:0:0:
322,17,28051,1,0,0:0:0:0:
252,88,28218,5,2,0:0:0:0:
174,54,28384,1,0,0:0:0:0:
79,92,28551,5,2,0:0:0:0:
89,93,28718,1,0,0:0:0:0:
29,187,28884,6,0,P|19:243|9:299,1,104.4,2|0,0:0|0:0,0:0:0:0:
126,362,29551,2,0,P|148:315|122:266,1,104.4,2|0,0:0|0:0,0:0:0:0:
70,168,30218,5,2,0:0:0:0:
113,105,30384,1,0,0:0:0:0:
61,163,30551,2,0,L|26:168,1,34.8,2|0,0:0|0:0,0:0:0:0:
155,31,30884,2,0,L|233:43,1,69.6,2|0,0:0|0:0,0:0:0:0:
456,139,31551,6,0,P|483:95|464:43,1,104.4,2|0,0:0|0:0,0:0:0:0:
353,180,32218,2,0,P|325:223|344:275,1,104.4,2|0,0:0|0:0,0:0:0:0:
466,341,32884,5,2,0:0:0:0:
421,277,33051,1,0,0:0:0:0:
339,270,33218,1,2,0:0:0:0:
288,335,33384,1,0,0:0:0:0:
335,261,33551,2,0,P|300:244|259:242,1,69.6,2|0,0:0|0:0,0:0:0:0:
99,366,34218,6,0,P|113:376|172:328,1,104.4,2|0,0:0|0:0,0:0:0:0:
46,250,34884,2,0,L|36:214,2,34.8,2|0|0,0:0|0:0|0:0,0:0:0:0:
124,211,35384,1,0,0:0:0:0:
220,249,35551,2,0,L|265:256,1,34.8,2|0,0:0|0:0,0:0:0:0:
411,313,35884,1,2,0:0:0:0:
397,311,36051,1,2,0:0:0:0:
324,358,36218,2,0,P|306:361|288:372,2,34.8,2|0|0,0:0|0:0|0:0,0:0:0:0:
460,246,36884,6,0,P|481:204|460:147,1,104.4,2|0,0:0|0:0,0:0:0:0:
370,79,37551,2,0,L|382:-2,1,69.6,2|0,0:0|0:0,0:0:0:0:
279,44,38218,1,2,0:0:0:0:
194,11,38384,1,0,0:0:0:0:
194,18,38468,1,0,0:0:0:0:
194,26,38551,1,2,0:0:0:0:
143,95,38718,1,2,0:0:0:0:
221,135,38884,1,2,0:0:0:0:
101,256,39218,2,0,L|109:293,1,34.8,2|0,0:0|0:0,0:0:0:0:
204,346,39551,5,2,0:0:0:0:
277,360,39718,1,0,0:0:0:0:
315,295,39884,1,0,0:0:0:0:
265,238,40051,1,0,0:0:0:0:
195,269,40218,1,2,0:0:0:0:
195,269,40551,1,0,0:0:0:0:
122,216,40718,6,0,L|124:204,2,11.6
116,226,40884,1,2,0:0:0:0:
34,175,41051,1,0,0:0:0:0:
131,108,41218,1,0,0:0:0:0:
246,158,41384,1,0,0:0:0:0:
355,124,41551,5,2,0:0:0:0:
351,110,41662,1,0,0:0:0:0:
335,100,41773,1,0,0:0:0:0:
337,10,41884,5,2,0:0:0:0:
303,10,41996,1,0,0:0:0:0:
268,43,42107,1,0,0:0:0:0:
324,106,42218,6,0,P|405:118|512:141,1,174,14|8,0:1|0:0,0:0:0:0:
436,36,42718,1,2,3:2:0:0:
326,236,42884,2,0,P|351:278|392:277,1,87,10|0,0:1|3:0,0:0:0:0:
459,239,43134,1,0,3:0:0:0:
453,226,43218,1,10,0:0:0:0:
306,360,43384,1,2,3:2:0:0:
177,312,43551,6,0,P|125:323|86:330,1,87,10|0,0:1|3:0,0:0:0:0:
235,148,43884,2,0,P|287:137|326:130,1,87,10|0,0:0|3:0,0:0:0:0:
205,21,44218,1,10,0:1:0:0:
126,165,44384,1,10,3:1:0:0:
261,246,44551,2,0,P|298:295|366:292,1,130.5,14|0,0:0|0:0,0:0:0:0:
370,286,44884,6,0,B|409:258|409:258|386:192|426:109,1,174,10|8,0:1|0:0,0:0:0:0:
346,5,45384,1,2,3:2:0:0:
218,81,45551,1,10,0:1:0:0:
295,130,45718,1,0,3:0:0:0:
300,121,45801,1,0,3:0:0:0:
303,109,45884,1,10,0:0:0:0:
269,211,46051,1,0,3:0:0:0:
120,162,46218,6,0,P|56:172|20:179,1,87,10|0,0:1|3:0,0:0:0:0:
20,272,46468,1,0,3:2:0:0:
45,263,46551,1,8,3:2:0:0:
67,277,46634,1,2,0:0:0:0:
69,292,46718,1,2,3:2:0:0:
186,361,46884,1,10,0:1:0:0:
360,313,47051,6,2,L|369:265,1,43.5,2|0,0:1|0:1,0:1:0:0:
352,174,47218,2,2,B|318:158|276:198|276:198|267:198|267:198|246:241|196:234,1,169.64999223404,10|0,0:0|0:1,0:1:0:0:
199,225,47551,6,0,P|110:226|112:299,1,174,14|8,0:1|0:0,0:0:0:0:
190,359,48051,1,2,3:2:0:0:
104,187,48218,2,0,P|111:144|119:101,1,87,10|0,0:1|3:0,0:0:0:0:
259,8,48551,2,0,P|286:44|270:88,1,87,8|0,0:0|3:0,0:0:0:0:
374,205,48884,6,0,P|422:196|463:193,1,87,10|0,0:1|3:0,0:0:0:0:
319,348,49218,2,0,P|271:339|230:336,1,87,10|0,0:0|3:0,0:0:0:0:
223,129,49551,1,10,0:1:0:0:
311,233,49718,1,10,3:1:0:0:
420,120,49884,2,2,P|438:67|404:-8,1,130.5,10|0,0:0|0:1,0:1:0:0:
402,0,50218,5,10,0:1:0:0:
307,55,50384,1,0,3:0:0:0:
298,51,50468,1,0,3:0:0:0:
288,45,50551,1,10,0:0:0:0:
169,112,50718,1,0,3:0:0:0:
159,116,50801,1,0,3:0:0:0:
149,120,50884,1,10,0:1:0:0:
97,33,51051,1,0,3:0:0:0:
190,0,51218,5,10,0:0:0:0:
25,132,51384,1,0,3:0:0:0:
164,349,51551,6,0,P|184:299|170:266,1,87,10|0,0:1|3:0,0:0:0:0:
78,208,51884,1,10,0:0:0:0:
2,258,52051,1,2,3:2:0:0:
213,134,52218,2,0,B|320:148|263:77|366:61,1,174,10|10,0:1|0:0,0:0:0:0:
441,118,52718,1,0,3:0:0:0:
228,33,52884,6,2,P|207:27|194:25,1,21.75,2|0,0:1|0:1,0:1:0:0:
61,76,53551,1,2,0:0:0:0:
23,10,53884,1,2,0:0:0:0:
137,153,54051,5,0,0:0:0:0:
135,166,54134,1,0,0:0:0:0:
133,179,54218,1,2,0:0:0:0:
35,315,54551,1,2,0:0:0:0:
107,375,54884,5,2,0:0:0:0:
39,187,55218,1,2,0:0:0:0:
174,4,55551,6,0,L|184:76,1,60.8999981414796,14|0,0:1|0:0,0:0:0:0:
330,189,55718,1,10,0:0:0:0:
344,159,55801,1,8,0:0:0:0:
332,132,55884,2,0,L|259:139,1,60.8999981414796,10|0,0:1|0:0,0:0:0:0:
332,311,56051,2,0,B|351:351|411:348|411:348|449:298|504:310,1,182.699994424439,14|0,0:1|0:0,0:0:0:0:
499,316,56384,1,8,0:0:0:0:
441,197,56551,5,8,0:0:0:0:
455,181,56634,1,8,0:0:0:0:
449,161,56718,1,8,0:0:0:0:
424,164,56801,1,8,0:0:0:0:
428,189,56884,2,0,P|446:157|434:117,1,60.8999981414796,14|0,0:1|0:0,0:0:0:0:
367,41,57051,5,10,0:0:0:0:
353,42,57134,1,8,0:0:0:0:
336,45,57218,2,0,L|260:57,1,60.8999981414796,10|0,0:0|0:0,0:0:0:0:
137,218,57384,2,0,P|159:292|246:261,1,182.699994424439,14|0,0:1|0:0,0:0:0:0:
242,253,57718,1,8,0:0:0:0:
190,137,57884,5,8,0:0:0:0:
184,107,57968,1,8,0:0:0:0:
38,78,58134,5,8,0:1:0:0:
86,15,58218,1,8,3:1:0:0:
248,6,58468,1,0,3:0:0:0:
248,6,58551,1,8,0:0:0:0:
327,29,58718,1,8,0:0:0:0:
266,88,58884,5,8,0:0:0:0:
404,144,59134,1,0,3:0:0:0:
414,139,59218,1,8,0:0:0:0:
322,193,59384,1,8,0:1:0:0:
166,156,59551,5,10,3:1:0:0:
106,216,59801,1,0,3:0:0:0:
106,216,59884,1,8,0:0:0:0:
174,251,60051,1,8,0:0:0:0:
240,200,60218,5,10,0:0:0:0:
137,42,60468,1,0,3:0:0:0:
143,52,60551,1,8,0:0:0:0:
220,61,60718,1,0,3:0:0:0:
296,69,60884,5,10,0:1:0:0:
411,184,61134,1,0,3:0:0:0:
411,184,61218,1,8,0:0:0:0:
353,239,61384,1,10,0:0:0:0:
325,160,61551,5,8,0:0:0:0:
205,293,61801,1,8,3:1:0:0:
398,344,62051,1,8,3:1:0:0:
318,256,62218,5,14,0:1:0:0:
256,192,62301,12,0,63551,0:0:0:0:
50,301,64218,6,2,P|61:321|64:309,1,52.2,0|0,0:1|0:1,0:1:0:0:
54,315,64551,2,2,L|45:224,1,78.2999976104737,0|0,0:1|0:1,0:1:0:0:
40,153,64884,6,0,B|74:147|102:170|102:170|85:127|33:135,1,139.2,14|0,0:1|3:0,0:0:0:0:
10,60,65134,1,2,0:0:0:0:
15,49,65218,1,10,0:0:0:0:
298,23,65384,1,2,3:2:0:0:
320,209,65551,6,0,P|258:216|233:123,1,169.64999223404,10|0,0:1|0:0,0:0:0:0:
237,123,65884,1,10,0:0:0:0:
54,255,66051,1,0,3:2:0:0:
0,184,66218,5,10,0:1:0:0:
242,206,66384,1,2,3:2:0:0:
76,382,66551,5,10,0:0:0:0:
185,314,66718,1,2,3:2:0:0:
327,365,66884,6,0,P|404:346|504:330,1,169.64999223404,10|0,0:1|0:0,0:0:0:0:
501,324,67218,1,10,0:0:0:0:
314,216,67384,1,0,3:2:0:0:
451,35,67551,6,0,P|490:82|474:135,1,113.099994822693,14|0,0:1|3:0,0:0:0:0:
440,207,67801,1,0,3:0:0:0:
431,205,67884,1,10,0:0:0:0:
267,63,68051,1,0,3:2:0:0:
129,280,68218,6,0,P|205:283|223:176,1,169.64999223404,10|0,0:1|0:0,0:0:0:0:
232,200,68551,1,10,0:0:0:0:
334,358,68718,1,2,3:2:0:0:
490,223,68884,5,10,0:1:0:0:
421,164,69051,1,2,3:2:0:0:
314,158,69218,1,10,0:0:0:0:
217,243,69384,1,2,3:2:0:0:
305,374,69551,2,0,B|366:386|366:386|420:363|440:290|376:238,1,226.199989645386,10|8,0:1|0:0,0:0:0:0:
148,133,70218,6,0,B|135:152|142:175|142:175|180:151|183:98|155:55,1,169.64999223404,14|0,0:1|0:0,0:0:0:0:
77,11,70551,2,0,P|36:4|6:76,1,113.099994822693,10|0,0:0|3:0,0:0:0:0:
48,267,70884,6,0,B|89:272|111:310|111:310|118:256|60:234,1,169.64999223404,10|0,0:1|0:0,0:0:0:0:
44,372,71218,2,0,P|109:343|109:303,1,113.099994822693,10|0,0:0|3:0,0:0:0:0:
98,144,71551,6,0,B|66:110|84:67|84:67|120:100|99:145,1,169.64999223404,14|0,0:1|0:0,0:0:0:0:
217,194,71884,2,0,B|239:199|273:209|273:209|332:166|290:98,1,182.699994424439,10|0,0:0|0:0,0:0:0:0:
173,25,72218,2,0,B|207:104|282:92|282:92|318:26|402:34,1,261.00000995636,10|8,0:1|0:0,0:0:0:0:
380,33,72718,1,0,3:0:0:0:
501,209,72884,6,0,B|457:195|457:195|443:177|443:177|390:158,1,113.099994822693,14|0,0:1|3:0,0:0:0:0:
323,185,73134,1,0,3:0:0:0:
314,188,73218,1,10,0:0:0:0:
417,312,73384,1,0,3:0:0:0:
338,356,73551,5,10,0:1:0:0:
441,66,73718,1,2,3:2:0:0:
322,2,73884,5,10,0:0:0:0:
501,209,74051,1,2,3:2:0:0:
376,259,74218,6,0,P|321:243|266:231,1,113.099994822693,10|0,0:1|3:0,0:0:0:0:
106,36,74551,2,0,P|160:51|215:63,1,113.099994822693,10|0,0:0|3:0,0:0:0:0:
13,202,74884,1,10,0:1:0:0:
91,161,75051,5,14,0:0:0:0:
291,354,75218,1,14,0:0:0:0:
477,165,75384,5,8,0:0:0:0:
447,151,75468,1,8,0:0:0:0:
404,158,75551,1,14,0:1:0:0:
310,239,75718,1,0,3:0:0:0:
172,119,75884,1,10,0:0:0:0:
35,292,76051,1,0,3:0:0:0:
247,322,76218,6,0,B|217:366|217:366|206:300,1,113.099994822693,10|0,0:1|3:0,0:0:0:0:
183,227,76468,1,2,0:0:0:0:
177,220,76551,1,10,0:0:0:0:
376,348,76718,1,0,3:0:0:0:
473,298,76884,5,10,0:1:0:0:
278,213,77051,1,2,3:2:0:0:
183,227,77218,5,10,0:0:0:0:
423,96,77384,1,2,3:2:0:0:
233,125,77551,6,0,B|141:120|197:45|101:34,1,169.64999223404,10|0,0:1|0:0,0:0:0:0:
91,44,77884,1,10,0:0:0:0:
294,6,78051,1,2,3:2:0:0:
473,160,78218,6,0,P|508:104|483:54,1,113.099994822693,10|0,0:1|3:0,0:0:0:0:
429,14,78468,1,2,3:2:0:0:
417,17,78551,1,10,0:0:0:0:
289,138,78718,1,0,3:2:0:0:
463,320,78884,6,0,P|371:301|288:284,1,169.64999223404,10|0,0:1|0:0,0:0:0:0:
286,277,79218,1,10,0:0:0:0:
406,110,79384,1,2,3:2:0:0:
112,59,79551,5,10,0:1:0:0:
123,62,79634,5,2,0:0:0:0:
138,74,79718,5,2,3:2:0:0:
157,98,79801,5,2,0:0:0:0:
155,146,79884,5,10,0:0:0:0:
181,192,79968,5,2,0:0:0:0:
241,203,80051,5,2,3:2:0:0:
297,149,80134,5,2,0:0:0:0:
248,77,80218,5,10,0:1:0:0:
258,62,80301,2,0,B|301:52|301:52|318:35|318:35|371:23,1,113.099994822693,8|4,0:0|0:3,0:0:0:0:
411,157,80551,2,0,L|503:177,1,69.6,10|0,0:0|3:3,0:0:0:0:
286,282,80884,6,0,P|222:279|197:384,1,169.64999223404,14|0,0:1|0:0,0:0:0:0:
319,378,81218,2,0,P|322:323|270:276,1,113.099994822693,10|0,0:0|3:0,0:0:0:0:
178,128,81551,6,0,B|158:167|181:207|181:207|177:166|205:125,1,169.64999223404,10|0,0:1|0:0,0:0:0:0:
328,117,81884,2,0,P|318:176|258:170,1,113.099994822693,10|0,0:0|3:0,0:0:0:0:
16,349,82218,6,0,B|52:388|52:388|90:326|186:342,1,169.64999223404,10|0,0:1|0:0,0:0:0:0:
250,277,82551,2,0,B|292:309|294:353|294:353|293:305|327:257,1,182.699994424439,10|0,0:0|0:0,0:0:0:0:
273,181,82884,2,0,B|236:135|157:127|117:194|117:194|147:249|185:224,1,261.00000995636,10|8,0:1|0:0,0:0:0:0:
488,30,83551,6,0,B|467:5|432:9|432:9|467:20|474:47,1,113.099994822693,10|0,0:1|3:0,0:0:0:0:
421,111,83801,1,2,3:2:0:0:
427,125,83884,1,10,0:0:0:0:
303,39,84051,1,0,3:2:0:0:
56,184,84218,5,10,0:1:0:0:
151,148,84384,1,0,3:0:0:0:
318,226,84551,5,10,0:0:0:0:
424,193,84718,1,0,3:0:0:0:
294,354,84884,6,0,B|196:319|196:319|179:358|134:365,1,169.64999223404,10|0,0:1|0:0,0:0:0:0:
140,359,85218,1,10,0:0:0:0:
312,193,85384,1,8,3:2:0:0:
223,156,85551,6,0,L|211:72,1,56.5499974113466,10|0,0:1|0:0,0:0:0:0:
50,128,85718,2,0,L|38:44,1,56.5499974113466,0|0,3:0|0:0,0:0:0:0:
344,358,85884,6,0,L|332:274,1,56.5499974113466,10|8,0:0|0:0,0:0:0:0:
144,268,86051,2,0,L|132:184,1,56.5499974113466,10|8,0:0|0:0,0:0:0:0:
306,108,86218,6,0,B|367:-15|513:57|453:168|382:143,1,261.00000995636,14|2,0:1|0:0,0:0:0:0:
169,322,86884,2,0,B|108:199|-38:271|22:382|93:357,1,261.00000995636,14|2,0:1|0:0,0:0:0:0:
400,367,87551,6,0,P|428:329|418:293,1,65.2500024890901,14|0,0:1|0:0,0:0:0:0:
306,176,87718,1,10,0:0:0:0:
269,178,87801,1,8,0:0:0:0:
238,183,87884,2,0,L|164:192,1,65.2500024890901,10|0,0:0|0:0,0:0:0:0:
403,40,88051,2,0,L|477:31,1,65.2500024890901,10|0,0:0|0:0,0:0:0:0:
376,236,88218,6,0,B|332:283|332:351|396:384|396:384|446:353|420:292,1,261.00000995636,10|8,0:1|0:0,0:0:0:0:
426,312,88718,1,2,0:0:0:0:
214,223,88884,6,0,B|162:207|103:244|102:291|102:291|138:293|146:256,1,195.75000746727,14|0,0:0|0:0,0:0:0:0:
146,262,89218,2,0,B|155:239|133:212|133:212|139:243|130:270,1,104.399996813965,14|8,0:0|0:1,0:0:0:0:
25,33,89551,2,0,B|110:33|71:108|152:109,1,156.599995220947,14|0,0:0|0:0,0:0:0:0:
159,99,89884,5,10,0:0:0:0:
313,195,90051,1,10,0:1:0:0:
415,145,90218,5,14,0:0:0:0:
274,313,90384,1,10,0:1:0:0:
282,305,90468,1,2,0:0:0:0:
295,299,90551,1,10,0:0:0:0:
487,360,90718,1,10,0:1:0:0:
233,205,90884,6,0,P|157:207|126:286,1,156.599995220947,10|0,3:2|0:0,0:0:0:0:
129,284,91218,1,10,0:0:0:0:
373,249,91384,5,8,0:1:0:0:
374,237,91468,1,8,0:1:0:0:
375,226,91551,2,0,B|406:133|335:164|361:55,1,156.599995220947,14|0,0:0|0:0,0:0:0:0:
368,69,91884,5,10,0:0:0:0:
244,184,92051,1,10,0:1:0:0:
117,31,92218,6,0,P|45:23|22:128,1,182.699994424439,14|0,0:0|0:0,0:0:0:0:
74,180,92551,6,0,B|71:193|83:211|83:211|89:162|122:137,1,104.4,14|0,0:0|0:0,0:0:0:0:
192,115,92884,5,14,0:0:0:0:
125,337,93051,1,10,0:1:0:0:
122,327,93134,1,2,0:0:0:0:
119,314,93218,1,10,0:0:0:0:
291,377,93384,1,10,0:1:0:0:
438,269,93551,6,0,P|453:198|457:100,1,156.599995220947,10|0,3:2|0:0,0:0:0:0:
448,107,93884,1,10,0:0:0:0:
297,173,94051,1,8,0:1:0:0:
138,11,94218,6,0,P|70:58|88:145,1,156.599995220947,14|0,0:0|0:0,0:0:0:0:
211,64,94551,2,0,P|176:13|110:27,1,104.399996813965,14|8,0:0|0:1,0:0:0:0:
313,214,94884,6,0,P|367:161|361:85,1,156.599995220947,14|0,0:0|0:0,0:0:0:0:
348,82,95218,1,10,0:0:0:0:
192,191,95384,1,8,0:1:0:0:
489,283,95551,5,14,0:0:0:0:
361,174,95718,1,10,0:1:0:0:
229,321,95884,1,10,0:0:0:0:
361,376,96051,1,10,0:1:0:0:
193,193,96218,6,0,P|207:101|217:38,1,156.599995220947,10|0,3:2|0:0,0:0:0:0:
232,33,96551,1,10,0:0:0:0:
382,153,96718,1,8,0:1:0:0:
275,342,96884,6,0,B|227:276|138:302|138:302|172:305|195:330,1,208.79999362793,14|0,0:1|0:0,0:0:0:0:
72,209,97384,1,14,0:1:0:0:
155,142,97551,2,0,P|169:64|64:74,1,208.79999362793,14|8,0:1|0:0,0:0:0:0:
254,230,98218,5,14,0:1:0:0:
455,67,98384,1,2,0:0:0:0:
443,58,98468,1,2,0:0:0:0:
424,55,98551,1,14,0:1:0:0:
291,147,98718,1,2,0:0:0:0:
434,307,98884,6,0,B|396:382|282:363|282:363|276:368|276:368|281:362|281:362|235:286|137:292,1,348,14|0,0:1|0:0,0:0:0:0:
