osu file format v14

[General]
AudioFilename: audio.ogg
AudioLeadIn: 0
PreviewTime: 64196
Countdown: 0
SampleSet: Soft
StackLeniency: 0.7
Mode: 3
LetterboxInBreaks: 0
SpecialStyle: 0
WidescreenStoryboard: 0

[Editor]
Bookmarks: 16885,22218,27551,28884,34218,39551,42218,47551,52884,55551,58218,64884,70218,75551,80884,86218,88884,94218
DistanceSpacing: 0.7
BeatDivisor: 4
GridSize: 32
TimelineZoom: 1

[Metadata]
Title:Hanagoyomi (Short Ver.)
TitleUnicode:華暦 (Short Ver.)
Artist:Ayumi.
ArtistUnicode:Ayumi.
Creator:Mocaotic
Version:Normal
Source:花の野に咲くうたかたの
Tags:Applique あっぷりけ eroge visual novel vn video game rock jrock jpop pop japanese Hana no No ni Saku Utakata no The Sweet World of The Ephemeral
BeatmapID:4083574
BeatmapSetID:1968790

[Difficulty]
HPDrainRate:7.5
CircleSize:4
OverallDifficulty:7.5
ApproachRate:5
SliderMultiplier:1
SliderTickRate:1

[Events]
//Background and Video events
0,0,"4x9dhss.jpg",0,0
//Break Periods
//Storyboard Layer 0 (Background)
//Storyboard Layer 1 (Fail)
//Storyboard Layer 2 (Pass)
//Storyboard Layer 3 (Foreground)
//Storyboard Layer 4 (Overlay)
//Storyboard Sound Samples
Sample,56530,0,"Tom.wav",60
Sample,57863,0,"Tom.wav",60
Sample,58030,0,"Tom.wav",60
Sample,59363,0,"LR_Hat Normal.wav",60
Sample,61863,0,"LR_Hat Normal.wav",60
Sample,75363,0,"openhihat.wav",60
Sample,88530,0,"Tom.wav",60

[TimingPoints]
1526,500,4,2,2,60,1,0
1526,-66.6666666666667,4,2,2,60,0,0
16865,333.333333333333,4,2,2,60,1,0
27531,-100,4,2,2,60,0,0
28864,333.333333333333,4,2,2,60,1,0
42197,333.333333333333,4,2,2,60,1,0
52863,-100,4,2,2,60,0,0
55530,-100,4,2,2,60,0,0
58196,-100,4,2,2,60,0,0
62196,-100,4,2,2,60,0,0
64196,-100,4,2,2,60,0,0
64864,333.333333333333,4,2,2,60,1,1
86197,-100,4,2,2,60,0,0
88863,333.333333333333,4,2,2,60,1,0

[HitObjects]
192,192,1026,5,0,0:0:0:0:
320,192,1276,1,0,0:0:0:0:
64,192,1526,1,0,0:0:0:0:LR_Chm Echo long.wav
448,192,1526,128,0,2526:0:0:0:0:
64,192,2526,1,0,0:0:0:0:
192,192,3026,1,0,0:0:0:0:
320,192,3276,1,0,0:0:0:0:
448,192,3526,128,0,4526:0:0:0:0:
64,192,4526,1,0,0:0:0:0:
320,192,5026,1,0,0:0:0:0:
192,192,5276,1,0,0:0:0:0:
64,192,5526,128,0,6526:0:0:0:0:LR_Chm Echo long.wav
448,192,5526,1,0,0:0:0:0:
320,192,6526,128,0,7526:0:0:0:0:
64,192,7526,1,0,0:0:0:0:
192,192,7776,1,0,0:0:0:0:
448,192,8026,1,0,0:0:0:0:
320,192,8276,1,0,0:0:0:0:
192,192,8526,1,0,0:0:0:0:
448,192,9026,1,0,0:0:0:0:
64,192,9526,1,0,0:0:0:0:LR_Chm Echo long.wav
448,192,9526,128,0,10526:0:0:0:0:
192,192,10526,128,0,11526:0:0:0:0:
320,192,11526,128,0,12026:0:0:0:0:
64,192,12026,128,0,12526:0:0:0:0:
448,192,12526,128,0,13026:0:0:0:0:
192,192,13026,1,0,0:0:0:0:
64,192,13526,1,0,0:0:0:0:LR_Chm Echo long.wav
448,192,13526,128,0,14026:0:0:0:0:
64,192,14026,128,0,14526:0:0:0:0:
320,192,14526,128,0,15026:0:0:0:0:
192,192,15026,128,0,16865:0:0:0:0:
64,192,16865,1,12,0:0:0:0:
448,192,16865,128,0,17031:0:0:0:0:openhihat.wav
320,192,17031,1,2,0:0:0:0:
64,192,17198,1,8,0:0:0:0:
192,192,17198,128,0,17365:0:0:0:0:openhihat.wav
320,192,17365,1,2,0:0:0:0:
64,192,17531,128,8,17698:0:0:0:0:
448,192,17531,1,0,0:0:0:0:openhihat.wav
192,192,17698,1,2,0:0:0:0:
320,192,17865,128,8,18031:0:0:0:0:
448,192,17865,1,0,0:0:0:0:openhihat.wav
192,192,18031,1,2,0:0:0:0:
64,192,18198,128,8,18365:0:0:0:0:
448,192,18198,1,0,0:0:0:0:openhihat.wav
192,192,18365,128,2,18531:0:0:0:0:
64,192,18531,1,8,0:0:0:0:
320,192,18531,128,0,18698:0:0:0:0:openhihat.wav
448,192,18698,128,2,18864:0:0:0:0:
64,192,18864,1,8,0:0:0:0:
192,192,18864,128,0,19031:0:0:0:0:openhihat.wav
448,192,19031,1,2,0:0:0:0:
64,192,19198,1,8,0:0:0:0:
320,192,19198,1,0,0:0:0:0:openhihat.wav
192,192,19364,1,2,0:0:0:0:
64,192,19531,1,8,0:0:0:0:
448,192,19531,128,0,19864:0:0:0:0:openhihat.wav
64,192,19864,1,8,0:0:0:0:
192,192,19864,1,0,0:0:0:0:openhihat.wav
320,192,20031,1,2,0:0:0:0:
64,192,20198,128,8,20531:0:0:0:0:
448,192,20198,1,0,0:0:0:0:openhihat.wav
320,192,20531,1,8,0:0:0:0:
448,192,20531,1,0,0:0:0:0:openhihat.wav
64,192,20864,1,8,0:0:0:0:
448,192,20864,128,0,21031:0:0:0:0:openhihat.wav
320,192,21031,128,2,21198:0:0:0:0:
192,192,21198,128,8,21364:0:0:0:0:
448,192,21198,1,0,0:0:0:0:openhihat.wav
64,192,21364,128,2,21531:0:0:0:0:
320,192,21531,128,8,21698:0:0:0:0:
448,192,21531,1,0,0:0:0:0:openhihat.wav
64,192,21698,1,2,0:0:0:0:
192,192,21864,1,8,0:0:0:0:
448,192,21864,1,0,0:0:0:0:openhihat.wav
320,192,22031,1,2,0:0:0:0:
64,192,22198,128,8,22364:0:0:0:0:
448,192,22198,1,0,0:0:0:0:openhihat.wav
192,192,22364,1,2,0:0:0:0:
320,192,22531,128,8,22698:0:0:0:0:
448,192,22531,1,0,0:0:0:0:openhihat.wav
192,192,22698,1,2,0:0:0:0:
64,192,22864,1,8,0:0:0:0:
448,192,22864,128,0,23031:0:0:0:0:openhihat.wav
320,192,23031,1,2,0:0:0:0:
64,192,23198,1,8,0:0:0:0:
192,192,23198,128,0,23364:0:0:0:0:openhihat.wav
320,192,23364,1,2,0:0:0:0:
64,192,23531,1,8,0:0:0:0:
448,192,23531,128,0,23698:0:0:0:0:openhihat.wav
320,192,23698,128,2,23864:0:0:0:0:
192,192,23864,128,8,24031:0:0:0:0:
448,192,23864,1,0,0:0:0:0:openhihat.wav
64,192,24031,128,2,24198:0:0:0:0:
320,192,24198,1,8,0:0:0:0:
448,192,24198,128,0,24364:0:0:0:0:openhihat.wav
192,192,24364,1,2,0:0:0:0:
64,192,24531,1,8,0:0:0:0:
320,192,24531,1,0,0:0:0:0:openhihat.wav
192,192,24698,1,2,0:0:0:0:
64,192,24864,1,2,0:0:0:0:
448,192,24864,1,0,0:0:0:0:LR_CymbalSSD.wav
320,192,25198,1,0,0:0:0:0:
64,192,25364,1,2,0:0:0:0:
448,192,25364,1,0,0:0:0:0:LR_CymbalSSD.wav
64,192,25531,1,2,0:0:0:0:
448,192,25531,1,0,0:0:0:0:LR_CymbalSSD.wav
64,192,25864,1,8,0:0:0:0:
320,192,25864,1,0,0:0:0:0:
192,192,26198,1,4,0:0:0:0:
448,192,26198,128,2,26531:0:0:0:0:
192,192,26531,128,4,26864:0:0:0:0:
320,192,26531,1,2,0:0:0:0:
64,192,26864,1,4,0:0:0:0:
320,192,26864,128,2,27531:0:0:0:0:
64,192,27531,1,0,0:0:0:0:
448,192,27698,1,0,0:0:0:0:
64,192,27864,1,0,0:0:0:0:
448,192,28031,1,0,0:0:0:0:
192,192,28198,1,0,0:0:0:0:
320,192,28364,1,0,0:0:0:0:
192,192,28531,1,0,0:0:0:0:
320,192,28698,1,0,0:0:0:0:
64,192,28864,128,0,29530:0:0:0:0:
192,192,29530,128,0,30197:0:0:0:0:
448,192,30197,128,0,30530:0:0:0:0:
320,192,30530,128,0,30863:0:0:0:0:
192,192,30863,128,0,31197:0:0:0:0:
448,192,31530,128,0,32197:0:0:0:0:
320,192,32197,128,0,32863:0:0:0:0:
64,192,32863,128,0,33197:0:0:0:0:
192,192,33197,128,0,33530:0:0:0:0:
320,192,33530,128,0,33863:0:0:0:0:
64,192,34197,128,0,34863:0:0:0:0:
192,192,34863,128,0,35530:0:0:0:0:
448,192,35530,128,0,35863:0:0:0:0:
320,192,35863,128,0,36197:0:0:0:0:
192,192,36197,128,0,36530:0:0:0:0:
448,192,36863,128,0,37530:0:0:0:0:
320,192,37530,128,0,37863:0:0:0:0:
192,192,37863,1,0,0:0:0:0:
64,192,38197,128,0,38530:0:0:0:0:
192,192,38530,128,0,38863:0:0:0:0:
448,192,38863,128,0,39197:0:0:0:0:
320,192,39197,128,0,39530:0:0:0:0:
192,192,39530,1,0,0:0:0:0:
64,192,39697,1,0,0:0:0:0:
192,192,39863,1,0,0:0:0:0:
320,192,40030,1,0,0:0:0:0:
448,192,40197,1,0,0:0:0:0:
64,192,40530,128,0,40863:0:0:0:0:
448,192,40863,1,0,0:0:0:0:
320,192,41030,1,0,0:0:0:0:
192,192,41197,1,0,0:0:0:0:
64,192,41363,1,0,0:0:0:0:
320,192,41530,128,0,41863:0:0:0:0:
192,192,41863,128,0,42197:0:0:0:0:
64,192,42197,128,4,42530:0:0:0:0:
448,192,42197,1,2,0:0:0:0:
320,192,42530,1,8,0:0:0:0:
448,192,42530,1,0,0:0:0:0:
192,192,42697,1,0,0:0:0:0:openhihat.wav
448,192,42863,128,2,43197:0:0:0:0:
64,192,43197,1,8,0:0:0:0:
192,192,43197,1,0,0:0:0:0:
320,192,43363,1,0,0:0:0:0:openhihat.wav
192,192,43530,128,2,43697:0:0:0:0:
64,192,43697,1,0,0:0:0:0:openhihat.wav
320,192,43863,128,8,44030:0:0:0:0:
448,192,43863,1,0,0:0:0:0:
192,192,44030,1,0,0:0:0:0:openhihat.wav
64,192,44197,128,2,44530:0:0:0:0:
320,192,44530,1,8,0:0:0:0:
448,192,44530,1,0,0:0:0:0:
448,192,44863,128,2,45197:0:0:0:0:
64,192,45197,1,8,0:0:0:0:
192,192,45197,1,0,0:0:0:0:
320,192,45363,1,0,0:0:0:0:openhihat.wav
64,192,45530,128,2,45863:0:0:0:0:
320,192,45863,1,8,0:0:0:0:
448,192,45863,1,0,0:0:0:0:
192,192,46030,1,0,0:0:0:0:openhihat.wav
320,192,46196,128,2,46363:0:0:0:0:
448,192,46363,1,0,0:0:0:0:openhihat.wav
64,192,46530,1,8,0:0:0:0:
192,192,46530,128,0,46696:0:0:0:0:
320,192,46696,1,0,0:0:0:0:openhihat.wav
448,192,46863,128,2,47196:0:0:0:0:
64,192,47196,1,8,0:0:0:0:
192,192,47196,1,0,0:0:0:0:
64,192,47530,128,4,47863:0:0:0:0:
448,192,47530,1,2,0:0:0:0:
320,192,47863,1,8,0:0:0:0:
448,192,47863,1,0,0:0:0:0:
192,192,48030,1,0,0:0:0:0:openhihat.wav
448,192,48196,128,2,48530:0:0:0:0:
64,192,48530,1,8,0:0:0:0:
192,192,48530,1,0,0:0:0:0:
320,192,48696,1,0,0:0:0:0:openhihat.wav
192,192,48863,128,2,49030:0:0:0:0:
64,192,49030,1,0,0:0:0:0:openhihat.wav
320,192,49196,128,8,49363:0:0:0:0:
448,192,49196,1,0,0:0:0:0:
192,192,49363,1,0,0:0:0:0:openhihat.wav
64,192,49530,128,2,49863:0:0:0:0:
320,192,49863,1,8,0:0:0:0:
448,192,49863,1,0,0:0:0:0:
192,192,50196,128,2,50363:0:0:0:0:
320,192,50363,128,0,50530:0:0:0:0:openhihat.wav
64,192,50530,1,8,0:0:0:0:
192,192,50530,128,0,50696:0:0:0:0:
320,192,50696,128,0,50863:0:0:0:0:openhihat.wav
64,192,50863,128,2,51196:0:0:0:0:
320,192,51196,1,8,0:0:0:0:
448,192,51196,1,0,0:0:0:0:
192,192,51363,1,0,0:0:0:0:openhihat.wav
320,192,51530,128,2,51696:0:0:0:0:
448,192,51696,1,0,0:0:0:0:openhihat.wav
64,192,51863,1,8,0:0:0:0:
192,192,51863,128,0,52030:0:0:0:0:
320,192,52030,1,0,0:0:0:0:openhihat.wav
448,192,52196,128,2,52530:0:0:0:0:
64,192,52530,1,8,0:0:0:0:
192,192,52530,1,0,0:0:0:0:
64,192,52863,1,4,0:0:0:0:
448,192,52863,1,0,0:0:0:0:
192,192,53196,1,0,0:0:0:0:
320,192,53530,1,0,0:0:0:0:
448,192,53863,1,0,0:0:0:0:
64,192,54196,1,0,0:0:0:0:
64,192,54530,1,0,0:0:0:0:
448,192,54863,1,0,0:0:0:0:
448,192,55196,1,0,0:0:0:0:
64,192,55530,1,4,0:0:0:0:
192,192,55530,1,2,0:0:0:0:
320,192,55696,1,8,0:0:0:0:
448,192,55696,1,0,0:0:0:0:
64,192,55863,1,8,0:0:0:0:
192,192,55863,1,0,0:0:0:0:
64,192,56030,1,4,0:0:0:0:
448,192,56030,1,2,0:0:0:0:
192,192,56363,1,8,0:0:0:0:
448,192,56363,1,0,0:0:0:0:
320,192,56530,1,2,0:0:0:0:
64,192,56696,1,0,0:0:0:0:Tom.wav
320,192,56863,1,4,0:0:0:0:
448,192,56863,1,2,0:0:0:0:
64,192,57030,1,8,0:0:0:0:
192,192,57030,1,0,0:0:0:0:
320,192,57196,1,8,0:0:0:0:
448,192,57196,1,0,0:0:0:0:
64,192,57363,1,4,0:0:0:0:
448,192,57363,1,2,0:0:0:0:
64,192,57696,1,8,0:0:0:0:
320,192,57696,1,0,0:0:0:0:
192,192,57863,1,8,0:0:0:0:
320,192,58030,1,2,0:0:0:0:
64,192,58196,1,2,0:0:0:0:
448,192,58196,1,0,0:0:0:0:
320,192,58446,1,0,0:0:0:0:LR_Hat Normal.wav
192,192,58530,1,0,0:0:0:0:LR_Hat Normal.wav
448,192,58696,1,0,0:0:0:0:LR_Hat Normal.wav
64,192,58863,1,0,0:0:0:0:LR_Hat Normal.wav
192,192,59113,1,0,0:0:0:0:LR_Hat Normal.wav
320,192,59196,1,0,0:0:0:0:LR_Hat Normal.wav
64,192,59363,1,2,0:0:0:0:
448,192,59530,1,2,0:0:0:0:
320,192,59780,1,0,0:0:0:0:LR_Hat Normal.wav
192,192,59863,1,0,0:0:0:0:LR_Hat Normal.wav
448,192,60030,1,0,0:0:0:0:LR_Hat Normal.wav
64,192,60196,1,0,0:0:0:0:LR_Hat Normal.wav
192,192,60446,1,0,0:0:0:0:LR_Hat Normal.wav
320,192,60530,1,0,0:0:0:0:LR_Hat Normal.wav
64,192,60696,1,0,0:0:0:0:LR_Hat Normal.wav
448,192,60863,1,2,0:0:0:0:
320,192,61113,1,0,0:0:0:0:LR_Hat Normal.wav
192,192,61196,1,0,0:0:0:0:LR_Hat Normal.wav
448,192,61363,1,0,0:0:0:0:LR_Hat Normal.wav
64,192,61530,1,0,0:0:0:0:LR_Hat Normal.wav
192,192,61780,1,0,0:0:0:0:LR_Hat Normal.wav
320,192,61863,1,2,0:0:0:0:
64,192,62196,128,4,63530:0:0:0:0:
448,192,62196,128,0,63530:0:0:0:0:
320,192,64196,1,0,0:0:0:0:
192,192,64530,1,0,0:0:0:0:
64,192,64863,128,2,65197:0:0:0:0:
448,192,64863,1,4,0:0:0:0:
320,192,65197,128,8,65364:0:0:0:0:
448,192,65197,1,0,0:0:0:0:
192,192,65364,1,0,0:0:0:0:openhihat.wav
448,192,65530,128,2,65864:0:0:0:0:
64,192,65864,1,8,0:0:0:0:
192,192,65864,128,0,66030:0:0:0:0:
320,192,66030,1,0,0:0:0:0:openhihat.wav
64,192,66197,128,2,66364:0:0:0:0:
192,192,66364,128,0,66530:0:0:0:0:openhihat.wav
320,192,66530,128,8,66697:0:0:0:0:
448,192,66530,1,0,0:0:0:0:
192,192,66697,128,0,66864:0:0:0:0:openhihat.wav
64,192,66864,128,2,67197:0:0:0:0:
320,192,67197,1,8,0:0:0:0:
448,192,67197,1,0,0:0:0:0:
192,192,67364,1,0,0:0:0:0:openhihat.wav
448,192,67530,128,2,67864:0:0:0:0:
64,192,67864,1,8,0:0:0:0:
192,192,67864,128,0,68030:0:0:0:0:
320,192,68030,1,0,0:0:0:0:openhihat.wav
64,192,68197,128,2,68530:0:0:0:0:
320,192,68530,128,8,68697:0:0:0:0:
448,192,68530,1,0,0:0:0:0:
192,192,68697,1,0,0:0:0:0:openhihat.wav
448,192,68864,128,2,69030:0:0:0:0:
320,192,69030,128,0,69197:0:0:0:0:openhihat.wav
64,192,69197,1,8,0:0:0:0:
192,192,69197,128,0,69364:0:0:0:0:
320,192,69364,128,0,69530:0:0:0:0:openhihat.wav
448,192,69530,128,2,69864:0:0:0:0:
64,192,69864,1,8,0:0:0:0:
192,192,69864,1,0,0:0:0:0:
320,192,70030,1,0,0:0:0:0:openhihat.wav
64,192,70197,128,4,70530:0:0:0:0:
448,192,70197,1,2,0:0:0:0:
192,192,70530,1,8,0:0:0:0:
448,192,70530,128,0,70864:0:0:0:0:
192,192,70864,128,2,71197:0:0:0:0:
320,192,71197,128,8,71530:0:0:0:0:
448,192,71197,1,0,0:0:0:0:
64,192,71530,128,2,71864:0:0:0:0:
192,192,71864,128,8,72197:0:0:0:0:
448,192,71864,1,0,0:0:0:0:
320,192,72197,128,2,72530:0:0:0:0:
64,192,72530,1,8,0:0:0:0:
448,192,72530,1,0,0:0:0:0:
448,192,72863,128,2,73030:0:0:0:0:
192,192,73030,128,0,73197:0:0:0:0:openhihat.wav
64,192,73197,1,8,0:0:0:0:
320,192,73197,128,0,73363:0:0:0:0:
448,192,73363,1,0,0:0:0:0:openhihat.wav
64,192,73530,128,2,73697:0:0:0:0:
320,192,73697,128,0,73863:0:0:0:0:openhihat.wav
192,192,73863,128,8,74030:0:0:0:0:
448,192,73863,1,0,0:0:0:0:
64,192,74030,1,0,0:0:0:0:openhihat.wav
448,192,74197,128,2,74530:0:0:0:0:
64,192,74530,1,8,0:0:0:0:
192,192,74530,1,0,0:0:0:0:
320,192,74863,1,2,0:0:0:0:
64,192,75030,1,8,0:0:0:0:
192,192,75030,1,0,0:0:0:0:openhihat.wav
320,192,75197,1,8,0:0:0:0:
448,192,75197,1,0,0:0:0:0:
192,192,75363,1,8,0:0:0:0:
320,192,75447,1,8,0:0:0:0:
64,192,75530,1,4,0:0:0:0:
448,192,75530,128,2,75863:0:0:0:0:
64,192,75863,1,8,0:0:0:0:
192,192,75863,128,0,76030:0:0:0:0:
320,192,76030,1,0,0:0:0:0:openhihat.wav
64,192,76197,128,2,76530:0:0:0:0:
320,192,76530,128,8,76697:0:0:0:0:
448,192,76530,1,0,0:0:0:0:
192,192,76697,1,0,0:0:0:0:openhihat.wav
448,192,76863,128,2,77030:0:0:0:0:
320,192,77030,128,0,77197:0:0:0:0:openhihat.wav
64,192,77197,1,8,0:0:0:0:
192,192,77197,128,0,77363:0:0:0:0:
320,192,77363,128,0,77530:0:0:0:0:openhihat.wav
448,192,77530,128,2,77863:0:0:0:0:
64,192,77863,1,8,0:0:0:0:
192,192,77863,1,0,0:0:0:0:
320,192,78030,1,0,0:0:0:0:openhihat.wav
64,192,78197,128,2,78530:0:0:0:0:
320,192,78530,128,8,78697:0:0:0:0:
448,192,78530,1,0,0:0:0:0:
192,192,78697,1,0,0:0:0:0:openhihat.wav
448,192,78863,128,2,79197:0:0:0:0:
64,192,79197,1,8,0:0:0:0:
192,192,79197,128,0,79363:0:0:0:0:
320,192,79363,1,0,0:0:0:0:openhihat.wav
64,192,79530,128,2,79697:0:0:0:0:
192,192,79697,128,0,79863:0:0:0:0:openhihat.wav
320,192,79863,128,8,80030:0:0:0:0:
448,192,79863,1,0,0:0:0:0:
192,192,80030,128,0,80197:0:0:0:0:openhihat.wav
64,192,80197,128,2,80530:0:0:0:0:
320,192,80530,1,8,0:0:0:0:
448,192,80530,1,0,0:0:0:0:
192,192,80697,1,0,0:0:0:0:openhihat.wav
64,192,80863,1,4,0:0:0:0:
448,192,80863,128,2,81197:0:0:0:0:
64,192,81197,128,8,81530:0:0:0:0:
320,192,81197,1,0,0:0:0:0:
320,192,81530,128,2,81863:0:0:0:0:
64,192,81863,1,8,0:0:0:0:
192,192,81863,128,0,82197:0:0:0:0:
448,192,82197,128,2,82530:0:0:0:0:
64,192,82530,1,8,0:0:0:0:
320,192,82530,128,0,82863:0:0:0:0:
192,192,82863,128,2,83197:0:0:0:0:
64,192,83197,1,8,0:0:0:0:
448,192,83197,1,0,0:0:0:0:
64,192,83530,128,2,83697:0:0:0:0:
320,192,83697,128,0,83863:0:0:0:0:openhihat.wav
192,192,83863,128,8,84030:0:0:0:0:
448,192,83863,1,0,0:0:0:0:
64,192,84030,1,0,0:0:0:0:openhihat.wav
448,192,84197,128,2,84363:0:0:0:0:
192,192,84363,128,0,84530:0:0:0:0:openhihat.wav
64,192,84530,1,8,0:0:0:0:
320,192,84530,128,0,84697:0:0:0:0:
448,192,84697,1,0,0:0:0:0:openhihat.wav
64,192,84863,128,2,85197:0:0:0:0:
320,192,85197,1,8,0:0:0:0:
448,192,85197,1,0,0:0:0:0:
64,192,85363,1,8,0:0:0:0:
192,192,85363,1,0,0:0:0:0:
448,192,85530,1,2,0:0:0:0:
320,192,85697,1,0,0:0:0:0:
64,192,85863,1,8,0:0:0:0:
192,192,85863,1,0,0:0:0:0:
320,192,86030,1,8,0:0:0:0:
192,192,86113,1,8,0:0:0:0:
64,192,86197,128,4,86863:0:0:0:0:
448,192,86197,1,2,0:0:0:0:
192,192,86863,1,4,0:0:0:0:
448,192,86863,128,2,87530:0:0:0:0:
64,192,87530,1,8,0:0:0:0:
192,192,87530,1,2,0:0:0:0:
448,192,87697,1,8,0:0:0:0:
320,192,87780,1,8,0:0:0:0:
64,192,87863,1,8,0:0:0:0:
192,192,87863,1,0,0:0:0:0:
320,192,88030,1,8,0:0:0:0:
448,192,88030,1,0,0:0:0:0:
64,192,88197,1,8,0:0:0:0:
448,192,88197,1,0,0:0:0:0:
320,192,88530,1,2,0:0:0:0:
192,192,88697,1,0,0:0:0:0:
64,192,88863,128,12,89029:0:0:0:0:
448,192,88863,1,0,0:0:0:0:openhihat.wav
192,192,89029,1,2,0:0:0:0:
320,192,89196,128,8,89363:0:0:0:0:
448,192,89196,1,0,0:0:0:0:openhihat.wav
192,192,89363,1,2,0:0:0:0:
64,192,89529,1,8,0:0:0:0:
448,192,89529,128,0,89696:0:0:0:0:openhihat.wav
320,192,89696,1,2,0:0:0:0:
64,192,89863,1,8,0:0:0:0:
192,192,89863,128,0,90029:0:0:0:0:openhihat.wav
320,192,90029,1,2,0:0:0:0:
64,192,90196,1,8,0:0:0:0:
448,192,90196,128,0,90363:0:0:0:0:openhihat.wav
320,192,90363,128,2,90529:0:0:0:0:
192,192,90529,128,8,90696:0:0:0:0:
448,192,90529,1,0,0:0:0:0:openhihat.wav
64,192,90696,128,2,90863:0:0:0:0:
320,192,90863,128,8,91029:0:0:0:0:
448,192,90863,1,0,0:0:0:0:openhihat.wav
64,192,91029,1,2,0:0:0:0:
192,192,91196,1,8,0:0:0:0:
448,192,91196,1,0,0:0:0:0:openhihat.wav
320,192,91363,1,2,0:0:0:0:
64,192,91529,128,8,91863:0:0:0:0:
448,192,91529,1,0,0:0:0:0:openhihat.wav
320,192,91863,1,8,0:0:0:0:
448,192,91863,1,0,0:0:0:0:openhihat.wav
192,192,92029,1,2,0:0:0:0:
64,192,92196,1,8,0:0:0:0:
448,192,92196,128,0,92529:0:0:0:0:openhihat.wav
64,192,92529,1,8,0:0:0:0:
192,192,92529,1,0,0:0:0:0:openhihat.wav
320,192,92696,1,2,0:0:0:0:
64,192,92863,128,8,93029:0:0:0:0:
448,192,92863,1,0,0:0:0:0:openhihat.wav
192,192,93029,128,2,93196:0:0:0:0:
64,192,93196,1,8,0:0:0:0:
320,192,93196,128,0,93363:0:0:0:0:openhihat.wav
448,192,93363,128,2,93529:0:0:0:0:
64,192,93529,1,8,0:0:0:0:
192,192,93529,128,0,93696:0:0:0:0:openhihat.wav
448,192,93696,1,2,0:0:0:0:
64,192,93863,1,8,0:0:0:0:
320,192,93863,1,0,0:0:0:0:openhihat.wav
192,192,94029,1,2,0:0:0:0:
64,192,94196,1,8,0:0:0:0:
448,192,94196,128,0,94363:0:0:0:0:openhihat.wav
320,192,94363,1,2,0:0:0:0:
64,192,94529,1,8,0:0:0:0:
192,192,94529,128,0,94696:0:0:0:0:openhihat.wav
320,192,94696,1,2,0:0:0:0:
64,192,94863,128,8,95029:0:0:0:0:
448,192,94863,1,0,0:0:0:0:openhihat.wav
192,192,95029,1,2,0:0:0:0:
320,192,95196,128,8,95363:0:0:0:0:
448,192,95196,1,0,0:0:0:0:openhihat.wav
192,192,95363,1,2,0:0:0:0:
64,192,95529,128,8,95696:0:0:0:0:
448,192,95529,1,0,0:0:0:0:openhihat.wav
192,192,95696,128,2,95863:0:0:0:0:
64,192,95863,1,0,0:0:0:0:
320,192,95863,128,0,96029:0:0:0:0:
448,192,96029,128,2,96196:0:0:0:0:
64,192,96196,128,8,96362:0:0:0:0:
192,192,96196,1,0,0:0:0:0:openhihat.wav
320,192,96362,1,2,0:0:0:0:
192,192,96529,1,8,0:0:0:0:
448,192,96529,1,0,0:0:0:0:openhihat.wav
320,192,96696,1,2,0:0:0:0:
64,192,96862,1,2,0:0:0:0:
448,192,96862,1,0,0:0:0:0:LR_CymbalSSD.wav
192,192,97196,1,0,0:0:0:0:
64,192,97362,1,2,0:0:0:0:
448,192,97362,1,0,0:0:0:0:LR_CymbalSSD.wav
64,192,97529,1,2,0:0:0:0:
448,192,97529,1,0,0:0:0:0:LR_CymbalSSD.wav
192,192,97862,1,8,0:0:0:0:
448,192,97862,1,0,0:0:0:0:
64,192,98196,128,4,98529:0:0:0:0:
320,192,98196,1,2,0:0:0:0:
192,192,98529,1,4,0:0:0:0:
320,192,98529,128,2,98862:0:0:0:0:
192,192,98862,128,4,99529:0:0:0:0:
448,192,98862,1,2,0:0:0:0:
