osu file format v14

[General]
AudioFilename: audio.mp3
AudioLeadIn: 0
PreviewTime: 192785
Countdown: 0
SampleSet: Soft
StackLeniency: 0.7
Mode: 0
LetterboxInBreaks: 0
WidescreenStoryboard: 0

[Editor]
DistanceSpacing: 0.6
BeatDivisor: 4
GridSize: 8
TimelineZoom: 2

[Metadata]
Title:Hanagoyomi
TitleUnicode:華暦
Artist:Ayumi.
ArtistUnicode:Ayumi.
Creator:Mimari
Version:Spirit.
Source:花の野に咲くうたかたの
Tags:eroge galgame video game vn visual novel opening op full japanese female vocal Hana no No ni Saku Utakata no applique soft never_log_off alexsander kuse kubsnia_zhoyl_
BeatmapID:2411125
BeatmapSetID:1155366

[Difficulty]
HPDrainRate:6.5
CircleSize:4.2
OverallDifficulty:9
ApproachRate:9.4
SliderMultiplier:1.75
SliderTickRate:1

[Events]
//Background and Video events
0,0,"bg.png",0,0
//Break Periods
//Storyboard Layer 0 (Background)
//Storyboard Layer 1 (Fail)
//Storyboard Layer 2 (Pass)
//Storyboard Layer 3 (Foreground)
//Storyboard Layer 4 (Overlay)
//Storyboard Sound Samples

[TimingPoints]
1036,500,4,2,66,55,1,0
1536,500,4,2,67,55,1,0
1536,-333.333333333333,4,2,67,55,0,0
3035,-333.333333333333,4,2,66,55,0,0
3536,-333.333333333333,4,2,67,55,0,0
5035,-333.333333333333,4,2,66,55,0,0
5536,-333.333333333333,4,2,67,55,0,0
6535,-333.333333333333,4,2,66,55,0,0
9536,-333.333333333333,4,2,67,55,0,0
10535,-333.333333333333,4,2,66,55,0,0
11536,-333.333333333333,4,2,67,55,0,0
12035,-333.333333333333,4,2,66,55,0,0
13536,-250,4,2,67,55,0,0
13786,-250,4,2,66,55,0,0
16869,333.333333333333,4,2,66,85,1,0
16869,-83.3333333333333,4,2,66,85,0,0
25868,-100,4,2,66,85,0,0
26868,-125,4,2,66,85,0,0
26952,-125,4,2,66,75,0,0
27535,-125,4,2,66,70,0,0
27868,-125,4,2,66,65,0,0
28202,-125,4,2,66,60,0,0
28535,-125,4,2,66,55,0,0
28702,-125,4,2,66,50,0,0
28868,-181.818181818181,4,2,66,55,0,0
37868,-153.846153846153,4,2,66,55,0,0
38868,-133.333333333333,4,2,66,55,0,0
39535,-399.999999999997,4,2,66,55,0,0
40702,-285.714285714284,4,2,66,55,0,0
41868,-333.333333333333,4,2,66,55,0,0
42202,-90.9090909090909,4,2,66,70,0,0
52868,-90.9090909090909,4,2,67,70,0,0
54202,-222.222222222221,4,2,66,45,0,0
55202,-222.222222222221,4,2,66,75,0,0
56202,-90.9090909090909,4,2,66,75,0,0
58202,-111.111111111111,4,2,66,75,0,0
64202,-83.3333333333333,4,2,67,55,0,0
64451,-83.3333333333333,4,2,66,55,0,0
64535,-71.4285714285714,4,2,66,55,0,0
64868,-76.9230769230769,4,2,66,92,0,1
86202,-100,4,2,66,75,0,0
87535,-100,4,2,66,85,0,0
88868,-83.3333333333333,4,2,66,85,0,0
97868,-100,4,2,66,70,0,0
98202,-100,4,2,66,85,0,0
98868,-125,4,2,66,70,0,0
99868,-125,4,2,66,65,0,0
100202,-125,4,2,66,60,0,0
100535,-125,4,2,66,55,0,0
100702,-125,4,2,66,50,0,0
100868,-181.818181818181,4,2,66,55,0,0
105868,-125,4,2,66,75,0,0
106202,-90.9090909090909,4,2,66,75,0,0
111534,-90.9090909090909,4,2,67,75,0,0
112868,-222.222222222222,4,2,66,55,0,0
114202,-90.9090909090909,4,2,66,75,0,0
116868,-111.111111111111,4,2,66,75,0,0
123202,-66.6666666666667,4,2,66,75,0,0
123535,-76.9230769230769,4,2,66,92,0,1
144868,-100,4,2,66,85,0,0
147535,-111.111111111111,4,2,66,85,0,0
158035,-99.9999999999999,4,2,66,85,0,0
163535,-95.2380952380952,4,2,66,85,0,0
167535,-90.9090909090909,4,2,66,85,0,0
194202,-90.9090909090909,4,2,67,85,0,0
194368,-222.222222222221,4,2,66,55,0,0
199535,-222.222222222221,4,2,67,55,0,0
199868,-222.222222222221,4,2,66,55,0,0
204202,-83.3333333333333,4,2,67,65,0,0
204451,-83.3333333333333,4,2,66,65,0,0
204535,-71.4285714285714,4,2,66,75,0,0
204868,-76.9230769230769,4,2,66,92,0,1
215535,-100,4,2,66,85,0,0
219535,-100,4,2,66,95,0,0
220535,-100,4,2,66,85,0,0
220868,-83.3333333333333,4,2,66,85,0,0
229868,-100,4,2,66,85,0,0
230868,-125,4,2,66,85,0,0
231535,-125,4,2,66,5,0,0

[Colours]
Combo1 : 251,252,194
Combo2 : 255,234,253
Combo3 : 254,194,194
Combo4 : 210,252,209

[HitObjects]
91,299,1036,5,2,0:0:0:0:
88,290,1286,1,2,0:0:0:0:
92,284,1536,2,0,B|124:310|167:315|212:283|202:244|170:229,1,157.499995193482,2|2,0:0|0:0,0:0:0:0:
171,240,3286,1,2,0:0:0:0:
274,278,3536,6,0,B|298:245|263:205|263:205|227:180|228:142|248:134|251:156,1,157.499995193482,2|2,0:0|0:0,0:0:0:0:
253,158,5286,1,2,0:0:0:0:
160,122,5536,6,0,P|139:76|152:21,2,104.999996795654,2|2|2,0:0|0:0|0:0,0:0:0:0:
242,64,8036,2,0,L|216:67,1,26.2499991989136,0|0,0:0|0:0,0:0:0:0:
255,72,8536,1,0,0:0:0:0:
311,14,9036,2,0,L|337:17,1,26.2499991989136,2|0,0:0|0:0,0:0:0:0:
345,25,9536,6,0,L|354:133,1,104.999996795654,2|2,0:0|0:0,0:0:0:0:
361,138,11036,1,0,0:0:0:0:
438,219,11536,2,0,L|439:162,2,52.4999983978272,2|2|2,0:0|0:0|0:0,0:0:0:0:
427,242,13036,1,2,0:0:0:0:
328,343,13536,6,0,L|367:339,1,35,2|0,0:0|0:0,0:0:0:0:
295,333,14036,1,2,0:0:0:0:
221,384,14536,2,0,L|182:380,1,35,2|0,0:0|0:0,0:0:0:0:
233,377,15036,1,2,0:0:0:0:
256,192,15161,12,0,16702,0:0:0:0:
185,93,16869,6,0,L|60:100,1,104.999996795654,14|0,0:0|1:0,0:0:0:0:
216,303,17202,5,10,0:0:0:0:
265,51,17369,1,0,1:0:0:0:
330,332,17536,5,10,0:0:0:0:
96,221,17703,1,0,1:0:0:0:
363,78,17869,6,0,P|378:130|357:190,1,104.999996795654,10|2,0:0|1:2,0:0:0:0:
151,345,18202,5,10,0:0:0:0:
247,125,18369,1,2,1:2:0:0:
273,127,18452,1,2,0:0:0:0:
299,129,18535,5,10,0:0:0:0:
512,148,18702,1,2,1:2:0:0:
317,293,18868,5,10,0:0:0:0:
282,20,19035,1,0,1:0:0:0:
446,303,19202,5,10,0:0:0:0:
411,30,19369,1,2,1:2:0:0:
306,279,19535,6,0,L|299:388,1,104.999996795654,14|0,0:0|1:0,0:0:0:0:
166,87,19868,5,10,0:0:0:0:
418,210,20035,1,2,1:2:0:0:
212,321,20202,6,0,P|190:266|207:212,1,104.999996795654,10|0,0:0|1:0,0:0:0:0:
396,48,20535,5,10,0:0:0:0:
274,266,20702,1,0,1:0:0:0:
59,174,20868,5,10,0:0:0:0:
325,117,21035,1,2,1:2:0:0:
354,128,21118,1,2,0:0:0:0:
383,139,21201,5,10,0:0:0:0:
139,42,21368,1,2,1:2:0:0:
404,147,21535,5,10,0:0:0:0:
191,320,21702,1,0,1:0:0:0:
247,36,21868,5,14,0:0:0:0:
472,214,22035,1,0,1:2:0:0:
180,331,22202,6,0,L|75:320,1,104.999996795654,14|2,0:0|1:2,0:0:0:0:
2,309,22452,1,2,0:0:0:0:
2,309,22535,5,10,0:0:0:0:
253,342,22702,1,2,1:2:0:0:
164,87,22868,6,0,P|134:132|140:198,1,104.999996795654,10|2,0:0|1:2,0:0:0:0:
190,240,23118,1,2,0:0:0:0:
190,240,23202,5,10,0:0:0:0:
324,52,23368,1,2,1:2:0:0:
84,27,23535,5,10,0:0:0:0:
299,174,23702,2,0,L|373:164,1,52.4999983978272,2|2,1:2|0:0,0:0:0:0:
92,300,23868,5,10,0:0:0:0:
237,115,24035,1,2,1:2:0:0:
432,199,24202,6,0,P|440:251|414:302,1,104.999996795654,14|0,0:0|1:0,0:0:0:0:
173,360,24535,5,10,0:0:0:0:
361,240,24702,1,2,1:2:0:0:
36,156,24868,5,14,0:0:0:0:
31,149,25202,5,2,1:2:0:0:
281,178,25368,1,10,0:0:0:0:
9,47,25535,1,14,0:0:0:0:
1,42,25868,6,0,P|68:25|139:70,1,131.25,14|0,0:0|0:0,0:0:0:0:
199,55,26202,5,14,0:0:0:0:
61,156,26368,1,2,1:2:0:0:
59,129,26452,1,2,0:0:0:0:
57,103,26534,1,14,0:0:0:0:
166,205,26702,1,2,1:2:0:0:
40,354,26868,6,0,B|-19:381|-8:273|65:334|65:334|115:387|173:357,1,245,6|0,1:2|0:0,0:0:0:0:
232,320,27535,5,2,0:0:0:0:
336,349,27702,1,2,0:0:0:0:
505,293,27868,5,2,0:0:0:0:
427,304,28035,1,2,0:0:0:0:
301,209,28201,5,2,0:0:0:0:
354,222,28368,1,2,0:0:0:0:
437,141,28534,5,2,0:0:0:0:
403,146,28702,1,2,0:0:0:0:
350,88,28868,6,0,B|364:9|364:9|328:-1|297:24,1,144.375004405975,2|0,0:0|0:0,0:0:0:0:
240,61,29535,2,0,B|205:85|171:57|171:57|135:22|91:57,1,144.375004405975,2|2,0:0|0:0,0:0:0:0:
36,103,30202,1,2,0:0:0:0:
82,182,30368,1,2,0:0:0:0:
37,263,30535,1,2,0:0:0:0:
78,340,30702,1,2,0:0:0:0:
73,353,30868,1,2,0:0:0:0:
66,358,31535,6,0,B|99:317|150:331|150:331|174:358|207:357,1,144.375004405975,2|0,0:0|0:0,0:0:0:0:
274,375,32202,2,0,B|314:385|335:353|335:353|345:260,1,144.375004405975,2|2,0:0|0:0,0:0:0:0:
280,220,32868,1,2,0:0:0:0:
328,144,33035,1,2,0:0:0:0:
284,64,33202,1,2,0:0:0:0:
344,0,33368,1,2,0:0:0:0:
356,5,33535,1,2,0:0:0:0:
364,13,34202,6,0,B|411:37|453:14|453:14|426:35|425:77,1,144.375004405975,2|0,0:0|0:0,0:0:0:0:
476,124,34868,2,0,B|503:163|491:214|491:214|467:201|437:202,1,144.375004405975,2|2,0:0|0:0,0:0:0:0:
371,243,35535,1,2,0:0:0:0:
421,313,35702,1,2,0:0:0:0:
371,384,35868,1,2,0:0:0:0:
288,357,36035,1,2,0:0:0:0:
284,343,36202,1,2,0:0:0:0:
280,329,36868,6,0,B|234:351|196:322|196:322|164:301|127:325,1,144.375004405975,2|2,0:0|0:0,0:0:0:0:
33,343,37535,2,0,P|58:360|64:320,1,72.1875022029877,2|0,0:0|0:0,0:0:0:0:
101,239,37868,2,0,P|76:256|70:206,1,85.3124960947039,2|0,0:0|0:0,0:0:0:0:
108,152,38202,5,2,0:0:0:0:
30,67,38368,1,2,0:0:0:0:
28,52,38451,1,2,0:0:0:0:
26,38,38534,1,2,0:0:0:0:
132,1,38702,1,2,0:0:0:0:
226,47,38868,2,0,P|263:51|306:33,1,65.6250025033952,2|0,0:0|0:0,0:0:0:0:
345,142,39202,2,0,P|374:119|392:76,1,65.6250025033952,2|0,0:0|0:0,0:0:0:0:
511,130,39535,5,2,0:0:0:0:
461,65,39702,1,2,0:0:0:0:
508,137,39868,1,2,0:0:0:0:
490,220,40035,1,2,0:0:0:0:
502,142,40202,1,2,0:0:0:0:
297,346,40535,5,2,0:0:0:0:
390,330,40702,2,0,P|393:319|400:305,1,15.3124995326996,2|2,0:0|0:0,0:0:0:0:
292,354,40868,1,2,0:0:0:0:
197,315,41035,1,2,0:0:0:0:
274,247,41202,1,2,0:0:0:0:
202,326,41368,5,2,0:0:0:0:
99,295,41535,2,0,L|92:261,2,20.4166660435995,2|2|2,0:0|0:0|0:0,0:0:0:0:
111,307,41868,2,0,L|108:324,2,17.4999994659424,2|2|2,0:0|0:0|0:0,0:0:0:0:
23,184,42202,6,0,L|9:63,1,96.250002937317,6|0,1:2|0:0,0:0:0:0:
214,31,42535,2,0,L|200:148,1,96.250002937317,8|2,0:0|0:0,0:0:0:0:
33,195,42868,1,2,1:2:0:0:
132,0,43035,1,0,1:0:0:0:
132,0,43118,1,0,1:0:0:0:
132,0,43202,1,8,0:0:0:0:
294,94,43368,1,2,1:2:0:0:
193,138,43535,5,2,1:2:0:0:
365,4,43702,1,2,0:0:0:0:
264,231,43868,1,10,0:0:0:0:
188,55,44035,1,2,0:0:0:0:
428,167,44202,1,2,1:2:0:0:
256,239,44368,1,0,1:0:0:0:
398,75,44535,2,0,P|446:70|505:112,1,96.250002937317,8|0,0:0|0:0,0:0:0:0:
512,169,44785,1,0,1:0:0:0:
512,169,44868,5,2,1:2:0:0:
332,292,45035,1,0,0:0:0:0:
288,136,45202,1,8,0:0:0:0:
448,272,45368,1,2,0:0:0:0:
262,361,45535,1,2,1:2:0:0:
372,150,45702,1,0,1:0:0:0:
372,150,45785,1,0,1:0:0:0:
372,150,45868,1,8,0:0:0:0:
512,345,46035,1,2,1:2:0:0:
251,251,46202,5,2,1:2:0:0:
384,137,46368,2,0,L|467:149,1,48.1250014686585,2|0,1:2|0:0,0:0:0:0:
281,47,46535,1,10,0:0:0:0:
348,261,46702,1,2,0:0:0:0:
149,204,46868,1,2,1:2:0:0:
370,127,47035,1,0,1:0:0:0:
370,127,47118,1,0,1:0:0:0:
370,127,47202,2,0,B|360:68|360:68|369:55|369:55|357:-15,1,144.375004405975,8|0,0:0|0:0,0:0:0:0:
287,31,47535,6,0,L|163:51,1,96.250002937317,6|0,1:2|0:0,0:0:0:0:
115,61,47785,1,0,1:0:0:0:
115,61,47868,1,8,0:0:0:0:
92,227,48035,1,2,0:0:0:0:
293,153,48202,1,2,1:2:0:0:
65,142,48368,1,0,1:0:0:0:
65,142,48452,1,0,1:0:0:0:
65,142,48535,1,8,0:0:0:0:
154,304,48702,1,2,1:2:0:0:
259,78,48868,5,2,1:2:0:0:
59,276,49035,1,2,0:0:0:0:
316,237,49202,1,10,0:0:0:0:
174,64,49368,1,2,0:0:0:0:
277,321,49535,5,2,1:2:0:0:
411,178,49702,1,0,1:0:0:0:
267,334,49868,2,0,L|144:322,1,96.250002937317,8|0,0:0|0:0,0:0:0:0:
43,312,50202,1,6,1:2:0:0:
39,288,50285,1,2,0:0:0:0:
36,264,50368,1,2,0:0:0:0:
169,154,50535,5,10,0:0:0:0:
163,184,50618,1,2,0:0:0:0:
159,217,50701,1,2,0:0:0:0:
276,328,50868,5,2,1:2:0:0:
401,183,51035,1,0,1:0:0:0:
292,44,51202,1,10,0:0:0:0:
359,283,51368,1,2,0:0:0:0:
509,124,51535,5,6,1:2:0:0:
234,228,51702,1,2,0:0:0:0:
460,325,51868,1,10,0:0:0:0:
429,70,52035,1,2,0:0:0:0:
225,236,52202,2,0,B|162:247|162:247|137:238|137:238|58:251,1,144.375004405975,2|0,1:2|0:0,0:0:0:0:
15,286,52535,2,0,P|5:242|25:194,1,96.250002937317,8|0,0:0|0:0,0:0:0:0:
174,164,52868,5,2,0:0:0:0:
182,160,54202,6,0,P|199:127|192:77,2,78.7499975967408,2|2|2,0:0|0:0|0:0,0:0:0:0:
169,18,55202,2,0,P|198:11|238:26,1,59.0624981975556,2|0,0:0|0:0,0:0:0:0:
293,66,55535,5,14,0:0:0:0:
88,103,55702,1,2,1:2:0:0:
52,100,55785,1,0,1:0:0:0:
17,97,55868,1,10,0:0:0:0:
228,27,56035,1,2,1:2:0:0:
338,201,56202,6,0,L|215:186,1,96.250002937317,10|0,0:0|0:0,0:0:0:0:
443,122,56535,1,0,1:0:0:0:
474,155,56618,1,0,1:0:0:0:
482,204,56702,1,10,0:0:0:0:
472,236,56785,1,8,0:0:0:0:
461,247,56868,5,6,1:2:0:0:
303,81,57035,1,2,1:2:0:0:
396,350,57202,1,10,0:0:0:0:
510,178,57368,1,2,1:2:0:0:
300,292,57535,2,0,P|285:331|294:390,1,96.250002937317,10|0,0:0|1:0,0:0:0:0:
346,189,57868,1,0,1:0:0:0:
319,177,57951,1,0,1:0:0:0:
291,174,58034,1,0,1:0:0:0:
271,180,58118,1,0,1:0:0:0:
262,188,58202,6,0,P|205:217|115:198,1,157.499995193482,4|2,1:2|1:2,0:0:0:0:
26,149,58702,1,0,0:0:0:0:
95,23,58868,2,0,L|102:113,1,78.7499975967408,2|0,1:2|0:0,0:0:0:0:
186,137,59118,1,0,1:0:0:0:
186,137,59202,2,0,L|192:58,1,78.7499975967408,2|0,1:2|0:0,0:0:0:0:
264,11,59535,6,0,P|305:9|346:30,1,78.7499975967408,2|0,1:2|0:0,0:0:0:0:
419,26,59785,1,0,1:0:0:0:
419,26,59868,2,0,P|437:62|434:108,1,78.7499975967408,2|0,1:2|0:0,0:0:0:0:
493,164,60202,2,0,P|474:198|474:237,1,78.7499975967408,2|0,1:2|0:0,0:0:0:0:
400,288,60452,1,0,1:0:0:0:
400,288,60535,2,0,P|424:318|459:334,1,78.7499975967408,2|0,1:2|0:0,0:0:0:0:
388,205,60868,6,0,L|283:199,1,78.7499975967408,2|0,1:2|0:0,0:0:0:0:
243,237,61118,1,0,1:0:0:0:
243,237,61202,2,0,L|164:241,1,78.7499975967408,0|2,1:0|0:0,0:0:0:0:
89,294,61535,2,0,P|74:255|82:204,1,78.7499975967408,0|0,1:0|0:0,0:0:0:0:
137,163,61785,1,0,1:0:0:0:
137,163,61868,2,0,P|152:124|144:73,1,78.7499975967408,2|0,1:2|0:0,0:0:0:0:
33,0,62202,5,6,1:2:0:0:
256,192,62285,12,0,63702,0:0:0:0:
416,248,64202,6,0,P|379:225|306:298,1,157.499995193482,2|0,0:0|0:0,0:0:0:0:
313,301,64535,6,0,P|326:227|215:206,1,183.749994392395,2|0,0:0|0:0,0:0:0:0:
106,150,64868,6,0,L|118:270,1,113.749994792938,6|0,1:2|0:0,0:0:0:0:
128,341,65118,1,2,1:2:0:0:
128,341,65202,1,10,0:0:0:0:
229,179,65368,1,2,0:0:0:0:
27,85,65535,2,0,L|15:198,1,113.749994792938,2|0,1:3|0:0,0:0:0:0:
229,281,65868,1,10,0:0:0:0:
197,57,66035,1,2,1:2:0:0:
27,309,66202,5,2,1:2:0:0:
354,236,66368,1,2,0:0:0:0:
113,105,66535,5,10,0:0:0:0:
462,161,66702,1,2,1:2:0:0:
215,278,66868,6,0,P|202:330|231:394,1,113.749994792938,2|0,1:2|0:0,0:0:0:0:
397,109,67202,1,10,0:0:0:0:
99,181,67368,1,2,1:2:0:0:
285,327,67535,6,0,L|398:311,1,113.749994792938,2|0,1:2|0:0,0:0:0:0:
478,296,67785,1,2,1:2:0:0:
478,296,67868,1,10,0:0:0:0:
258,152,68035,1,2,0:0:0:0:
491,53,68202,2,0,L|479:207,1,113.749994792938,2|0,1:3|0:0,0:0:0:0:
404,323,68535,1,10,0:0:0:0:
354,83,68702,1,2,1:2:0:0:
485,350,68868,5,2,1:2:0:0:
178,289,69035,1,2,0:0:0:0:
461,145,69202,5,10,0:0:0:0:
114,196,69368,1,2,1:2:0:0:
388,369,69535,6,0,P|409:318|392:246,1,113.749994792938,2|0,1:2|0:0,0:0:0:0:
38,151,69868,2,0,P|29:206|50:258,1,113.749994792938,8|8,0:0|0:0,0:0:0:0:
99,322,70118,1,8,0:0:0:0:
99,322,70202,6,0,L|224:337,1,113.749994792938,6|0,1:2|0:0,0:0:0:0:
366,112,70535,1,10,0:0:0:0:
117,201,70702,1,0,0:0:0:0:
337,293,70868,2,0,L|469:281,1,113.749994792938,2|0,1:3|0:0,0:0:0:0:
153,80,71202,2,0,L|41:66,1,113.749994792938,10|0,0:0|0:0,0:0:0:0:
423,132,71535,6,0,P|435:79|400:9,1,113.749994792938,2|0,1:2|0:0,0:0:0:0:
205,234,71868,1,10,0:0:0:0:
489,186,72035,1,0,0:0:0:0:
261,28,72202,2,0,P|241:80|252:135,1,113.749994792938,2|0,1:2|0:0,0:0:0:0:
462,306,72535,1,8,0:0:0:0:
330,90,72702,1,0,1:0:0:0:
129,194,72868,6,0,L|149:329,1,113.749994792938,6|0,1:2|0:0,0:0:0:0:
191,369,73118,1,0,1:2:0:0:
191,369,73202,1,10,0:0:0:0:
255,124,73368,1,2,1:2:0:0:
16,289,73535,5,2,1:3:0:0:
372,263,73702,1,2,0:0:0:0:
110,128,73868,5,10,0:0:0:0:
459,194,74035,1,10,0:0:0:0:
152,311,74202,5,6,1:2:0:0:
102,17,74368,1,0,1:0:0:0:
331,204,74535,6,0,L|321:336,1,113.749994792938,8|0,0:0|0:0,0:0:0:0:
195,76,74868,1,6,1:2:0:0:
512,116,75035,1,0,1:0:0:0:
241,264,75202,1,14,0:0:0:0:
198,259,75285,1,8,0:0:0:0:
156,255,75368,1,8,0:0:0:0:
115,251,75451,1,8,0:0:0:0:
73,247,75535,6,0,L|68:128,1,113.749994792938,6|0,1:2|0:0,0:0:0:0:
62,57,75785,1,2,1:2:0:0:
62,57,75869,1,10,0:0:0:0:
253,179,76035,1,2,0:0:0:0:
149,348,76202,2,0,L|158:234,1,113.749994792938,2|2,1:3|0:0,0:0:0:0:
62,42,76535,1,10,0:0:0:0:
267,190,76702,1,2,1:2:0:0:
36,291,76869,5,2,1:2:0:0:
402,216,77035,1,2,0:0:0:0:
82,164,77202,5,10,0:0:0:0:
435,311,77369,1,2,1:2:0:0:
117,384,77535,6,0,P|104:329|124:277,1,113.749994792938,2|0,1:2|0:0,0:0:0:0:
341,125,77869,1,10,0:0:0:0:
203,339,78035,1,2,1:2:0:0:
49,96,78202,6,0,B|80:70|80:70|167:79,1,113.749994792938,6|0,1:2|0:0,0:0:0:0:
232,88,78452,1,2,1:2:0:0:
232,88,78535,1,10,0:0:0:0:
0,253,78702,1,2,0:0:0:0:
228,344,78869,2,0,L|358:329,1,113.749994792938,2|0,1:3|0:0,0:0:0:0:
423,80,79202,1,10,0:0:0:0:
347,331,79369,1,2,1:2:0:0:
316,28,79535,5,2,1:2:0:0:
445,343,79702,1,2,1:2:0:0:
454,0,79869,5,10,0:0:0:0:
344,349,80035,1,2,0:0:0:0:
121,121,80202,6,0,P|112:65|133:13,1,113.749994792938,2|0,1:2|0:0,0:0:0:0:
298,264,80535,2,0,L|178:253,1,113.749994792938,8|8,0:0|0:0,0:0:0:0:
118,286,80785,1,8,0:0:0:0:
118,286,80869,6,0,L|-16:277,1,113.749994792938,6|0,1:2|0:0,0:0:0:0:
290,152,81202,1,10,0:0:0:0:
163,361,81369,1,0,0:0:0:0:
29,178,81535,2,0,P|23:121|56:59,1,113.749994792938,2|0,1:3|0:0,0:0:0:0:
299,251,81868,2,0,P|305:308|272:370,1,113.749994792938,10|0,0:0|0:0,0:0:0:0:
119,29,82202,6,0,L|247:24,1,113.749994792938,2|0,1:2|0:0,0:0:0:0:
409,198,82535,1,10,0:0:0:0:
151,122,82702,1,0,1:0:0:0:
466,17,82869,2,0,B|486:55|486:55|461:143,1,113.749994792938,2|0,1:2|0:0,0:0:0:0:
293,310,83202,1,10,0:0:0:0:
236,68,83369,1,0,1:0:0:0:
422,188,83535,6,0,L|435:305,1,113.749994792938,6|0,1:2|0:0,0:0:0:0:
445,376,83785,1,2,1:2:0:0:
445,376,83869,1,10,0:0:0:0:
163,300,84035,1,2,1:2:0:0:
343,80,84202,5,2,1:3:0:0:
248,375,84369,1,2,1:2:0:0:
171,23,84535,5,10,0:0:0:0:
323,344,84702,1,2,1:2:0:0:
469,79,84868,6,0,L|343:71,1,113.749994792938,6|0,1:2|0:0,0:0:0:0:
119,288,85202,2,0,L|245:279,1,113.749994792938,8|8,0:0|0:0,0:0:0:0:
119,98,85535,1,2,1:2:0:0:
57,355,85702,5,2,1:2:0:0:
343,82,85868,1,10,0:0:0:0:
312,41,85951,1,8,0:0:0:0:
269,14,86034,1,10,0:0:0:0:
218,8,86117,1,8,0:0:0:0:
169,21,86202,6,0,P|152:52|185:140,1,131.25,4|0,1:2|0:0,0:0:0:0:
211,147,86535,6,0,P|228:177|195:265,1,131.25,2|0,0:0|0:0,0:0:0:0:
176,276,86868,6,0,P|228:260|255:323,1,131.25,4|0,1:2|0:0,0:0:0:0:
176,384,87202,5,2,0:0:0:0:
166,380,87535,5,14,0:0:0:0:
136,99,87702,1,2,1:2:0:0:
136,99,87785,1,0,1:0:0:0:
136,99,87868,1,10,0:0:0:0:
345,329,88035,1,2,1:2:0:0:
31,265,88202,1,14,0:0:0:0:
18,262,88535,5,14,0:0:0:0:
304,187,88702,1,2,1:2:0:0:
45,19,88868,6,0,L|58:148,1,104.999996795654,14|0,0:0|1:0,0:0:0:0:
220,313,89202,5,10,0:0:0:0:
263,58,89369,1,0,1:2:0:0:
85,325,89536,5,10,0:0:0:0:
357,239,89703,1,0,1:0:0:0:
167,7,89868,6,0,P|152:54|177:115,1,104.999996795654,10|2,0:0|1:2,0:0:0:0:
434,263,90202,5,10,0:0:0:0:
280,53,90369,1,2,1:2:0:0:
255,55,90452,1,2,0:0:0:0:
229,57,90535,5,10,0:0:0:0:
9,75,90702,1,2,1:2:0:0:
177,284,90868,5,10,0:0:0:0:
305,51,91035,1,0,1:0:0:0:
360,321,91202,5,10,0:0:0:0:
119,195,91368,1,2,1:2:0:0:
416,62,91535,6,0,L|410:167,1,104.999996795654,14|0,0:0|1:0,0:0:0:0:
234,374,91868,5,10,0:0:0:0:
181,134,92035,1,2,1:2:0:0:
456,314,92202,6,0,L|351:307,1,104.999996795654,10|0,0:0|1:0,0:0:0:0:
97,178,92535,5,10,0:0:0:0:
390,139,92702,1,0,1:0:0:0:
109,292,92868,5,10,0:0:0:0:
137,32,93035,1,2,1:2:0:0:
137,32,93118,1,2,0:0:0:0:
137,32,93202,5,10,0:0:0:0:
316,221,93368,1,2,1:2:0:0:
47,91,93535,5,10,0:0:0:0:
323,36,93702,1,0,1:0:0:0:
156,281,93868,5,14,0:0:0:0:
116,18,94035,1,2,1:2:0:0:
363,169,94202,6,0,L|353:281,1,104.999996795654,14|2,0:0|1:2,0:0:0:0:
342,343,94452,1,2,0:0:0:0:
342,343,94535,5,10,0:0:0:0:
492,207,94702,1,2,1:2:0:0:
234,101,94868,2,0,L|245:213,1,104.999996795654,10|2,0:0|1:2,0:0:0:0:
253,279,95118,1,2,0:0:0:0:
253,279,95202,5,10,0:0:0:0:
340,57,95368,1,2,1:2:0:0:
83,43,95535,5,10,0:0:0:0:
322,156,95702,2,0,L|393:146,1,52.4999983978272,2|2,1:2|0:0,0:0:0:0:
98,296,95868,5,10,0:0:0:0:
187,23,96035,1,2,1:2:0:0:
363,228,96202,6,0,L|348:336,1,104.999996795654,10|0,0:0|0:0,0:0:0:0:
151,111,96535,5,14,0:0:0:0:
272,374,96702,1,2,1:2:0:0:
327,51,96868,5,14,0:0:0:0:
339,31,97202,5,2,1:2:0:0:
233,298,97368,1,10,0:0:0:0:
168,0,97535,1,14,0:0:0:0:
173,11,97868,6,0,B|116:13|116:13|109:24|109:24|43:28,1,131.25,14|0,0:0|0:0,0:0:0:0:
0,90,98202,5,6,1:2:0:0:
174,147,98368,1,2,1:2:0:0:
176,120,98451,1,2,0:0:0:0:
178,94,98534,1,14,0:0:0:0:
45,249,98702,1,2,1:2:0:0:
312,159,98868,6,0,B|244:119|219:223|285:251|285:251|322:286|299:346,1,245,6|0,1:2|0:0,0:0:0:0:
256,377,99535,5,2,0:0:0:0:
178,339,99702,1,2,0:0:0:0:
161,341,99785,1,2,0:0:0:0:
144,343,99868,5,2,0:0:0:0:
44,323,100035,1,2,0:0:0:0:
6,225,100202,5,2,0:0:0:0:
79,218,100368,1,2,0:0:0:0:
156,124,100535,5,2,0:0:0:0:
115,119,100702,1,2,0:0:0:0:
84,49,100868,6,0,B|134:37|134:37|166:45|166:45|232:29,1,144.375004405975,2|0,0:0|0:0,0:0:0:0:
307,12,101535,2,0,B|281:49|309:86|309:86|329:121|308:158,1,144.375004405975,2|2,0:0|0:0,0:0:0:0:
252,195,102202,1,2,0:0:0:0:
301,263,102368,1,2,0:0:0:0:
252,332,102535,1,2,0:0:0:0:
171,305,102702,1,2,0:0:0:0:
163,313,102868,1,2,0:0:0:0:
152,320,103535,6,0,P|114:342|19:295,1,144.375004405975,2|0,0:0|0:0,0:0:0:0:
95,263,104202,2,0,B|111:228|111:228|95:110,1,144.375004405975,2|2,0:0|0:0,0:0:0:0:
67,46,104868,1,2,0:0:0:0:
147,22,105035,1,2,0:0:0:0:
224,54,105202,1,2,0:0:0:0:
303,34,105368,1,2,0:0:0:0:
313,43,105535,1,2,0:0:0:0:
321,55,105868,6,0,P|314:118|310:182,1,105,8|0,1:2|0:0,0:0:0:0:
352,242,106202,6,0,L|215:231,1,96.250002937317,6|0,1:2|1:0,0:0:0:0:
176,226,106452,1,8,0:0:0:0:
176,226,106535,1,0,1:0:0:0:
389,169,106702,1,10,0:0:0:0:
213,335,106869,1,2,1:2:0:0:
137,113,107035,1,0,1:0:0:0:
137,113,107118,1,8,0:0:0:0:
137,113,107202,1,0,1:0:0:0:
302,281,107369,1,10,0:0:0:0:
66,347,107535,5,2,1:2:0:0:
225,144,107702,1,0,1:0:0:0:
225,144,107785,1,8,0:0:0:0:
225,144,107869,1,0,1:0:0:0:
15,50,108035,1,10,0:0:0:0:
167,268,108202,6,0,P|213:288|286:267,1,96.250002937317,2|0,1:2|0:0,0:0:0:0:
315,230,108452,1,8,0:0:0:0:
314,229,108535,2,0,L|332:128,1,96.250002937317,0|8,1:0|0:0,0:0:0:0:
365,28,108868,5,2,1:2:0:0:
389,24,108952,1,2,0:0:0:0:
413,21,109035,1,2,0:0:0:0:
244,162,109202,5,10,0:0:0:0:
214,156,109285,1,2,0:0:0:0:
181,152,109368,1,10,0:0:0:0:
381,309,109534,5,2,1:2:0:0:
480,108,109702,1,2,1:2:0:0:
480,108,109785,1,8,0:0:0:0:
480,108,109868,1,2,1:2:0:0:
271,254,110034,1,10,0:0:0:0:
512,328,110201,5,2,1:2:0:0:
391,77,110368,1,2,1:2:0:0:
391,77,110452,1,8,0:0:0:0:
391,77,110534,1,2,1:2:0:0:
178,188,110701,1,10,0:0:0:0:
417,366,110868,2,0,B|408:312|408:312|417:287|417:287|406:224,1,144.375004405975,2|8,1:2|0:0,0:0:0:0:
438,155,111202,2,0,P|387:147|339:187,1,96.250002937317,0|8,1:0|0:0,0:0:0:0:
331,363,111534,5,2,0:0:0:0:
331,363,112868,6,0,P|293:344|248:355,2,78.7499975967408,2|2|2,0:0|0:0|0:0,0:0:0:0:
181,360,113868,2,0,P|181:330|196:305,1,59.0624981975556,2|0,0:0|0:0,0:0:0:0:
265,266,114202,5,14,0:0:0:0:
94,238,114369,1,2,1:2:0:0:
97,274,114452,1,0,1:0:0:0:
100,309,114535,1,10,0:0:0:0:
222,164,114702,1,10,0:0:0:0:
33,101,114869,6,0,L|24:219,1,96.250002937317,10|0,0:0|0:0,0:0:0:0:
204,75,115202,1,0,1:0:0:0:
207,39,115285,1,0,1:0:0:0:
210,4,115368,1,10,0:0:0:0:
94,238,115535,5,6,1:2:0:0:
350,125,115702,1,2,1:2:0:0:
125,29,115869,1,10,0:0:0:0:
250,243,116035,1,2,1:2:0:0:
445,59,116202,6,0,P|460:98|451:157,1,96.250002937317,10|0,0:0|1:0,0:0:0:0:
296,328,116535,1,0,1:0:0:0:
316,279,116618,1,0,1:0:0:0:
362,255,116701,1,0,1:0:0:0:
409,262,116784,1,0,1:0:0:0:
428,283,116868,6,0,P|372:267|388:171,1,157.499995193482,4|2,1:2|1:2,0:0:0:0:
466,171,117368,1,0,0:0:0:0:
505,81,117535,2,0,P|483:44|433:28,1,78.7499975967408,2|0,1:2|0:0,0:0:0:0:
380,58,117785,1,0,1:0:0:0:
380,58,117868,2,0,P|338:46|291:69,1,78.7499975967408,2|0,1:2|0:0,0:0:0:0:
219,26,118202,6,0,L|230:116,1,78.7499975967408,2|0,1:2|0:0,0:0:0:0:
291,154,118452,1,0,1:0:0:0:
291,154,118535,2,0,L|280:244,1,78.7499975967408,2|0,1:2|0:0,0:0:0:0:
335,291,118868,2,0,P|301:310|262:310,1,78.7499975967408,2|0,1:2|0:0,0:0:0:0:
211,384,119119,1,0,1:0:0:0:
211,384,119202,2,0,P|181:360|165:325,1,78.7499975967408,2|0,1:2|0:0,0:0:0:0:
73,346,119535,6,0,L|78:260,1,78.7499975967408,2|0,1:2|0:0,0:0:0:0:
119,201,119785,1,0,1:0:0:0:
119,201,119868,2,0,L|124:115,1,78.7499975967408,0|2,1:0|0:0,0:0:0:0:
77,50,120202,2,0,P|116:35|164:50,1,78.7499975967408,0|0,1:0|0:0,0:0:0:0:
198,103,120452,1,0,1:0:0:0:
198,103,120535,2,0,P|237:118|285:103,1,78.7499975967408,2|0,1:2|0:0,0:0:0:0:
383,3,120869,5,6,1:2:0:0:
256,192,120952,12,0,122118,0:0:0:0:
140,76,122202,5,8,0:0:0:0:
126,95,122285,1,0,1:0:0:0:
119,118,122368,1,0,1:0:0:0:
119,141,122451,1,0,1:0:0:0:
68,192,122535,5,8,0:0:0:0:
84,216,122618,1,0,1:0:0:0:
93,246,122701,1,0,1:0:0:0:
93,274,122784,1,0,1:0:0:0:
140,341,122868,5,8,0:0:0:0:
162,299,122951,1,8,0:0:0:0:
202,276,123034,1,8,0:0:0:0:
251,278,123117,1,8,0:0:0:0:
307,320,123202,6,0,P|397:337|430:243,1,196.875007510186,12|0,0:0|0:0,0:0:0:0:
381,192,123535,6,0,L|355:66,1,113.749994792938,6|0,1:2|1:0,0:0:0:0:
337,0,123785,1,2,1:2:0:0:
337,0,123869,1,10,0:0:0:0:
216,191,124035,1,2,1:2:0:0:
470,129,124202,2,0,L|482:16,1,113.749994792938,2|0,1:3|0:0,0:0:0:0:
282,247,124535,1,10,0:0:0:0:
171,37,124702,1,2,1:2:0:0:
424,206,124869,5,2,1:2:0:0:
134,269,125035,1,2,1:2:0:0:
459,138,125202,5,10,0:0:0:0:
94,97,125369,1,2,1:2:0:0:
418,315,125535,6,0,P|438:262|425:208,1,113.749994792938,2|0,1:2|0:0,0:0:0:0:
203,55,125869,1,10,0:0:0:0:
307,331,126035,1,2,1:2:0:0:
472,76,126202,6,0,L|353:68,1,113.749994792938,2|0,1:2|0:0,0:0:0:0:
281,63,126452,1,2,1:2:0:0:
281,63,126535,1,10,0:0:0:0:
475,218,126702,1,2,1:2:0:0:
233,309,126869,2,0,P|221:248|253:200,1,113.749994792938,2|0,1:3|0:0,0:0:0:0:
512,146,127202,1,10,0:0:0:0:
322,360,127369,1,2,1:2:0:0:
263,90,127535,5,2,1:2:0:0:
407,335,127702,1,2,1:2:0:0:
316,30,127869,5,10,0:0:0:0:
242,317,128035,1,2,1:2:0:0:
393,16,128202,6,0,L|505:32,1,113.749994792938,2|0,1:2|0:0,0:0:0:0:
242,317,128535,2,0,L|108:330,1,113.749994792938,8|8,0:0|0:0,0:0:0:0:
49,298,128785,1,8,0:0:0:0:
49,298,128869,6,0,P|29:240|56:184,1,113.749994792938,6|0,1:2|0:0,0:0:0:0:
267,79,129202,1,10,0:0:0:0:
111,244,129369,1,0,1:0:0:0:
345,308,129535,2,0,L|362:179,1,113.749994792938,2|0,1:3|0:0,0:0:0:0:
147,23,129868,2,0,L|158:136,1,113.749994792938,10|0,0:0|0:0,0:0:0:0:
466,233,130202,6,0,L|455:113,1,113.749994792938,2|0,1:2|0:0,0:0:0:0:
239,292,130535,1,10,0:0:0:0:
289,71,130702,1,0,1:0:0:0:
498,328,130869,2,0,P|452:331|389:286,1,113.749994792938,2|0,1:2|0:0,0:0:0:0:
378,40,131202,1,8,0:0:0:0:
466,246,131369,1,0,1:0:0:0:
236,329,131535,6,0,L|219:216,1,113.749994792938,2|0,1:2|0:0,0:0:0:0:
202,143,131785,1,2,1:2:0:0:
202,143,131869,1,10,0:0:0:0:
305,378,132035,1,2,1:2:0:0:
277,84,132202,5,2,1:3:0:0:
224,344,132369,1,2,1:2:0:0:
192,21,132535,5,10,0:0:0:0:
291,298,132702,1,2,1:2:0:0:
352,0,132869,5,6,1:2:0:0:
83,140,133035,1,0,0:0:0:0:
356,270,133202,6,0,L|480:252,1,113.749994792938,8|0,0:0|0:0,0:0:0:0:
196,77,133535,1,6,1:2:0:0:
325,346,133702,1,0,1:0:0:0:
429,68,133869,1,14,0:0:0:0:
236,307,134035,1,8,0:0:0:0:
195,303,134118,1,8,0:0:0:0:
153,299,134202,6,0,P|127:243|148:180,1,113.749994792938,6|0,1:2|0:0,0:0:0:0:
200,150,134452,1,2,1:2:0:0:
200,150,134536,1,10,0:0:0:0:
0,364,134702,1,2,1:2:0:0:
214,236,134869,2,0,L|348:252,1,113.749994792938,2|0,1:3|0:0,0:0:0:0:
53,75,135202,1,10,0:0:0:0:
226,320,135369,1,2,1:2:0:0:
334,36,135536,5,2,1:2:0:0:
89,284,135702,1,2,1:2:0:0:
423,87,135869,5,10,0:0:0:0:
63,103,136036,1,2,1:2:0:0:
413,295,136202,6,0,P|426:240|406:188,1,113.749994792938,2|0,1:2|0:0,0:0:0:0:
198,2,136536,1,10,0:0:0:0:
332,250,136702,1,2,1:2:0:0:
476,52,136869,6,0,B|426:54|426:54|418:64|418:64|363:68,1,113.749994792938,2|0,1:2|0:0,0:0:0:0:
283,73,137119,1,2,1:2:0:0:
283,73,137202,1,10,0:0:0:0:
495,221,137369,1,2,1:2:0:0:
281,334,137536,2,0,L|128:321,1,113.749994792938,2|0,1:3|0:0,0:0:0:0:
423,79,137869,1,10,0:0:0:0:
362,343,138036,1,2,1:2:0:0:
317,45,138202,5,2,1:2:0:0:
453,322,138369,1,2,1:2:0:0:
444,4,138536,5,10,0:0:0:0:
360,359,138702,1,2,1:2:0:0:
121,120,138869,6,0,P|112:64|133:12,1,113.749994792938,2|0,1:2|0:0,0:0:0:0:
344,247,139202,2,0,L|224:236,1,113.749994792938,8|8,0:0|0:0,0:0:0:0:
151,228,139452,1,8,0:0:0:0:
151,228,139536,6,0,L|164:362,1,113.749994792938,6|0,1:2|0:0,0:0:0:0:
255,107,139869,1,10,0:0:0:0:
43,206,140036,1,0,1:0:0:0:
250,325,140202,2,0,L|376:337,1,113.749994792938,2|0,1:3|0:0,0:0:0:0:
147,68,140535,2,0,L|30:83,1,113.749994792938,10|0,0:0|0:0,0:0:0:0:
439,270,140869,6,0,P|461:220|436:145,1,113.749994792938,2|0,1:2|0:0,0:0:0:0:
221,28,141202,1,10,0:0:0:0:
285,288,141369,1,0,1:0:0:0:
472,49,141536,2,0,B|348:63,1,113.749994792938,2|0,1:2|0:0,0:0:0:0:
149,266,141869,1,8,0:0:0:0:
373,213,142036,1,0,0:0:0:0:
116,3,142202,6,0,P|103:57|129:120,1,113.749994792938,2|0,1:2|0:0,0:0:0:0:
199,145,142452,1,2,1:2:0:0:
199,145,142536,1,10,0:0:0:0:
0,13,142702,1,2,1:2:0:0:
311,54,142869,5,2,1:3:0:0:
13,148,143036,1,2,1:2:0:0:
389,125,143202,5,10,0:0:0:0:
79,40,143369,1,2,1:2:0:0:
352,277,143535,6,0,L|468:263,1,113.749994792938,2|0,1:2|0:0,0:0:0:0:
191,345,143868,5,8,0:0:0:0:
224,68,144035,1,8,0:0:0:0:
420,345,144202,1,2,1:2:0:0:
56,257,144369,5,2,1:2:0:0:
332,16,144535,1,10,0:0:0:0:
327,61,144618,1,8,0:0:0:0:
323,106,144701,1,10,0:0:0:0:
319,151,144785,1,8,0:0:0:0:
315,198,144868,6,0,B|327:271|283:256|306:332,1,131.25,4|0,1:2|0:0,0:0:0:0:
321,338,145202,6,0,P|267:357|217:284,1,131.25,2|0,0:0|0:0,0:0:0:0:
204,301,145535,6,0,P|218:252|150:219,1,131.25,4|0,1:2|0:0,0:0:0:0:
113,296,145868,5,2,0:0:0:0:
107,303,146202,5,14,0:0:0:0:
354,207,146369,1,2,1:2:0:0:
354,207,146452,1,0,1:0:0:0:
354,207,146535,1,10,0:0:0:0:
107,87,146702,1,2,1:2:0:0:
219,383,146869,1,14,0:0:0:0:
232,384,147202,5,14,0:0:0:0:
267,167,147368,1,2,1:2:0:0:
413,303,147535,6,0,L|406:391,1,78.7499975967408,6|0,1:2|0:0,0:0:0:0:
262,279,147868,1,8,0:0:0:0:
356,179,148035,2,0,B|426:190|426:190|432:203|432:203|517:216,1,157.499995193482,2|0,1:2|1:0,0:0:0:0:
457,45,148535,2,0,P|429:79|435:139,1,78.7499975967408,10|0,0:0|0:0,0:0:0:0:
331,53,148868,6,0,P|296:35|257:40,1,78.7499975967408,2|0,1:2|0:0,0:0:0:0:
172,193,149202,1,8,0:0:0:0:
319,137,149368,1,0,0:0:0:0:
176,20,149535,2,0,P|146:45|134:82,1,78.7499975967408,0|0,1:0|1:0,0:0:0:0:
274,211,149868,1,10,0:0:0:0:
258,39,150035,1,2,0:0:0:0:
91,154,150202,6,0,L|97:244,1,78.7499975967408,2|0,1:2|0:0,0:0:0:0:
25,54,150535,1,8,0:0:0:0:
184,190,150702,2,0,B|279:201|228:133|326:147,1,157.499995193482,2|0,1:2|1:0,0:0:0:0:
267,337,151202,2,0,P|247:301|256:257,1,78.7499975967408,10|0,0:0|0:0,0:0:0:0:
402,284,151535,6,0,B|374:297|374:297|311:286,1,78.7499975967408,2|0,1:2|0:0,0:0:0:0:
477,205,151868,1,8,0:0:0:0:
435,368,152035,1,0,0:0:0:0:
356,214,152202,2,0,P|356:164|381:130,1,78.7499975967408,0|0,1:0|1:0,0:0:0:0:
499,288,152535,1,10,0:0:0:0:
290,255,152702,1,0,0:0:0:0:
483,126,152868,6,0,L|474:230,1,78.7499975967408,6|0,1:2|0:0,0:0:0:0:
343,64,153202,2,0,B|411:57|411:57|418:49|418:49|496:41,1,157.499995193482,8|0,0:0|1:0,0:0:0:0:
399,138,153702,1,0,1:0:0:0:
266,95,153868,2,0,P|259:49|285:7,1,78.7499975967408,10|0,0:0|0:0,0:0:0:0:
321,183,154202,6,0,P|334:219|326:257,1,78.7499975967408,6|0,1:2|0:0,0:0:0:0:
183,325,154535,1,8,0:0:0:0:
96,221,154702,2,0,B|126:205|126:205|271:230,1,157.499995193482,2|0,1:2|1:0,0:0:0:0:
27,257,155202,2,0,P|17:214|40:173,1,78.7499975967408,10|0,0:0|1:0,0:0:0:0:
143,25,155535,6,0,L|151:105,1,78.7499975967408,6|0,1:2|0:0,0:0:0:0:
44,0,155868,1,8,0:0:0:0:
228,62,156035,1,0,0:0:0:0:
29,183,156202,2,0,L|34:100,1,78.7499975967408,4|0,1:2|1:0,0:0:0:0:
184,248,156535,1,8,0:0:0:0:
7,297,156702,1,0,0:0:0:0:
235,161,156868,5,4,1:2:0:0:
179,384,157035,1,8,0:0:0:0:
113,114,157202,1,8,3:2:0:0:
311,292,157368,1,8,0:0:0:0:
311,292,157452,1,8,0:0:0:0:
311,292,157535,2,0,L|361:298,1,39.3749987983704,0|0,1:0|1:0,0:0:0:0:
414,157,157702,2,0,L|375:162,1,39.3749987983704,10|8,3:2|3:2,0:0:0:0:
303,314,157868,2,0,L|353:319,1,39.3749987983704,8|8,3:2|3:2,0:0:0:0:
419,138,158035,6,0,B|350:144|350:144|315:128|315:128|241:136,1,175,6|0,1:2|1:0,0:0:0:0:
326,0,158535,2,0,P|353:23|366:72,1,87.5,10|0,0:0|0:0,0:0:0:0:
165,167,158868,2,0,L|173:62,1,87.5,2|0,1:2|1:0,0:0:0:0:
296,227,159202,1,10,0:0:0:0:
90,269,159368,2,0,L|80:158,1,87.5,6|0,1:2|0:0,0:0:0:0:
136,344,159702,6,0,P|103:359|6:274,1,175,2|0,1:2|0:0,0:0:0:0:
211,275,160202,2,0,P|232:312|221:379,1,87.5,2|0,1:2|1:0,0:0:0:0:
90,269,160535,1,10,0:0:0:0:
285,219,160702,6,0,P|323:291|303:398,1,175,6|0,1:2|1:0,0:0:0:0:
243,137,161202,2,0,L|348:146,1,87.5,10|0,0:0|0:0,0:0:0:0:
230,313,161535,2,0,L|135:319,1,87.5,2|0,1:2|1:0,0:0:0:0:
312,381,161868,1,10,0:0:0:0:
427,270,162035,6,0,P|439:231|416:172,1,87.5,6|0,1:2|0:0,0:0:0:0:
283,68,162368,1,2,1:2:0:0:
185,208,162535,2,0,B|259:221|259:221|279:212|279:212|361:227,1,175,10|0,0:0|1:0,0:0:0:0:
235,136,163035,1,0,1:0:0:0:
206,296,163202,1,10,0:0:0:0:
162,300,163285,1,8,0:0:0:0:
118,304,163368,1,10,0:0:0:0:
75,308,163452,1,8,0:0:0:0:
31,313,163535,6,0,L|41:205,1,91.8749971961976,4|0,1:2|0:0,0:0:0:0:
132,17,163868,2,0,P|161:53|155:127,1,91.8749971961976,8|0,0:0|0:0,0:0:0:0:
39,221,164202,1,0,1:0:0:0:
0,0,164368,1,0,1:0:0:0:
198,176,164535,2,0,B|239:184|239:184|286:168,1,91.8749971961976,8|0,0:0|1:0,0:0:0:0:
83,87,164868,6,2,L|87:138,1,45.9374985980988,2|2,1:2|0:2,0:2:0:0:
106,273,165035,1,0,0:0:0:0:
195,52,165202,6,2,L|199:103,1,45.9374985980988,10|2,0:2|0:2,0:2:0:0:
216,284,165368,1,2,0:0:0:0:
297,30,165535,6,2,L|301:81,1,45.9374985980988,2|2,1:2|0:2,0:2:0:0:
321,286,165702,1,0,1:0:0:0:
434,96,165868,6,0,L|422:-11,1,91.8749971961976,10|0,0:0|0:0,0:0:0:0:
492,239,166202,6,0,P|450:255|380:228,1,91.8749971961976,2|0,1:2|0:0,0:0:0:0:
333,135,166535,6,2,L|331:207,1,45.9374985980988,10|2,0:2|0:2,0:2:0:0:
329,346,166702,1,0,0:0:0:0:
225,110,166868,6,2,L|223:182,1,45.9374985980988,2|2,1:2|0:2,0:2:0:0:
211,353,167035,1,0,1:0:0:0:
123,73,167202,6,2,L|121:145,1,45.9374985980988,10|2,0:2|0:2,0:2:0:0:
105,357,167368,1,0,1:0:0:0:
12,129,167535,6,0,L|18:14,1,96.250002937317,2|0,1:2|0:0,0:0:0:0:
249,267,167868,2,0,B|208:273|208:273|196:267|196:267|135:277,1,96.250002937317,8|0,0:0|0:0,0:0:0:0:
324,130,168202,1,2,1:2:0:0:
244,353,168368,1,0,1:0:0:0:
102,89,168535,2,0,P|144:67|197:80,1,96.250002937317,8|0,0:0|0:0,0:0:0:0:
414,311,168868,6,0,B|384:323|384:323|310:305,1,96.250002937317,6|0,1:2|0:0,0:0:0:0:
475,76,169202,2,0,P|496:120|476:186,1,96.250002937317,10|0,0:0|0:0,0:0:0:0:
329,384,169535,1,2,1:2:0:0:
407,125,169702,1,0,1:0:0:0:
512,322,169868,1,10,0:0:0:0:
272,187,170035,6,0,B|194:200|194:200|186:216|186:216|92:232,1,192.500005874634,2|0,1:2|1:0,0:0:0:0:
229,361,170535,2,0,P|230:309|267:266,1,96.250002937317,10|0,0:0|0:0,0:0:0:0:
104,58,170868,2,0,P|130:97|129:144,1,96.250002937317,2|0,1:2|1:0,0:0:0:0:
397,312,171202,2,0,P|350:314|312:343,1,96.250002937317,10|0,0:0|0:0,0:0:0:0:
367,79,171535,6,0,L|477:91,1,96.250002937317,2|0,1:2|0:0,0:0:0:0:
240,0,171868,1,8,0:0:0:0:
317,185,172035,2,0,L|428:174,1,96.250002937317,2|0,0:0|1:0,0:0:0:0:
139,90,172368,1,0,1:0:0:0:
260,277,172535,2,0,L|370:289,1,96.250002937317,10|0,0:0|0:0,0:0:0:0:
73,32,172868,6,0,P|52:68|78:155,1,96.250002937317,2|0,1:2|0:0,0:0:0:0:
203,334,173202,1,8,0:0:0:0:
244,142,173368,1,0,0:0:0:0:
48,269,173535,2,0,L|145:258,1,96.250002937317,0|0,1:0|1:0,0:0:0:0:
266,51,173868,2,0,L|170:40,1,96.250002937317,8|0,0:0|1:0,0:0:0:0:
366,203,174202,5,0,1:0:0:0:
389,185,174285,1,2,0:0:0:0:
397,155,174368,1,2,0:0:0:0:
391,126,174452,1,2,0:0:0:0:
339,75,174535,6,0,P|383:73|422:36,1,96.250002937317,10|0,0:0|0:0,0:0:0:0:
268,238,174868,2,0,P|224:234|185:197,1,96.250002937317,2|0,1:2|1:0,0:0:0:0:
360,363,175202,1,10,0:0:0:0:
112,251,175368,6,0,P|90:210|97:163,1,96.250002937317,2|0,1:2|0:0,0:0:0:0:
311,105,175702,1,2,1:2:0:0:
161,318,175868,2,0,B|127:332|127:332|50:320,1,96.250002937317,10|0,0:0|0:0,0:0:0:0:
323,183,176202,1,0,1:0:0:0:
215,383,176368,1,0,1:0:0:0:
97,163,176535,2,0,L|85:44,1,96.250002937317,10|0,0:0|0:0,0:0:0:0:
291,260,176868,6,0,P|338:264|380:241,1,96.250002937317,2|0,1:2|0:0,0:0:0:0:
457,4,177202,2,0,L|467:129,1,96.250002937317,10|2,0:0|0:0,0:0:0:0:
226,211,177535,1,0,1:0:0:0:
324,7,177702,1,0,1:0:0:0:
476,234,177868,2,0,L|351:244,1,96.250002937317,10|0,0:0|0:0,0:0:0:0:
133,19,178202,6,0,B|178:25|178:25|184:21|184:21|228:26,1,96.250002937317,2|0,1:2|0:0,0:0:0:0:
125,285,178535,1,8,0:0:0:0:
72,73,178702,1,0,0:0:0:0:
300,193,178868,2,0,P|307:243|277:305,1,96.250002937317,2|0,1:2|1:0,0:0:0:0:
31,352,179202,1,10,0:0:0:0:
200,136,179368,1,2,1:2:0:0:
351,356,179535,6,0,L|234:371,1,96.250002937317,6|0,1:2|0:0,0:0:0:0:
374,105,179868,2,0,L|469:117,1,96.250002937317,10|0,0:0|0:0,0:0:0:0:
195,311,180202,1,2,1:2:0:0:
149,74,180368,1,0,1:0:0:0:
323,195,180535,1,10,0:0:0:0:
61,136,180702,1,2,0:0:0:0:
280,11,180868,6,0,P|289:58|254:112,1,96.250002937317,0|0,1:0|0:0,0:0:0:0:
125,184,181118,1,2,0:0:0:0:
125,184,181202,2,0,P|161:152|225:156,1,96.250002937317,10|0,0:0|0:0,0:0:0:0:
309,351,181535,1,0,1:0:0:0:
77,265,181702,1,0,1:0:0:0:
286,181,181868,2,0,B|349:184|349:184|368:199|368:199|443:205,1,144.375004405975,10|0,0:0|0:0,0:0:0:0:
507,167,182202,6,0,L|491:285,1,96.250002937317,2|0,1:2|0:0,0:0:0:0:
312,103,182535,2,0,L|296:-15,1,96.250002937317,10|0,0:0|0:0,0:0:0:0:
333,283,182868,2,0,P|291:303|230:290,1,96.250002937317,2|0,1:2|1:0,0:0:0:0:
203,55,183202,1,10,0:0:0:0:
400,189,183368,1,2,0:0:0:0:
163,318,183535,6,0,L|176:186,1,96.250002937317,0|0,1:0|0:0,0:0:0:0:
183,145,183785,1,2,0:0:0:0:
183,145,183868,1,10,0:0:0:0:
35,211,184035,1,0,0:0:0:0:
242,296,184202,1,0,1:0:0:0:
338,126,184368,1,0,1:0:0:0:
502,277,184535,2,0,B|466:301|466:301|354:274,1,144.375004405975,10|0,0:0|0:0,0:0:0:0:
306,220,184868,6,0,P|351:199|424:225,1,96.250002937317,6|0,1:2|0:0,0:0:0:0:
221,333,185202,1,8,0:0:0:0:
182,115,185368,1,0,0:0:0:0:
367,277,185535,1,0,1:0:0:0:
113,243,185702,1,0,1:0:0:0:
267,60,185868,1,8,0:0:0:0:
226,306,186035,1,0,0:0:0:0:
45,114,186202,6,0,L|54:-14,1,96.250002937317,2|0,1:2|0:0,0:0:0:0:
130,67,186452,1,2,0:0:0:0:
130,67,186535,2,0,P|182:71|223:39,1,96.250002937317,10|0,0:0|0:0,0:0:0:0:
433,204,186868,2,0,L|424:76,1,96.250002937317,2|0,1:2|0:0,0:0:0:0:
348,157,187118,1,2,0:0:0:0:
348,157,187201,2,0,P|296:161|255:129,1,96.250002937317,10|8,0:0|0:0,0:0:0:0:
104,352,187535,5,14,0:2:0:0:
79,337,187618,1,0,1:2:0:0:
68,311,187701,1,0,1:2:0:0:
74,285,187785,1,0,1:2:0:0:
31,218,187868,5,10,0:0:0:0:
46,189,187951,1,0,1:2:0:0:
75,178,188034,1,0,1:2:0:0:
104,183,188118,1,0,1:2:0:0:
186,170,188202,5,10,0:0:0:0:
197,214,188285,1,0,1:2:0:0:
235,241,188368,1,0,1:2:0:0:
281,238,188452,1,0,1:2:0:0:
357,262,188535,5,10,0:0:0:0:
390,238,188618,1,0,1:0:0:0:
406,207,188701,1,0,1:0:0:0:
405,173,188785,1,0,1:0:0:0:
361,112,188868,6,0,P|350:56|371:13,1,96.250002937317,6|0,1:2|0:0,0:0:0:0:
511,295,189202,2,0,B|471:301|471:301|467:309|467:309|394:322,1,96.250002937317,10|0,0:0|0:0,0:0:0:0:
196,133,189535,2,0,B|236:139|236:139|240:147|240:147|313:160,1,96.250002937317,6|0,1:2|0:0,0:0:0:0:
245,232,189785,1,2,0:0:0:0:
245,232,189868,2,0,P|222:268|245:346,1,96.250002937317,14|0,0:0|0:0,0:0:0:0:
512,372,190202,5,6,1:2:0:0:
256,192,190285,12,0,192813,0:0:0:0:
416,289,194202,5,2,0:0:0:0:
336,293,194368,2,0,L|340:325,2,19.6874993991852,2|2|2,0:0|0:0|0:0,0:0:0:0:
256,306,194702,1,2,0:0:0:0:
167,242,194868,2,0,P|127:235|88:255,1,78.7499975967408,2|2,0:0|0:0,0:0:0:0:
140,311,195368,1,2,0:0:0:0:
57,181,195535,6,0,P|33:182|7:165,1,39.3749987983704,2|2,0:0|0:0,0:0:0:0:
53,105,195868,2,0,P|35:89|28:58,1,39.3749987983704,2|2,0:0|0:0,0:0:0:0:
103,52,196202,1,2,0:0:0:0:
224,7,196535,2,0,P|214:24|213:43,1,39.3749987983704,2|0,0:0|0:0,0:0:0:0:
298,84,196868,5,2,0:0:0:0:
378,80,197035,2,0,L|374:45,2,19.6874993991852,2|2|2,0:0|0:0|0:0,0:0:0:0:
458,67,197368,1,2,0:0:0:0:
491,174,197535,2,0,P|460:153|403:161,1,78.7499975967408,2|2,0:0|0:0,0:0:0:0:
438,230,198035,1,2,0:0:0:0:
320,271,198202,6,0,P|305:290|304:321,1,39.3749987983704,2|2,0:0|0:0,0:0:0:0:
379,319,198535,2,0,P|381:342|402:365,1,39.3749987983704,2|2,0:0|0:0,0:0:0:0:
452,308,198869,1,2,0:0:0:0:
220,155,199535,6,0,P|178:153|131:128,2,78.7499975967408,2|2|2,0:0|0:0|0:0,0:0:0:0:
205,37,200535,1,2,0:0:0:0:
338,153,200868,6,0,P|314:186|267:213,2,78.7499975967408,2|2|2,0:0|0:0|0:0,0:0:0:0:
136,280,202202,6,0,P|108:278|93:269,1,39.3749987983704,2|2,0:0|0:0,0:0:0:0:
136,204,202535,1,2,0:0:0:0:
149,129,202702,6,0,L|173:123,3,13.1249995994568,2|2|2|2,0:0|0:0|0:0|0:0,0:0:0:0:
72,158,203035,1,2,0:0:0:0:
7,110,203202,1,2,0:0:0:0:
82,79,203368,1,2,0:0:0:0:
20,27,203535,1,2,0:0:0:0:
20,27,204202,6,0,P|72:71|159:44,1,157.499995193482,2|0,0:0|0:0,0:0:0:0:
154,38,204535,2,0,P|222:28|203:120,1,183.749994392395,2|0,0:0|0:0,0:0:0:0:
139,140,204868,6,0,L|148:279,1,113.749994792938,6|0,1:2|0:0,0:0:0:0:
153,328,205118,1,2,1:2:0:0:
153,328,205202,1,10,0:0:0:0:
260,72,205368,1,2,1:2:0:0:
46,214,205535,2,0,L|34:327,1,113.749994792938,2|0,1:3|0:0,0:0:0:0:
287,179,205868,1,10,0:0:0:0:
29,126,206035,1,2,1:2:0:0:
322,306,206202,5,2,1:2:0:0:
269,4,206368,1,2,1:2:0:0:
234,349,206535,5,10,0:0:0:0:
383,96,206702,1,2,1:2:0:0:
104,20,206868,6,0,P|91:74|111:126,1,113.749994792938,2|0,1:2|0:0,0:0:0:0:
383,279,207202,1,10,0:0:0:0:
437,21,207368,1,2,1:2:0:0:
325,340,207535,6,0,P|375:362|436:349,1,113.749994792938,2|0,1:2|0:0,0:0:0:0:
480,287,207785,1,2,1:2:0:0:
480,287,207868,1,10,0:0:0:0:
209,332,208035,1,2,1:2:0:0:
398,166,208202,2,0,L|381:287,1,113.749994792938,2|0,1:3|0:0,0:0:0:0:
249,64,208535,1,10,0:0:0:0:
317,329,208702,1,2,1:2:0:0:
352,28,208868,5,2,1:2:0:0:
237,360,209035,1,2,1:2:0:0:
223,24,209202,5,10,0:0:0:0:
328,361,209368,1,2,1:2:0:0:
477,32,209535,6,0,L|463:182,1,113.749994792938,2|0,1:2|0:0,0:0:0:0:
190,347,209868,2,0,L|181:210,1,113.749994792938,8|8,0:0|0:0,0:0:0:0:
129,170,210118,1,8,0:0:0:0:
129,170,210202,6,0,P|187:150|243:177,1,113.749994792938,6|0,1:2|0:0,0:0:0:0:
304,373,210535,1,10,0:0:0:0:
51,235,210702,1,0,0:0:0:0:
321,126,210868,2,0,L|311:239,1,113.749994792938,2|0,1:3|0:0,0:0:0:0:
82,358,211201,2,0,L|71:245,1,113.749994792938,10|0,0:0|0:0,0:0:0:0:
377,59,211535,6,0,P|400:105|387:172,1,113.749994792938,2|0,1:2|0:0,0:0:0:0:
170,252,211868,1,10,0:0:0:0:
279,22,212035,1,0,1:0:0:0:
442,258,212202,2,0,L|306:237,1,113.749994792938,2|0,1:2|0:0,0:0:0:0:
133,98,212535,1,8,0:0:0:0:
392,51,212702,1,0,0:0:0:0:
285,303,212868,6,0,P|253:247|268:190,1,113.749994792938,6|0,1:2|0:0,0:0:0:0:
332,164,213118,1,2,1:2:0:0:
332,164,213202,1,10,0:0:0:0:
182,379,213368,1,2,1:2:0:0:
148,55,213535,5,2,1:3:0:0:
309,312,213702,1,2,1:2:0:0:
290,0,213868,5,10,0:0:0:0:
194,308,214035,1,2,1:2:0:0:
34,78,214202,5,6,1:2:0:0:
329,333,214368,1,0,1:0:0:0:
363,326,214451,1,0,1:0:0:0:
396,319,214534,5,8,0:0:0:0:
78,180,214702,1,8,0:0:0:0:
428,311,214868,5,6,1:2:0:0:
73,372,215035,1,2,1:2:0:0:
325,122,215202,1,14,0:0:0:0:
367,127,215285,1,8,0:0:0:0:
409,133,215368,1,10,0:0:0:0:
451,139,215452,1,8,0:0:0:0:
493,145,215535,6,0,P|508:212|459:256,1,131.25,4|0,1:2|0:0,0:0:0:0:
455,251,215868,6,0,P|440:318|489:362,1,131.25,2|0,0:0|0:0,0:0:0:0:
492,353,216201,6,0,P|443:308|363:342,1,131.25,4|0,1:2|0:0,0:0:0:0:
312,380,216535,5,2,0:0:0:0:
300,376,216868,5,14,0:0:0:0:
273,137,217035,1,2,1:2:0:0:
273,137,217118,1,0,1:0:0:0:
273,137,217201,1,10,0:0:0:0:
383,318,217368,1,2,1:2:0:0:
128,294,217535,1,14,0:0:0:0:
115,292,217868,5,8,0:0:0:0:
395,319,218035,1,2,1:2:0:0:
152,76,218202,6,0,P|134:124|168:195,1,131.25,4|0,1:2|0:0,0:0:0:0:
186,201,218535,6,0,P|236:192|281:127,1,131.25,2|0,0:0|0:0,0:0:0:0:
271,117,218868,6,0,P|292:173|351:160,1,131.25,4|0,1:2|0:0,0:0:0:0:
344,50,219202,5,2,0:0:0:0:
352,38,219535,5,10,0:0:0:0:
271,338,219702,1,0,1:2:0:0:
271,338,219785,1,0,1:0:0:0:
271,338,219868,1,10,0:0:0:0:
164,92,220035,1,10,0:0:0:0:
498,214,220202,1,10,0:0:0:0:
510,210,220535,5,14,0:0:0:0:
193,238,220702,1,2,1:2:0:0:
419,378,220868,6,0,L|428:244,1,104.999996795654,14|0,0:0|1:0,0:0:0:0:
251,60,221202,5,10,0:0:0:0:
321,326,221369,1,0,1:0:0:0:
471,104,221536,5,10,0:0:0:0:
165,201,221703,1,0,1:0:0:0:
482,319,221868,6,0,P|493:271|472:220,1,104.999996795654,10|2,0:0|1:2,0:0:0:0:
201,58,222202,5,10,0:0:0:0:
368,281,222368,1,2,1:2:0:0:
392,279,222452,1,2,0:0:0:0:
416,278,222535,5,10,0:0:0:0:
159,344,222702,1,2,1:2:0:0:
388,105,222868,5,10,0:0:0:0:
277,365,223035,1,0,1:0:0:0:
146,72,223202,5,10,0:0:0:0:
445,194,223369,1,2,1:2:0:0:
159,333,223535,6,0,L|40:325,1,104.999996795654,14|0,0:0|1:0,0:0:0:0:
289,55,223868,5,10,0:0:0:0:
263,346,224035,1,2,1:2:0:0:
69,110,224202,6,0,P|69:54|103:14,1,104.999996795654,10|0,0:0|1:0,0:0:0:0:
382,141,224535,5,10,0:0:0:0:
120,172,224702,1,0,1:0:0:0:
398,33,224868,5,10,0:0:0:0:
250,259,225035,1,2,1:2:0:0:
252,287,225118,1,2,0:0:0:0:
256,316,225201,5,10,0:0:0:0:
141,83,225368,1,2,1:2:0:0:
456,190,225535,5,10,0:0:0:0:
170,304,225702,1,0,1:0:0:0:
352,46,225868,5,14,0:0:0:0:
432,317,226035,1,2,1:2:0:0:
157,182,226202,6,0,L|149:70,1,104.999996795654,14|2,0:0|1:2,0:0:0:0:
186,12,226452,1,2,0:0:0:0:
186,12,226535,5,10,0:0:0:0:
343,225,226702,1,2,1:2:0:0:
134,359,226868,6,0,L|123:231,1,104.999996795654,10|2,0:0|1:2,0:0:0:0:
157,182,227118,1,2,0:0:0:0:
157,182,227202,5,10,0:0:0:0:
356,311,227368,1,2,1:2:0:0:
30,214,227535,5,10,0:0:0:0:
290,107,227702,2,0,L|361:98,1,52.4999983978272,2|2,1:2|0:0,0:0:0:0:
184,361,227868,5,10,0:0:0:0:
214,96,228035,1,2,1:2:0:0:
450,232,228202,6,0,P|457:280|433:328,1,104.999996795654,14|0,0:0|1:0,0:0:0:0:
164,186,228535,5,10,0:0:0:0:
457,151,228702,1,2,1:2:0:0:
78,74,228868,5,14,0:0:0:0:
74,62,229202,5,2,1:2:0:0:
146,328,229368,1,10,0:0:0:0:
258,20,229535,1,14,0:0:0:0:
262,9,229868,6,0,B|332:-2|317:43|400:37,1,131.25,14|0,0:0|0:0,0:0:0:0:
464,14,230202,5,14,0:0:0:0:
289,141,230368,1,2,1:2:0:0:
287,114,230451,1,2,0:0:0:0:
285,88,230535,1,14,0:0:0:0:
428,191,230702,1,2,1:2:0:0:
237,339,230868,6,0,B|177:370|120:312|120:312|35:238|23:363|91:332,1,280,14|0,0:0|0:0,0:0:0:0:
