osu file format v14

[General]
AudioFilename: audio.mp3
AudioLeadIn: 0
PreviewTime: 192785
Countdown: 0
SampleSet: Soft
StackLeniency: 0.4
Mode: 0
LetterboxInBreaks: 0
WidescreenStoryboard: 1

[Editor]
DistanceSpacing: 0.8
BeatDivisor: 4
GridSize: 16
TimelineZoom: 2.3

[Metadata]
Title:Hanagoyomi
TitleUnicode:華暦
Artist:Ayumi.
ArtistUnicode:Ayumi.
Creator:Mimari
Version:Insane.
Source:花の野に咲くうたかたの
Tags:eroge galgame video game vn visual novel opening op full japanese female vocal Hana no No ni Saku Utakata no applique soft never_log_off alexsander kuse kubsnia_zhoyl_
BeatmapID:2421784
BeatmapSetID:1155366

[Difficulty]
HPDrainRate:5.8
CircleSize:3.6
OverallDifficulty:8.2
ApproachRate:9
SliderMultiplier:1.52
SliderTickRate:1

[Events]
//Background and Video events
0,0,"bg.png",0,0
//Break Periods
2,101068,105268
2,193979,204268
//Storyboard Layer 0 (Background)
//Storyboard Layer 1 (Fail)
//Storyboard Layer 2 (Pass)
//Storyboard Layer 3 (Foreground)
//Storyboard Layer 4 (Overlay)
//Storyboard Sound Samples

[TimingPoints]
1036,500,4,2,66,55,1,0
1536,500,4,2,67,55,1,0
1536,-285.714285714284,4,2,67,55,0,0
3035,-285.714285714284,4,2,66,55,0,0
3536,-285.714285714284,4,2,67,55,0,0
5035,-285.714285714284,4,2,66,55,0,0
5536,-285.714285714284,4,2,67,55,0,0
6535,-285.714285714284,4,2,66,55,0,0
9536,-285.714285714284,4,2,67,55,0,0
10535,-285.714285714284,4,2,66,55,0,0
11536,-285.714285714284,4,2,67,55,0,0
12035,-285.714285714284,4,2,66,55,0,0
13536,-285.714285714284,4,2,67,55,0,0
13786,-285.714285714284,4,2,66,55,0,0
14035,-285.714285714284,4,2,66,55,0,0
16798,-100,4,2,66,55,0,0
16869,333.333333333333,4,2,66,85,1,0
16869,-90.9090909090909,4,2,66,85,0,0
25868,-111.111111111111,4,2,66,85,0,0
26868,-142.857142857143,4,2,66,85,0,0
26881,-142.857142857143,4,2,66,85,0,0
26952,-142.857142857143,4,2,66,75,0,0
27464,-142.857142857143,4,2,66,75,0,0
27535,-142.857142857143,4,2,66,70,0,0
27797,-142.857142857143,4,2,66,70,0,0
27868,-142.857142857143,4,2,66,65,0,0
28131,-142.857142857143,4,2,66,65,0,0
28202,-181.818181818182,4,2,66,60,0,0
28464,-181.818181818182,4,2,66,60,0,0
28535,-181.818181818182,4,2,66,55,0,0
28631,-181.818181818182,4,2,66,55,0,0
28702,-181.818181818182,4,2,66,50,0,0
28797,-181.818181818182,4,2,66,50,0,0
28868,-166.666666666667,4,2,66,55,0,0
42131,-166.666666666667,4,2,66,55,0,0
42202,-111.111111111111,4,2,66,70,0,0
52868,-111.111111111111,4,2,67,70,0,0
54131,-111.111111111111,4,2,67,70,0,0
54202,-222.222222222221,4,2,66,45,0,0
55131,-222.222222222221,4,2,66,45,0,0
55202,-222.222222222221,4,2,66,75,0,0
55535,-105.263157894737,4,2,66,75,0,0
58202,-111.111111111111,4,2,66,75,0,0
64131,-111.111111111111,4,2,66,75,0,0
64202,-111.111111111111,4,2,67,55,0,0
64451,-111.111111111111,4,2,66,55,0,0
64797,-111.111111111111,4,2,66,55,0,0
64868,-83.3333333333333,4,2,66,92,0,1
86131,-83.3333333333333,4,2,66,92,0,1
86202,-133.333333333333,4,2,66,75,0,0
87464,-133.333333333333,4,2,66,75,0,0
87535,-133.333333333333,4,2,66,85,0,0
88868,-90.9090909090908,4,2,66,85,0,0
97797,-90.9090909090908,4,2,66,85,0,0
97868,-111.111111111111,4,2,66,70,0,0
98131,-111.111111111111,4,2,66,70,0,0
98202,-111.111111111111,4,2,66,85,0,0
98797,-111.111111111111,4,2,66,85,0,0
98868,-142.857142857143,4,2,66,70,0,0
99797,-142.857142857143,4,2,66,70,0,0
99868,-142.857142857143,4,2,66,65,0,0
100131,-142.857142857143,4,2,66,65,0,0
100202,-142.857142857143,4,2,66,60,0,0
100464,-142.857142857143,4,2,66,60,0,0
100535,-166.666666666667,4,2,66,55,0,0
100631,-166.666666666667,4,2,66,55,0,0
100702,-166.666666666667,4,2,66,50,0,0
100797,-166.666666666667,4,2,66,50,0,0
100868,-166.666666666667,4,2,66,65,0,0
105797,-166.666666666667,4,2,66,65,0,0
105868,-100,4,2,66,75,0,0
106202,-111.111111111111,4,2,66,75,0,0
111534,-111.111111111111,4,2,67,75,0,0
111868,-222.222222222222,4,2,67,75,0,0
112797,-222.222222222222,4,2,67,75,0,0
112868,-222.222222222222,4,2,66,55,0,0
114131,-222.222222222222,4,2,66,55,0,0
114202,-105.263157894737,4,2,66,75,0,0
116868,-111.111111111111,4,2,66,75,0,0
122535,-90.9090909090908,4,2,66,75,0,0
123464,-90.9090909090908,4,2,66,75,0,0
123535,-83.3333333333333,4,2,66,92,0,1
144797,-83.3333333333333,4,2,66,92,0,1
144868,-133.333333333333,4,2,66,85,0,0
147535,-117.647058823529,4,2,66,85,0,0
158035,-111.111111111111,4,2,66,85,0,0
163535,-105.263157894737,4,2,66,85,0,0
168868,-100,4,2,66,85,0,0
194202,-100,4,2,67,85,0,0
194297,-100,4,2,67,85,0,0
194368,-100,4,2,66,55,0,0
199535,-100,4,2,67,55,0,0
199868,-100,4,2,66,55,0,0
204131,-100,4,2,66,55,0,0
204202,-100,4,2,67,65,0,0
204451,-100,4,2,66,65,0,0
204464,-100,4,2,66,65,0,0
204535,-100,4,2,66,75,0,0
204797,-100,4,2,66,75,0,0
204868,-83.3333333333333,4,2,66,92,0,1
215464,-83.3333333333333,4,2,66,92,0,1
215535,-133.333333333333,4,2,66,85,0,0
219464,-133.333333333333,4,2,66,85,0,0
219535,-133.333333333333,4,2,66,95,0,0
220464,-133.333333333333,4,2,66,95,0,0
220535,-133.333333333333,4,2,66,85,0,0
220868,-90.9090909090909,4,2,66,85,0,0
229868,-111.111111111111,4,2,66,85,0,0
230868,-166.666666666667,4,2,66,85,0,0
231464,-166.666666666667,4,2,66,85,0,0
231535,-166.666666666667,4,2,66,5,0,0

[Colours]
Combo1 : 251,252,194
Combo2 : 255,234,253
Combo3 : 254,194,194
Combo4 : 210,252,209

[HitObjects]
421,311,1036,5,2,0:0:0:0:
408,314,1286,1,2,0:0:0:0:
393,318,1536,2,0,L|231:336,1,159.599995129395,2|2,0:0|0:0,0:0:0:0:
156,307,3286,1,2,0:0:0:0:
170,294,3536,6,0,P|188:263|134:164,1,159.599995129395,2|2,0:0|0:0,0:0:0:0:
83,87,5286,1,2,0:0:0:0:
72,100,5536,6,0,P|53:128|59:205,2,106.39999675293,2|2|2,0:0|0:0|0:0,0:0:0:0:
182,31,8036,2,0,L|220:27,1,26.5999991882324,0|0,0:0|0:0,0:0:0:0:
227,36,8536,1,0,0:0:0:0:
314,79,9036,2,0,L|340:81,1,26.5999991882324,2|0,0:0|0:0,0:0:0:0:
351,74,9536,6,0,P|373:123|360:182,1,106.39999675293,2|2,0:0|0:0,0:0:0:0:
310,239,11036,1,0,0:0:0:0:
368,308,11536,2,0,L|423:316,1,53.1999983764649,2|2,0:0|0:0,0:0:0:0:
301,356,12536,2,0,L|248:363,1,53.1999983764649,2|2,0:0|0:0,0:0:0:0:
138,323,13536,6,0,P|135:290|146:262,2,53.1999983764649,2|2|2,0:0|0:0|0:0,0:0:0:0:
248,363,15036,1,2,0:0:0:0:
256,192,15161,12,0,16702,0:0:0:0:
164,86,16869,6,0,L|250:77,1,83.6000025512696,14|0,0:0|1:0,0:0:0:0:
416,105,17202,1,10,0:0:0:0:
357,30,17369,1,0,1:0:0:0:
368,184,17535,2,0,L|476:194,1,83.6000025512696,10|0,0:0|1:0,0:0:0:0:
304,239,17869,2,0,P|283:193|304:132,1,83.6000025512696,10|0,0:0|1:0,0:0:0:0:
384,281,18202,5,10,0:0:0:0:
310,337,18369,2,0,L|248:330,1,41.8000012756348,2|2,1:2|0:0,0:0:0:0:
171,310,18535,1,10,0:0:0:0:
171,310,18702,1,2,1:2:0:0:
68,339,18868,6,0,L|62:237,1,83.6000025512696,10|0,0:0|1:0,0:0:0:0:
128,164,19202,1,10,0:0:0:0:
22,113,19368,1,2,1:2:0:0:
116,41,19535,6,0,B|197:50|197:50|203:60|203:60|281:69,1,167.200005102539,14|10,0:0|0:0,0:0:0:0:
377,35,20035,1,2,1:2:0:0:
461,95,20202,2,0,P|472:135|466:185,1,83.6000025512696,10|0,0:0|1:0,0:0:0:0:
318,191,20535,2,0,P|347:161|393:141,1,83.6000025512696,10|0,0:0|1:0,0:0:0:0:
478,272,20868,6,0,P|437:261|397:231,1,83.6000025512696,10|2,0:0|1:2,0:0:0:0:
403,237,21118,1,2,0:0:0:0:
403,237,21202,1,10,0:0:0:0:
468,176,21368,1,2,1:2:0:0:
308,256,21535,2,0,L|220:244,1,83.6000025512696,10|0,0:0|1:0,0:0:0:0:
108,254,21868,1,14,0:0:0:0:
57,172,22035,1,2,1:2:0:0:
40,320,22202,6,0,P|75:344|127:345,1,83.6000025512696,14|0,0:0|1:0,0:0:0:0:
239,375,22535,1,10,0:0:0:0:
225,244,22702,1,0,1:0:0:0:
336,342,22868,2,0,L|434:353,1,83.6000025512696,10|0,0:0|1:0,0:0:0:0:
480,251,23202,2,0,L|396:260,1,83.6000025512696,10|0,0:0|1:0,0:0:0:0:
326,192,23535,5,10,0:0:0:0:
371,107,23702,2,0,L|412:111,1,41.8000012756348,2|2,1:2|0:0,0:0:0:0:
508,144,23868,1,10,0:0:0:0:
508,144,24035,1,2,1:2:0:0:
494,6,24202,2,0,P|450:2|395:38,1,83.6000025512696,14|0,0:0|1:0,0:0:0:0:
275,102,24535,2,0,P|300:65|296:1,1,83.6000025512696,10|2,0:0|1:2,0:0:0:0:
163,134,24868,5,14,0:0:0:0:
175,126,25202,6,0,L|182:230,1,83.6000025512696,2|10,1:2|0:0,0:0:0:0:
143,297,25535,1,14,0:0:0:0:
139,309,25868,6,0,P|182:284|243:288,1,102.599996868897,14|0,0:0|0:0,0:0:0:0:
254,302,26202,5,14,0:0:0:0:
347,278,26368,2,0,L|352:231,2,34.1999989562989,2|2|14,1:2|0:0|0:0,0:0:0:0:
425,333,26702,1,2,1:2:0:0:
496,268,26868,2,0,B|509:223|509:223|470:106,1,159.599995129395,6|0,1:2|0:0,0:0:0:0:
436,24,27535,6,0,L|384:40,1,53.1999983764649,2|2,0:0|0:0,0:0:0:0:
311,90,27868,2,0,L|258:81,1,53.1999983764649,2|2,0:0|0:0,0:0:0:0:
194,42,28202,2,0,L|146:48,1,41.8000012756348,2|2,0:0|0:0,0:0:0:0:
107,72,28535,2,0,L|59:66,1,41.8000012756348,2|2,0:0|0:0,0:0:0:0:
22,137,28868,6,0,P|58:188|45:273,1,136.799995825195,2|0,0:0|0:0,0:0:0:0:
13,336,29535,2,0,B|75:342|75:342|84:335|84:335|163:342,1,136.799995825195,2|2,0:0|0:0,0:0:0:0:
219,298,30202,2,0,L|281:302,1,45.5999986083985,2|2,0:0|0:0,0:0:0:0:
344,338,30535,2,0,L|406:334,1,45.5999986083985,2|2,0:0|0:0,0:0:0:0:
468,293,30868,1,2,0:0:0:0:
468,293,31535,6,0,L|475:153,1,136.799995825195,2|0,0:0|0:0,0:0:0:0:
502,75,32202,2,0,B|456:65|433:85|433:85|404:107|352:91,1,136.799995825195,2|2,0:0|0:0,0:0:0:0:
288,74,32868,2,0,L|295:120,1,45.5999986083985,2|2,0:0|0:0,0:0:0:0:
344,190,33202,2,0,L|337:236,1,45.5999986083985,2|2,0:0|0:0,0:0:0:0:
282,308,33535,1,2,0:0:0:0:
282,308,34202,6,0,B|253:329|253:329|153:321,1,136.799995825195,2|0,0:0|0:0,0:0:0:0:
83,362,34868,2,0,P|76:286|127:240,1,136.799995825195,2|2,0:0|0:0,0:0:0:0:
200,242,35535,2,0,L|209:191,1,45.5999986083985,2|2,0:0|0:0,0:0:0:0:
237,121,35868,2,0,L|228:70,1,45.5999986083985,2|2,0:0|0:0,0:0:0:0:
161,20,36202,1,2,0:0:0:0:
161,20,36868,6,0,B|94:28|94:28|84:39|84:39|26:46,1,136.799995825195,2|2,0:0|0:0,0:0:0:0:
7,121,37535,2,0,P|22:141|30:171,1,45.5999986083985,2|0,0:0|0:0,0:0:0:0:
93,217,37868,2,0,P|78:237|70:267,1,45.5999986083985,2|0,0:0|0:0,0:0:0:0:
102,334,38202,5,2,0:0:0:0:
189,333,38368,2,0,L|184:375,2,22.7999993041992,2|2|2,0:0|0:0|0:0,0:0:0:0:
278,321,38702,1,2,0:0:0:0:
366,308,38868,2,0,L|427:317,1,45.5999986083985,2|0,0:0|0:0,0:0:0:0:
451,243,39202,2,0,L|496:236,1,45.5999986083985,2|0,0:0|0:0,0:0:0:0:
461,153,39535,5,2,0:0:0:0:
256,192,39618,12,2,41868,0:0:0:0:
137,42,42202,6,0,L|130:110,1,68.3999979125977,6|0,1:2|0:0,0:0:0:0:
60,179,42535,2,0,L|66:247,1,68.3999979125977,8|2,0:0|0:0,0:0:0:0:
78,345,42868,1,2,1:2:0:0:
176,367,43035,2,0,L|226:360,1,34.1999989562989,0|0,1:0|0:0,0:0:0:0:
271,313,43202,2,0,P|308:309|353:328,1,68.3999979125977,8|2,0:0|1:2,0:0:0:0:
423,368,43535,6,0,P|434:332|429:294,1,68.3999979125977,2|2,1:2|0:0,0:0:0:0:
373,217,43868,1,10,0:0:0:0:
373,217,44035,1,2,0:0:0:0:
410,127,44202,1,2,1:2:0:0:
362,42,44368,1,0,1:0:0:0:
270,55,44535,2,0,L|184:46,1,68.3999979125977,8|0,0:0|0:0,0:0:0:0:
87,16,44868,6,0,P|104:66|110:166,1,136.799995825195,2|8,1:2|0:0,0:0:0:0:
51,221,45368,1,2,0:0:0:0:
76,302,45535,2,0,L|156:317,1,68.3999979125977,2|0,1:2|1:0,0:0:0:0:
176,339,45785,1,0,1:0:0:0:
176,339,45868,1,8,0:0:0:0:
269,317,46035,1,2,1:2:0:0:
205,245,46202,5,2,1:2:0:0:
238,152,46368,1,2,1:2:0:0:
197,66,46535,2,0,L|275:59,1,68.3999979125977,10|2,0:0|0:0,0:0:0:0:
334,17,46868,2,0,L|420:26,1,68.3999979125977,2|0,1:2|1:0,0:0:0:0:
432,29,47118,1,0,1:0:0:0:
432,29,47202,6,0,P|456:75|453:120,1,68.3999979125977,8|0,0:0|0:0,0:0:0:0:
508,155,47535,2,0,L|498:297,1,136.799995825195,6|8,1:2|0:0,0:0:0:0:
426,345,48035,1,2,0:0:0:0:
333,322,48202,2,0,L|240:333,1,68.3999979125977,2|0,1:2|1:0,0:0:0:0:
185,364,48535,2,0,L|92:353,1,68.3999979125977,8|2,0:0|1:2,0:0:0:0:
45,301,48868,5,2,1:2:0:0:
88,212,49035,1,2,0:0:0:0:
36,132,49202,2,0,P|28:85|38:51,1,68.3999979125977,10|2,0:0|0:0,0:0:0:0:
112,12,49535,1,2,1:2:0:0:
202,48,49702,1,0,1:0:0:0:
287,20,49868,2,0,L|366:33,1,68.3999979125977,8|0,0:0|0:0,0:0:0:0:
461,69,50202,6,0,L|468:27,2,34.1999989562989,6|2|2,1:2|0:0|0:0,0:0:0:0:
426,149,50535,2,0,L|433:191,2,34.1999989562989,10|2|2,0:0|0:0|0:0,0:0:0:0:
336,118,50868,1,2,1:2:0:0:
336,118,51035,1,0,1:0:0:0:
252,157,51202,1,10,0:0:0:0:
252,157,51368,1,2,0:0:0:0:
165,124,51535,6,0,L|81:140,1,68.3999979125977,6|2,1:2|0:0,0:0:0:0:
45,206,51868,1,10,0:0:0:0:
93,284,52035,1,2,0:0:0:0:
47,363,52202,2,0,L|131:379,1,68.3999979125977,2|0,1:2|0:0,0:0:0:0:
204,355,52535,2,0,P|225:320|222:272,1,68.3999979125977,8|0,0:0|0:0,0:0:0:0:
192,211,52868,1,2,0:0:0:0:
196,211,54202,6,0,P|163:224|121:226,2,68.3999979125977,2|2|2,0:0|0:0|0:0,0:0:0:0:
196,211,55202,1,2,0:0:0:0:
269,106,55535,5,14,0:0:0:0:
358,79,55702,1,2,1:2:0:0:
445,114,55868,2,0,L|449:78,2,36.099999036026,10|0|2,0:0|0:0|1:2,0:0:0:0:
399,186,56202,2,0,B|411:241|411:241|405:262|405:262|418:336,1,144.399996144104,10|0,0:0|1:0,0:0:0:0:
342,369,56702,2,0,L|295:360,1,36.099999036026,10|8,0:0|0:0,0:0:0:0:
259,294,56868,6,0,P|215:296|166:324,1,72.1999980720521,6|2,1:2|1:2,0:0:0:0:
119,352,57202,2,0,P|75:350|26:322,1,72.1999980720521,10|2,0:0|1:2,0:0:0:0:
16,263,57535,2,0,B|27:197|27:197|21:176|21:176|33:121,1,144.399996144104,10|0,0:0|1:0,0:0:0:0:
101,35,58035,2,0,L|149:29,1,36.099999036026,0|0,1:0|1:0,0:0:0:0:
210,63,58202,6,0,L|301:70,1,68.3999979125977,4|0,1:2|0:0,0:0:0:0:
316,72,58452,1,0,0:0:0:0:
316,72,58535,2,0,L|390:73,1,68.3999979125977,2|0,1:2|0:0,0:0:0:0:
471,134,58868,6,0,P|454:170|449:210,1,68.3999979125977,2|0,1:2|0:0,0:0:0:0:
428,229,59118,1,0,1:0:0:0:
428,229,59202,2,0,P|445:265|450:305,1,68.3999979125977,2|0,1:2|0:0,0:0:0:0:
373,367,59535,6,0,L|286:358,1,68.3999979125977,2|0,1:2|0:0,0:0:0:0:
263,335,59785,1,0,1:0:0:0:
263,335,59868,2,0,L|176:326,1,68.3999979125977,2|0,1:2|0:0,0:0:0:0:
69,365,60202,6,0,P|59:329|65:278,1,68.3999979125977,2|0,1:2|0:0,0:0:0:0:
84,273,60452,1,0,1:0:0:0:
84,273,60535,2,0,P|94:237|88:186,1,68.3999979125977,2|0,1:2|0:0,0:0:0:0:
36,88,60868,6,0,L|134:78,1,68.3999979125977,2|0,1:2|0:0,0:0:0:0:
134,64,61118,1,0,1:0:0:0:
134,64,61202,2,0,L|202:70,1,68.3999979125977,0|2,1:0|0:0,0:0:0:0:
288,143,61535,6,0,P|326:130|362:131,1,68.3999979125977,0|0,1:0|0:0,0:0:0:0:
387,109,61785,1,0,1:0:0:0:
387,109,61868,2,0,P|425:122|461:121,1,68.3999979125977,2|0,1:2|0:0,0:0:0:0:
512,42,62202,5,6,1:2:0:0:
256,192,62285,12,2,64535,0:0:0:0:
108,81,64868,6,0,L|119:201,1,91.199997216797,6|0,1:2|0:0,0:0:0:0:
122,206,65118,1,2,1:2:0:0:
122,206,65202,1,10,0:0:0:0:
236,122,65368,1,2,0:0:0:0:
269,255,65535,2,0,L|258:375,1,91.199997216797,2|0,1:3|0:0,0:0:0:0:
361,308,65868,1,10,0:0:0:0:
172,288,66035,1,2,1:2:0:0:
361,208,66202,5,2,1:2:0:0:
260,345,66368,1,2,0:0:0:0:
200,188,66535,2,0,L|208:97,1,91.199997216797,10|2,0:0|1:2,0:0:0:0:
310,25,66868,2,0,P|355:20|398:41,1,91.199997216797,2|0,1:2|0:0,0:0:0:0:
461,170,67202,1,10,0:0:0:0:
306,215,67368,1,2,1:2:0:0:
477,167,67535,6,0,L|470:271,1,91.199997216797,2|0,1:2|0:0,0:0:0:0:
468,289,67785,1,2,1:2:0:0:
468,289,67868,1,10,0:0:0:0:
374,163,68035,1,2,0:0:0:0:
287,311,68202,2,0,L|392:335,1,91.199997216797,2|0,1:3|0:0,0:0:0:0:
271,206,68535,1,10,0:0:0:0:
208,349,68702,1,2,1:2:0:0:
107,196,68868,5,2,1:2:0:0:
214,267,69035,1,2,0:0:0:0:
105,111,69202,1,10,0:0:0:0:
14,278,69368,1,2,1:2:0:0:
191,156,69535,2,0,L|317:173,1,91.199997216797,2|0,1:2|0:0,0:0:0:0:
355,40,69868,2,0,L|264:52,1,91.199997216797,8|8,0:0|0:0,0:0:0:0:
224,35,70118,1,8,0:0:0:0:
224,35,70202,6,0,L|129:26,1,91.199997216797,6|0,1:2|0:0,0:0:0:0:
29,118,70535,2,0,L|119:109,1,91.199997216797,10|0,0:0|0:0,0:0:0:0:
191,215,70868,2,0,L|96:206,1,91.199997216797,2|0,1:3|0:0,0:0:0:0:
19,305,71201,2,0,L|109:296,1,91.199997216797,10|0,0:0|0:0,0:0:0:0:
230,378,71535,6,0,P|208:328|212:283,1,91.199997216797,2|0,1:2|0:0,0:0:0:0:
358,259,71868,2,0,P|325:303|284:322,1,91.199997216797,10|0,0:0|0:0,0:0:0:0:
297,187,72202,2,0,P|368:168|453:233,1,182.399994433594,2|8,1:2|0:0,0:0:0:0:
377,34,72868,6,0,L|261:44,1,91.199997216797,6|0,1:2|0:0,0:0:0:0:
253,62,73118,1,0,1:2:0:0:
253,62,73202,2,0,L|162:54,1,91.199997216797,10|2,0:0|1:2,0:0:0:0:
54,37,73535,1,2,1:3:0:0:
82,125,73702,1,2,0:0:0:0:
50,213,73868,2,0,L|42:324,1,91.199997216797,10|10,0:0|0:0,0:0:0:0:
121,358,74202,5,6,1:2:0:0:
208,326,74368,1,0,1:0:0:0:
298,361,74535,2,0,P|316:316|307:270,1,91.199997216797,8|0,0:0|0:0,0:0:0:0:
251,197,74868,2,0,P|233:152|242:106,1,91.199997216797,6|0,1:2|1:0,0:0:0:0:
308,35,75202,1,14,0:0:0:0:
330,37,75285,1,8,0:0:0:0:
353,39,75368,1,8,0:0:0:0:
376,41,75451,1,8,0:0:0:0:
398,44,75535,6,0,L|409:164,1,91.199997216797,6|0,1:2|0:0,0:0:0:0:
411,175,75785,1,2,1:2:0:0:
411,175,75869,1,10,0:0:0:0:
510,105,76035,1,2,0:0:0:0:
449,264,76202,2,0,L|326:249,1,91.199997216797,2|2,1:3|0:0,0:0:0:0:
258,212,76535,1,10,0:0:0:0:
304,343,76702,1,2,1:2:0:0:
336,158,76869,5,2,1:2:0:0:
226,298,77035,1,2,0:0:0:0:
167,140,77202,2,0,L|53:174,1,91.199997216797,10|2,0:0|1:2,0:0:0:0:
138,52,77535,2,0,P|183:47|226:68,1,91.199997216797,2|0,1:2|0:0,0:0:0:0:
311,134,77869,1,10,0:0:0:0:
420,97,78035,1,2,1:2:0:0:
494,184,78202,6,0,L|487:288,1,91.199997216797,6|0,1:2|0:0,0:0:0:0:
483,309,78452,1,2,1:2:0:0:
483,309,78535,1,10,0:0:0:0:
382,199,78702,1,2,0:0:0:0:
310,339,78869,2,0,L|196:353,1,91.199997216797,2|0,1:3|0:0,0:0:0:0:
91,224,79202,1,10,0:0:0:0:
236,263,79368,1,2,1:2:0:0:
70,330,79535,5,2,1:2:0:0:
181,193,79702,1,2,1:2:0:0:
39,123,79869,1,10,0:0:0:0:
91,224,80035,1,2,0:0:0:0:
137,60,80202,2,0,L|263:77,1,91.199997216797,2|0,1:2|0:0,0:0:0:0:
356,20,80535,2,0,L|391:142,1,91.199997216797,8|8,0:0|0:0,0:0:0:0:
407,142,80785,1,8,0:0:0:0:
407,142,80868,6,0,L|396:261,1,91.199997216797,6|0,1:2|0:0,0:0:0:0:
454,317,81202,2,0,P|411:332|364:326,1,91.199997216797,10|0,0:0|0:0,0:0:0:0:
278,370,81535,2,0,P|241:343|219:301,1,91.199997216797,2|0,1:3|0:0,0:0:0:0:
141,251,81868,2,0,L|151:151,1,91.199997216797,10|0,0:0|0:0,0:0:0:0:
188,45,82202,6,0,L|66:57,1,91.199997216797,2|0,1:2|0:0,0:0:0:0:
15,119,82535,2,0,L|25:219,1,91.199997216797,10|0,0:0|1:0,0:0:0:0:
39,316,82868,2,0,B|105:332|105:332|144:324|144:324|230:342,1,182.399994433594,2|10,1:2|0:0,0:0:0:0:
451,188,83535,6,0,L|460:83,1,91.199997216797,6|0,1:2|0:0,0:0:0:0:
462,62,83785,1,2,1:2:0:0:
462,62,83869,2,0,P|424:44|371:54,1,91.199997216797,10|2,0:0|1:2,0:0:0:0:
286,111,84202,1,2,1:3:0:0:
183,69,84369,1,2,1:2:0:0:
91,114,84535,2,0,L|83:225,1,91.199997216797,10|2,0:0|1:2,0:0:0:0:
40,326,84869,5,6,1:2:0:0:
160,296,85035,1,0,0:0:0:0:
256,354,85202,2,0,L|356:340,1,91.199997216797,8|8,0:0|0:0,0:0:0:0:
453,295,85535,1,2,1:2:0:0:
293,243,85702,1,2,1:2:0:0:
397,112,85868,1,10,0:0:0:0:
415,125,85951,1,8,0:0:0:0:
428,144,86034,1,10,0:0:0:0:
435,165,86117,1,8,0:0:0:0:
435,190,86202,6,0,P|376:174|297:174,1,114.000004348755,4|2,1:2|0:0,0:0:0:0:
200,67,86868,2,0,P|143:70|88:85,1,114.000004348755,4|2,1:2|0:0,0:0:0:0:
25,236,87535,5,14,0:0:0:0:
163,293,87702,1,2,1:2:0:0:
163,293,87785,1,0,1:0:0:0:
163,293,87868,1,10,0:0:0:0:
72,347,88035,1,2,1:2:0:0:
165,185,88202,1,14,0:0:0:0:
172,174,88535,6,0,L|252:181,1,57.0000021743775,14|2,0:0|1:2,0:0:0:0:
308,255,88868,6,0,L|397:248,1,83.6000025512696,14|0,0:0|1:0,0:0:0:0:
491,240,89201,1,10,0:0:0:0:
437,140,89368,1,0,1:2:0:0:
486,48,89535,2,0,P|447:34|398:41,1,83.6000025512696,10|0,0:0|1:0,0:0:0:0:
273,97,89868,2,0,L|262:-5,1,83.6000025512696,10|0,0:0|1:0,0:0:0:0:
343,141,90202,5,10,0:0:0:0:
261,187,90368,2,0,L|199:180,1,41.8000012756348,2|2,1:2|0:0,0:0:0:0:
149,114,90535,1,10,0:0:0:0:
149,114,90702,1,2,1:2:0:0:
55,154,90868,6,0,L|63:243,1,83.6000025512696,10|0,0:0|1:0,0:0:0:0:
140,308,91202,1,10,0:0:0:0:
26,359,91368,1,2,1:2:0:0:
151,222,91535,6,0,B|232:231|232:231|238:241|238:241|316:250,1,167.200005102539,14|10,0:0|0:0,0:0:0:0:
392,303,92034,1,2,1:2:0:0:
483,262,92202,2,0,L|492:156,1,83.6000025512696,10|0,0:0|1:0,0:0:0:0:
440,105,92535,2,0,L|431:-1,1,83.6000025512696,10|0,0:0|1:0,0:0:0:0:
356,137,92868,6,0,L|265:120,1,83.6000025512696,10|2,0:0|1:2,0:0:0:0:
230,112,93117,1,2,0:0:0:0:
230,112,93202,1,10,0:0:0:0:
139,30,93368,1,2,1:2:0:0:
52,110,93535,2,0,L|70:206,1,83.6000025512696,10|0,0:0|1:0,0:0:0:0:
143,258,93867,1,14,0:0:0:0:
3,304,94034,1,2,1:2:0:0:
155,355,94202,6,0,L|263:368,1,83.6000025512696,14|0,0:0|1:0,0:0:0:0:
337,251,94535,1,10,0:0:0:0:
216,280,94701,1,0,1:0:0:0:
342,345,94868,2,0,L|440:356,1,83.6000025512696,10|0,0:0|1:0,0:0:0:0:
471,232,95202,2,0,L|387:241,1,83.6000025512696,10|0,0:0|1:0,0:0:0:0:
318,170,95534,5,10,0:0:0:0:
367,96,95702,2,0,L|357:54,1,41.8000012756348,2|2,1:2|0:0,0:0:0:0:
269,7,95867,1,10,0:0:0:0:
269,7,96035,1,2,1:2:0:0:
146,57,96202,2,0,P|104:59|47:25,1,83.6000025512696,10|0,0:0|1:0,0:0:0:0:
3,132,96535,2,0,P|25:167|24:233,1,83.6000025512696,14|2,0:0|1:2,0:0:0:0:
180,196,96867,5,14,0:0:0:0:
187,183,97202,6,0,L|194:287,1,83.6000025512696,2|10,1:2|0:0,0:0:0:0:
283,308,97535,1,14,0:0:0:0:
294,308,97868,6,0,P|338:334|405:331,1,102.599996868897,14|0,0:0|0:0,0:0:0:0:
427,316,98202,5,6,1:2:0:0:
443,226,98368,2,0,L|498:240,2,34.1999989562989,2|2|14,1:2|0:0|0:0,0:0:0:0:
479,142,98702,1,2,1:2:0:0:
460,48,98868,2,0,B|381:35|381:35|367:41|367:41|299:31,1,159.599995129395,6|0,1:2|0:0,0:0:0:0:
224,61,99535,6,0,L|158:69,1,53.1999983764649,2|2,0:0|0:0,0:0:0:0:
138,72,99785,1,2,0:0:0:0:
138,72,99868,1,2,0:0:0:0:
50,92,100035,1,2,0:0:0:0:
108,163,100202,2,0,L|105:230,1,53.1999983764649,2|2,0:0|0:0,0:0:0:0:
79,260,100535,2,0,L|81:316,1,45.5999986083985,2|2,0:0|0:0,0:0:0:0:
150,368,100868,5,2,0:0:0:0:
372,222,105868,6,0,P|429:247|502:255,1,114,8|0,1:2|0:0,0:0:0:0:
506,228,106202,2,0,L|498:81,1,136.799995825195,6|8,1:2|0:0,0:0:0:0:
423,28,106701,1,10,0:0:0:0:
327,55,106868,2,0,L|234:44,1,68.3999979125977,2|0,1:2|1:0,0:0:0:0:
221,23,107118,1,8,0:0:0:0:
221,23,107202,2,0,L|128:34,1,68.3999979125977,0|10,1:0|0:0,0:0:0:0:
55,51,107534,5,2,1:2:0:0:
96,145,107701,1,0,1:0:0:0:
37,240,107868,2,0,P|29:287|39:321,1,68.3999979125977,8|10,0:0|0:0,0:0:0:0:
120,370,108201,1,2,1:2:0:0:
222,350,108368,1,0,0:0:0:0:
222,350,108452,1,8,0:0:0:0:
222,350,108535,2,0,L|301:337,1,68.3999979125977,0|8,1:0|0:0,0:0:0:0:
401,333,108868,6,0,L|408:375,2,34.1999989562989,2|2|2,1:2|0:0|0:0,0:0:0:0:
430,222,109202,2,0,L|437:180,2,34.1999989562989,10|0|8,0:0|0:0|0:0,0:0:0:0:
334,265,109534,1,2,1:2:0:0:
334,265,109701,1,2,1:2:0:0:
250,226,109868,1,10,0:0:0:0:
250,226,110034,1,10,0:0:0:0:
163,259,110201,6,0,L|79:243,1,68.3999979125977,2|2,1:2|1:2,0:0:0:0:
43,177,110534,1,10,0:0:0:0:
91,99,110701,1,10,0:0:0:0:
45,20,110868,2,0,L|129:4,1,68.3999979125977,2|0,1:2|0:0,0:0:0:0:
157,15,111118,1,8,0:0:0:0:
157,15,111201,2,0,P|184:45|190:93,1,68.3999979125977,0|8,1:0|0:0,0:0:0:0:
176,109,111452,1,2,0:0:0:0:
176,109,111534,1,2,0:0:0:0:
203,124,112868,6,0,P|170:111|128:109,2,68.3999979125977,2|2|2,0:0|0:0|0:0,0:0:0:0:
233,214,113869,1,2,0:0:0:0:
184,313,114202,5,14,0:0:0:0:
272,359,114369,1,2,1:2:0:0:
360,330,114535,2,0,L|364:366,2,36.099999036026,10|0|10,0:0|0:0|0:0,0:0:0:0:
314,258,114869,2,0,B|326:203|326:203|320:182|320:182|333:108,1,144.399996144104,10|0,0:0|1:0,0:0:0:0:
368,39,115369,2,0,L|321:30,1,36.099999036026,10|0,0:0|0:0,0:0:0:0:
259,74,115535,6,0,L|163:90,1,72.1999980720521,6|2,1:2|1:2,0:0:0:0:
107,28,115868,2,0,P|86:77|95:104,1,72.1999980720521,10|2,0:0|1:2,0:0:0:0:
18,163,116202,2,0,B|29:229|29:229|23:250|23:250|35:305,1,144.399996144104,10|0,0:0|1:0,0:0:0:0:
111,348,116702,2,0,L|159:342,1,36.099999036026,0|0,1:0|0:0,0:0:0:0:
219,300,116868,6,0,P|257:300|300:325,1,68.3999979125977,4|0,1:2|0:0,0:0:0:0:
312,344,117118,1,0,0:0:0:0:
312,344,117202,2,0,P|350:344|393:319,1,68.3999979125977,2|0,1:2|0:0,0:0:0:0:
458,246,117535,6,0,L|462:164,1,68.3999979125977,2|0,1:2|0:0,0:0:0:0:
483,146,117785,1,0,1:0:0:0:
483,146,117868,2,0,L|487:64,1,68.3999979125977,2|0,1:2|0:0,0:0:0:0:
382,27,118202,6,0,P|355:42|297:46,1,68.3999979125977,2|0,1:2|0:0,0:0:0:0:
287,71,118452,1,0,1:0:0:0:
287,71,118535,2,0,P|260:56|202:52,1,68.3999979125977,2|0,1:2|0:0,0:0:0:0:
116,13,118868,6,0,L|46:32,1,68.3999979125977,2|0,1:2|0:0,0:0:0:0:
24,65,119118,1,0,1:0:0:0:
24,65,119202,2,0,L|12:159,1,68.3999979125977,2|0,1:2|0:0,0:0:0:0:
76,196,119535,6,0,P|86:235|85:286,1,68.3999979125977,2|0,1:2|0:0,0:0:0:0:
108,283,119785,1,0,1:0:0:0:
108,283,119868,2,0,P|98:322|99:373,1,68.3999979125977,0|2,1:0|0:0,0:0:0:0:
218,320,120202,6,0,L|287:316,1,68.3999979125977,0|0,1:0|0:0,0:0:0:0:
317,294,120452,1,0,1:0:0:0:
317,294,120535,2,0,L|386:298,1,68.3999979125977,2|0,1:2|0:0,0:0:0:0:
502,343,120868,5,6,1:2:0:0:
256,192,120952,12,0,122035,0:0:0:0:
311,76,122202,5,8,0:0:0:0:
280,78,122285,1,0,1:0:0:0:
249,81,122368,1,0,1:0:0:0:
219,84,122451,1,0,1:0:0:0:
188,87,122535,2,0,L|130:81,3,41.8000012756348,8|0|0|0,0:0|1:0|1:0|0:0,0:0:0:0:
31,69,122868,1,8,0:0:0:0:
53,93,122951,1,8,0:0:0:0:
67,123,123034,1,8,0:0:0:0:
69,156,123117,1,8,0:0:0:0:
60,188,123202,6,0,B|46:232|46:232|62:323,1,125.400003826904,12|0,0:0|0:0,0:0:0:0:
88,327,123535,6,0,L|202:341,1,91.199997216797,6|0,1:2|1:0,0:0:0:0:
216,343,123785,1,2,1:2:0:0:
216,343,123869,1,10,0:0:0:0:
141,232,124035,1,2,1:2:0:0:
259,157,124202,2,0,L|272:37,1,91.199997216797,2|0,1:3|0:0,0:0:0:0:
151,76,124535,1,10,0:0:0:0:
349,101,124702,1,2,1:2:0:0:
151,176,124869,5,2,1:2:0:0:
268,66,125035,1,2,1:2:0:0:
325,220,125202,2,0,L|317:311,1,91.199997216797,10|2,0:0|1:2,0:0:0:0:
202,359,125535,2,0,P|157:364|114:343,1,91.199997216797,2|0,1:2|0:0,0:0:0:0:
51,214,125869,1,10,0:0:0:0:
206,169,126035,1,2,1:2:0:0:
35,217,126202,6,0,L|42:113,1,91.199997216797,2|0,1:2|0:0,0:0:0:0:
44,95,126452,1,2,1:2:0:0:
44,95,126535,1,10,0:0:0:0:
138,221,126702,1,2,1:2:0:0:
225,73,126869,2,0,L|120:49,1,91.199997216797,2|0,1:3|0:0,0:0:0:0:
241,178,127202,1,10,0:0:0:0:
304,35,127369,1,2,1:2:0:0:
405,188,127535,5,2,1:2:0:0:
298,117,127702,1,2,1:2:0:0:
407,273,127869,1,10,0:0:0:0:
498,106,128035,1,2,1:2:0:0:
321,228,128202,2,0,L|195:211,1,91.199997216797,2|0,1:2|0:0,0:0:0:0:
157,344,128535,2,0,L|248:332,1,91.199997216797,8|8,0:0|0:0,0:0:0:0:
288,349,128785,1,8,0:0:0:0:
288,349,128869,6,0,L|383:358,1,91.199997216797,6|0,1:2|0:0,0:0:0:0:
483,266,129202,2,0,L|393:275,1,91.199997216797,10|0,0:0|1:0,0:0:0:0:
321,169,129535,2,0,L|416:178,1,91.199997216797,2|0,1:3|0:0,0:0:0:0:
493,79,129868,2,0,L|403:88,1,91.199997216797,10|0,0:0|0:0,0:0:0:0:
282,6,130202,6,0,P|304:56|300:101,1,91.199997216797,2|0,1:2|0:0,0:0:0:0:
154,125,130535,2,0,P|187:81|228:62,1,91.199997216797,10|0,0:0|1:0,0:0:0:0:
215,197,130869,2,0,P|144:216|59:151,1,182.399994433594,2|8,1:2|0:0,0:0:0:0:
135,350,131535,6,0,L|251:340,1,91.199997216797,2|0,1:2|0:0,0:0:0:0:
259,322,131785,1,2,1:2:0:0:
259,322,131869,2,0,L|350:330,1,91.199997216797,10|2,0:0|1:2,0:0:0:0:
458,347,132202,1,2,1:3:0:0:
430,259,132369,1,2,1:2:0:0:
462,171,132535,2,0,L|470:60,1,91.199997216797,10|2,0:0|1:2,0:0:0:0:
391,26,132869,5,6,1:2:0:0:
304,58,133035,1,0,0:0:0:0:
214,23,133202,2,0,P|196:68|205:114,1,91.199997216797,8|0,0:0|0:0,0:0:0:0:
261,187,133535,2,0,P|279:232|270:278,1,91.199997216797,6|0,1:2|1:0,0:0:0:0:
204,349,133869,1,14,0:0:0:0:
182,347,133952,1,0,0:0:0:0:
159,345,134035,1,8,0:0:0:0:
136,343,134118,1,8,0:0:0:0:
114,340,134202,6,0,L|103:220,1,91.199997216797,6|0,1:2|0:0,0:0:0:0:
101,209,134452,1,2,1:2:0:0:
101,209,134536,1,10,0:0:0:0:
2,279,134702,1,2,1:2:0:0:
63,120,134869,2,0,L|186:135,1,91.199997216797,2|0,1:3|0:0,0:0:0:0:
254,172,135202,5,10,0:0:0:0:
208,41,135369,1,2,1:2:0:0:
176,226,135536,5,2,1:2:0:0:
286,86,135702,1,2,1:2:0:0:
345,244,135869,2,0,L|459:210,1,91.199997216797,10|2,0:0|1:2,0:0:0:0:
374,332,136202,2,0,P|329:337|286:316,1,91.199997216797,2|0,1:2|0:0,0:0:0:0:
201,250,136536,1,10,0:0:0:0:
92,287,136702,1,2,1:2:0:0:
18,200,136869,6,0,L|25:96,1,91.199997216797,2|0,1:2|0:0,0:0:0:0:
29,75,137119,1,2,1:2:0:0:
29,75,137202,1,10,0:0:0:0:
130,185,137369,1,2,1:2:0:0:
202,45,137536,2,0,L|316:31,1,91.199997216797,2|0,1:3|0:0,0:0:0:0:
421,160,137869,1,10,0:0:0:0:
276,121,138035,1,2,1:2:0:0:
442,54,138202,5,2,1:2:0:0:
331,191,138369,1,2,1:2:0:0:
473,261,138536,1,10,0:0:0:0:
421,160,138702,1,2,1:2:0:0:
375,324,138869,2,0,L|249:307,1,91.199997216797,2|0,1:2|0:0,0:0:0:0:
156,364,139202,2,0,L|121:242,1,91.199997216797,8|8,0:0|0:0,0:0:0:0:
105,242,139452,1,8,0:0:0:0:
105,242,139535,6,0,L|116:123,1,91.199997216797,6|0,1:2|0:0,0:0:0:0:
58,67,139869,2,0,P|101:52|148:58,1,91.199997216797,10|0,0:0|1:0,0:0:0:0:
234,14,140202,2,0,P|271:41|293:83,1,91.199997216797,2|0,1:3|0:0,0:0:0:0:
371,133,140535,2,0,L|361:233,1,91.199997216797,10|0,0:0|0:0,0:0:0:0:
324,339,140869,6,0,L|446:327,1,91.199997216797,2|0,1:2|0:0,0:0:0:0:
497,265,141202,2,0,L|487:165,1,91.199997216797,10|0,0:0|1:0,0:0:0:0:
473,68,141535,2,0,B|407:52|407:52|368:60|368:60|282:42,1,182.399994433594,2|8,1:2|0:0,0:0:0:0:
61,196,142202,6,0,L|52:301,1,91.199997216797,2|0,1:2|0:0,0:0:0:0:
50,322,142452,1,2,1:2:0:0:
50,322,142536,2,0,P|88:340|141:330,1,91.199997216797,10|2,0:0|1:2,0:0:0:0:
226,273,142869,1,2,1:3:0:0:
329,315,143036,1,2,1:2:0:0:
421,270,143202,2,0,L|429:159,1,91.199997216797,10|2,0:0|1:2,0:0:0:0:
472,58,143536,5,2,1:2:0:0:
352,88,143702,1,0,0:0:0:0:
256,30,143869,2,0,L|156:44,1,91.199997216797,8|8,0:0|0:0,0:0:0:0:
59,89,144202,1,2,1:2:0:0:
219,141,144369,1,2,1:2:0:0:
115,272,144535,1,10,0:0:0:0:
97,259,144618,1,8,0:0:0:0:
84,240,144701,1,10,0:0:0:0:
77,219,144784,1,8,0:0:0:0:
77,194,144869,6,0,P|136:210|215:210,1,114.000004348755,4|2,1:2|0:0,0:0:0:0:
327,291,145535,2,0,P|383:287|438:272,1,114.000004348755,4|2,1:2|0:0,0:0:0:0:
494,98,146202,5,14,0:0:0:0:
327,130,146368,1,2,1:2:0:0:
327,130,146452,1,0,1:0:0:0:
327,130,146535,1,10,0:0:0:0:
427,177,146702,1,2,1:2:0:0:
443,20,146869,1,14,0:0:0:0:
432,6,147202,6,0,L|367:14,1,57.0000021743775,14|2,0:0|1:2,0:0:0:0:
283,50,147535,6,0,L|210:43,1,64.6000012321472,6|0,1:2|0:0,0:0:0:0:
134,15,147868,1,8,0:0:0:0:
55,59,148035,2,0,B|69:109|69:109|64:130|64:130|86:199,1,129.200002464294,2|0,1:2|1:0,0:0:0:0:
156,217,148535,2,0,L|144:298,1,64.6000012321472,10|0,0:0|0:0,0:0:0:0:
83,333,148868,6,0,P|146:364|203:344,1,129.200002464294,2|8,1:2|0:0,0:0:0:0:
282,298,149368,1,0,0:0:0:0:
368,337,149535,2,0,L|458:327,1,64.6000012321472,0|0,1:0|1:0,0:0:0:0:
496,265,149868,1,10,0:0:0:0:
457,183,150035,1,2,0:0:0:0:
481,108,150202,6,0,B|488:41|488:41|419:18,1,129.200002464294,2|8,1:2|0:0,0:0:0:0:
340,44,150702,2,0,B|283:53|283:53|265:44|265:44|188:54,1,129.200002464294,2|0,1:2|1:0,0:0:0:0:
152,112,151202,2,0,P|141:154|153:195,1,64.6000012321472,10|0,0:0|0:0,0:0:0:0:
195,247,151535,6,0,L|332:230,1,129.200002464294,2|8,1:2|0:0,0:0:0:0:
407,182,152035,1,0,0:0:0:0:
490,218,152202,1,0,1:0:0:0:
481,309,152368,1,0,1:0:0:0:
393,337,152535,2,0,L|308:351,1,64.6000012321472,10|0,0:0|0:0,0:0:0:0:
254,314,152868,6,0,B|197:312|197:312|180:321|180:321|121:318,1,129.200002464294,6|8,1:2|0:0,0:0:0:0:
61,262,153368,1,0,0:0:0:0:
97,176,153535,1,0,1:0:0:0:
59,95,153702,1,0,1:0:0:0:
100,14,153868,2,0,P|135:10|171:26,1,64.6000012321472,10|0,0:0|0:0,0:0:0:0:
242,64,154202,6,0,B|259:105|259:105|252:137|252:137|277:199,1,129.200002464294,6|8,1:2|0:0,0:0:0:0:
361,224,154702,1,2,1:2:0:0:
436,171,154868,2,0,P|451:203|450:245,1,64.6000012321472,0|0,0:0|1:0,0:0:0:0:
490,308,155202,2,0,P|462:329|421:338,1,64.6000012321472,10|0,0:0|1:0,0:0:0:0:
349,364,155535,6,0,L|195:362,1,129.200002464294,6|8,1:2|0:0,0:0:0:0:
151,307,156035,1,0,0:0:0:0:
67,341,156202,2,0,L|61:256,1,64.6000012321472,4|0,1:2|1:0,0:0:0:0:
14,210,156535,2,0,L|20:125,1,64.6000012321472,8|0,0:0|0:0,0:0:0:0:
75,63,156868,5,4,1:2:0:0:
162,94,157035,1,8,0:0:0:0:
246,59,157202,2,0,P|274:47|316:47,1,64.6000012321472,8|8,3:2|0:0,0:0:0:0:
418,37,157535,2,0,L|409:91,1,32.3000006160736,0|0,1:0|1:0,0:0:0:0:
384,107,157702,2,0,L|393:161,1,32.3000006160736,10|8,3:2|3:2,0:0:0:0:
419,184,157868,2,0,L|410:238,1,32.3000006160736,8|8,3:2|3:2,0:0:0:0:
388,260,158035,6,0,B|343:277|343:277|223:259,1,136.799995825195,6|0,1:2|1:0,0:0:0:0:
179,214,158535,2,0,L|170:125,1,68.3999979125977,10|0,0:0|0:0,0:0:0:0:
219,75,158868,2,0,P|187:59|137:68,1,68.3999979125977,2|0,1:2|1:0,0:0:0:0:
70,33,159202,1,10,0:0:0:0:
19,118,159368,6,0,L|32:195,1,68.3999979125977,6|0,1:2|0:0,0:0:0:0:
21,272,159702,2,0,B|80:283|80:283|103:273|103:273|173:284,1,136.799995825195,2|0,1:2|0:0,0:0:0:0:
226,336,160202,2,0,L|303:328,1,68.3999979125977,2|0,1:2|1:0,0:0:0:0:
366,274,160535,1,10,0:0:0:0:
434,348,160702,6,0,P|464:298|435:200,1,136.799995825195,6|0,1:2|1:0,0:0:0:0:
390,159,161202,2,0,L|398:85,1,68.3999979125977,10|0,0:0|0:0,0:0:0:0:
338,31,161535,2,0,L|261:41,1,68.3999979125977,2|0,1:2|1:0,0:0:0:0:
184,83,161868,1,10,0:0:0:0:
95,48,162035,6,0,B|75:84|75:84|99:187,1,136.799995825195,6|2,1:2|1:2,0:0:0:0:
29,227,162535,2,0,P|66:261|160:230,1,136.799995825195,10|0,0:0|1:0,0:0:0:0:
184,166,163035,1,0,1:0:0:0:
282,168,163202,2,0,L|326:189,1,34.1999989562989,10|8,0:0|0:0,0:0:0:0:
363,179,163368,2,0,L|388:220,1,34.1999989562989,10|8,0:0|0:0,0:0:0:0:
427,225,163535,6,0,B|441:265|441:265|419:373,1,144.399996144104,4|8,1:2|0:0,0:0:0:0:
320,380,164035,1,0,0:0:0:0:
239,334,164202,2,0,L|158:347,1,72.1999980720521,0|0,1:0|1:0,0:0:0:0:
91,307,164535,2,0,L|10:294,1,72.1999980720521,8|0,0:0|1:0,0:0:0:0:
23,201,164868,6,0,P|33:174|34:109,1,72.1999980720521,2|0,1:2|0:0,0:0:0:0:
137,51,165202,2,0,P|139:86|151:120,1,72.1999980720521,8|2,0:0|0:0,0:0:0:0:
257,165,165535,2,0,P|267:138|268:73,1,72.1999980720521,0|0,1:0|1:0,0:0:0:0:
371,15,165869,2,0,P|373:50|385:84,1,72.1999980720521,10|0,0:0|0:0,0:0:0:0:
488,148,166202,6,0,P|423:156|396:224,1,144.399996144104,2|8,1:2|0:0,0:0:0:0:
449,301,166702,1,0,0:0:0:0:
382,369,166868,2,0,P|349:353|315:342,1,72.1999980720521,0|0,1:0|1:0,0:0:0:0:
242,273,167202,2,0,P|207:284|175:299,1,72.1999980720521,8|0,0:0|1:0,0:0:0:0:
80,347,167535,6,0,B|94:302|94:302|84:266|84:266|105:191,1,144.399996144104,2|8,1:2|0:0,0:0:0:0:
29,125,168035,1,0,0:0:0:0:
75,32,168202,2,0,B|167:20|125:75|233:72,1,144.399996144104,2|8,1:2|0:0,0:0:0:0:
308,32,168702,1,0,0:0:0:0:
239,157,168868,6,0,L|255:314,1,152,6|10,1:2|0:0,0:0:0:0:
347,360,169368,1,0,0:0:0:0:
427,308,169535,2,0,L|522:294,1,76,2|0,1:2|1:0,0:0:0:0:
344,267,169868,1,10,0:0:0:0:
453,205,170035,6,0,B|468:161|468:161|460:126|460:126|481:36,1,152,2|0,1:2|1:0,0:0:0:0:
377,14,170535,2,0,L|291:25,1,76,10|0,0:0|0:0,0:0:0:0:
229,71,170868,2,0,L|143:60,1,76,2|0,1:2|1:0,0:0:0:0:
28,11,171202,2,0,P|41:51|43:109,1,76,10|0,0:0|0:0,0:0:0:0:
108,157,171535,6,0,P|72:206|95:309,1,152,2|8,1:2|0:0,0:0:0:0:
150,345,172035,2,0,L|240:335,1,76,2|0,0:0|1:0,0:0:0:0:
304,249,172368,1,0,1:0:0:0:
401,284,172535,2,0,L|386:373,1,76,10|0,0:0|0:0,0:0:0:0:
489,251,172868,6,0,B|497:203|497:203|482:175|482:175|492:72,1,152,2|8,1:2|0:0,0:0:0:0:
422,28,173368,1,0,0:0:0:0:
332,53,173535,2,0,L|254:39,1,76,0|0,1:0|1:0,0:0:0:0:
174,71,173868,2,0,L|98:76,1,76,8|0,0:0|1:0,0:0:0:0:
30,162,174202,6,0,L|156:173,1,114,0|2,1:0|0:0,0:0:0:0:
173,201,174535,2,0,L|264:208,1,76,10|0,0:0|0:0,0:0:0:0:
339,253,174868,2,0,P|352:211|335:164,1,76,2|0,1:2|1:0,0:0:0:0:
278,121,175202,1,10,0:0:0:0:
305,27,175368,6,0,L|463:54,1,152,2|2,1:2|1:2,0:0:0:0:
502,131,175868,2,0,L|487:220,1,76,10|0,0:0|0:0,0:0:0:0:
431,269,176202,2,0,L|446:358,1,76,0|0,1:0|1:0,0:0:0:0:
346,319,176535,2,0,P|298:303|250:316,1,76,10|0,0:0|0:0,0:0:0:0:
189,350,176868,6,0,B|137:361|137:361|30:334,1,152,2|10,1:2|0:0,0:0:0:0:
18,258,177368,2,0,B|58:186|-10:191|36:91,1,152,2|0,0:0|1:0,0:0:0:0:
68,34,177868,2,0,P|117:24|150:30,1,76,10|0,0:0|0:0,0:0:0:0:
213,69,178202,6,0,B|274:84|274:84|292:74|292:74|362:90,1,152,2|8,1:2|0:0,0:0:0:0:
458,70,178702,1,0,0:0:0:0:
506,148,178868,2,0,L|489:248,1,76,2|0,1:2|1:0,0:0:0:0:
458,320,179202,1,10,0:0:0:0:
359,270,179368,1,2,1:2:0:0:
266,361,179535,6,0,L|161:346,1,76,6|0,1:2|0:0,0:0:0:0:
95,365,179868,2,0,P|77:326|84:276,1,76,10|0,0:0|0:0,0:0:0:0:
14,235,180202,2,0,P|11:192|37:148,1,76,2|0,1:2|1:0,0:0:0:0:
93,84,180535,1,10,0:0:0:0:
182,103,180702,6,0,B|225:120|225:120|339:96,1,152,2|0,0:0|0:0,0:0:0:0:
356,9,181202,2,0,P|400:43|396:162,1,152,10|0,0:0|1:0,0:0:0:0:
333,188,181702,1,0,1:0:0:0:
370,272,181868,2,0,L|448:262,1,76,10|0,0:0|0:0,0:0:0:0:
366,358,182202,6,0,L|280:349,1,76,2|0,1:2|0:0,0:0:0:0:
209,310,182535,2,0,L|124:314,1,76,10|0,0:0|0:0,0:0:0:0:
43,341,182868,1,2,1:2:0:0:
12,249,183035,1,0,1:0:0:0:
52,163,183202,1,10,0:0:0:0:
21,73,183368,6,0,B|79:62|79:62|111:77|111:77|192:62,1,152,2|0,0:0|0:0,0:0:0:0:
252,12,183868,1,10,0:0:0:0:
357,40,184035,2,0,P|404:86|391:186,1,152,0|0,0:0|1:0,0:0:0:0:
457,247,184535,2,0,L|381:258,1,76,10|0,0:0|0:0,0:0:0:0:
304,218,184868,6,0,L|126:206,1,152,6|8,1:2|0:0,0:0:0:0:
64,169,185368,1,0,0:0:0:0:
17,258,185535,1,0,1:0:0:0:
152,207,185702,1,0,1:0:0:0:
105,292,185868,2,0,L|90:377,1,76,8|0,0:0|0:0,0:0:0:0:
206,341,186202,6,0,L|292:334,1,76,2|0,1:2|0:0,0:0:0:0:
308,332,186452,1,2,0:0:0:0:
308,332,186535,1,10,0:0:0:0:
416,370,186702,1,0,0:0:0:0:
496,317,186868,2,0,P|507:279|498:233,1,76,2|0,1:2|0:0,0:0:0:0:
444,170,187202,2,0,P|433:132|442:86,1,76,10|8,0:0|0:0,0:0:0:0:
484,15,187535,5,14,0:2:0:0:
457,12,187618,1,0,1:2:0:0:
430,10,187701,1,0,1:2:0:0:
404,8,187785,1,0,1:2:0:0:
379,9,187868,2,0,L|329:16,3,38,10|0|0|0,0:0|1:2|1:2|1:2,0:0:0:0:
284,78,188202,6,0,L|234:85,3,38,10|0|0|0,0:0|1:2|1:2|1:2,0:0:0:0:
186,8,188535,1,10,0:0:0:0:
165,34,188618,1,0,1:0:0:0:
154,67,188701,1,0,1:0:0:0:
155,101,188785,1,0,1:0:0:0:
168,132,188868,6,0,P|189:175|188:217,1,76,6|0,1:2|0:0,0:0:0:0:
247,298,189202,2,0,P|216:333|178:350,1,76,10|0,0:0|0:0,0:0:0:0:
300,197,189535,2,0,P|346:205|379:230,1,76,2|0,1:2|0:0,0:0:0:0:
504,347,189868,2,0,B|449:360|449:360|374:338,1,114,14|0,0:0|0:0,0:0:0:0:
370,312,190202,1,6,1:2:0:0:
256,192,190285,12,0,192813,0:0:0:0:
114,44,204868,6,0,L|103:164,1,91.199997216797,6|0,1:2|0:0,0:0:0:0:
101,175,205118,1,2,1:2:0:0:
101,175,205202,1,10,0:0:0:0:
2,105,205368,1,2,1:2:0:0:
63,264,205535,2,0,L|186:249,1,91.199997216797,2|0,1:3|0:0,0:0:0:0:
255,211,205868,1,10,0:0:0:0:
208,343,206035,1,2,1:2:0:0:
176,158,206202,5,2,1:2:0:0:
286,298,206368,1,2,1:2:0:0:
345,140,206535,2,0,L|459:174,1,91.199997216797,10|2,0:0|1:2,0:0:0:0:
374,52,206868,2,0,P|329:47|286:68,1,91.199997216797,2|0,1:2|0:0,0:0:0:0:
201,134,207202,1,10,0:0:0:0:
92,97,207368,1,2,1:2:0:0:
18,184,207535,6,0,L|25:288,1,91.199997216797,2|0,1:2|0:0,0:0:0:0:
29,309,207785,1,2,1:2:0:0:
29,309,207868,1,10,0:0:0:0:
130,199,208035,1,2,1:2:0:0:
202,339,208202,2,0,L|316:353,1,91.199997216797,2|0,1:3|0:0,0:0:0:0:
421,224,208535,1,10,0:0:0:0:
276,263,208701,1,2,1:2:0:0:
442,330,208868,5,2,1:2:0:0:
331,193,209035,1,2,1:2:0:0:
473,123,209202,1,10,0:0:0:0:
421,224,209368,1,2,1:2:0:0:
375,60,209535,2,0,L|249:77,1,91.199997216797,2|0,1:2|0:0,0:0:0:0:
156,20,209868,2,0,L|121:142,1,91.199997216797,8|8,0:0|0:0,0:0:0:0:
105,142,210118,1,8,0:0:0:0:
105,142,210201,6,0,L|116:261,1,91.199997216797,6|0,1:2|0:0,0:0:0:0:
58,317,210535,2,0,P|101:332|148:326,1,91.199997216797,10|0,0:0|0:0,0:0:0:0:
234,370,210868,2,0,P|271:343|293:301,1,91.199997216797,2|0,1:3|0:0,0:0:0:0:
371,251,211201,2,0,L|361:151,1,91.199997216797,10|0,0:0|0:0,0:0:0:0:
324,45,211535,6,0,L|446:57,1,91.199997216797,2|0,1:2|0:0,0:0:0:0:
497,119,211868,2,0,L|487:219,1,91.199997216797,10|0,0:0|1:0,0:0:0:0:
473,316,212201,2,0,B|407:332|407:332|368:324|368:324|282:342,1,182.399994433594,2|8,1:2|0:0,0:0:0:0:
61,188,212868,6,0,L|52:83,1,91.199997216797,6|0,1:2|0:0,0:0:0:0:
50,62,213118,1,2,1:2:0:0:
50,62,213202,2,0,P|88:44|141:54,1,91.199997216797,10|2,0:0|1:2,0:0:0:0:
226,111,213535,1,2,1:3:0:0:
329,69,213702,1,2,1:2:0:0:
421,114,213868,2,0,L|429:225,1,91.199997216797,10|2,0:0|1:2,0:0:0:0:
472,326,214202,5,6,1:2:0:0:
352,296,214368,1,0,1:0:0:0:
256,354,214535,2,0,L|156:340,1,91.199997216797,8|8,0:0|0:0,0:0:0:0:
59,295,214868,1,6,1:2:0:0:
219,243,215035,1,2,1:2:0:0:
115,112,215201,1,14,0:0:0:0:
97,125,215284,1,8,0:0:0:0:
84,144,215367,1,10,0:0:0:0:
77,165,215452,1,8,0:0:0:0:
77,190,215535,6,0,P|136:174|215:174,1,114.000004348755,4|2,1:2|0:0,0:0:0:0:
324,89,216202,2,0,P|380:92|435:107,1,114.000004348755,4|2,1:2|0:0,0:0:0:0:
494,291,216868,5,14,0:0:0:0:
321,279,217035,1,2,1:2:0:0:
321,279,217118,1,0,1:0:0:0:
321,279,217202,1,10,0:0:0:0:
439,365,217368,1,2,1:2:0:0:
480,189,217535,1,14,0:0:0:0:
485,179,217868,6,0,L|473:97,1,57.0000021743775,8|2,0:0|1:2,0:0:0:0:
419,63,218202,6,0,P|358:58|280:73,1,114.000004348755,4|2,1:2|0:0,0:0:0:0:
157,10,218869,2,0,P|101:24|51:49,1,114.000004348755,4|2,1:2|0:0,0:0:0:0:
17,229,219535,5,10,0:0:0:0:
211,265,219702,1,0,1:2:0:0:
211,265,219785,1,0,1:0:0:0:
211,265,219869,1,10,0:0:0:0:
87,153,220035,1,10,0:0:0:0:
130,353,220202,1,10,0:0:0:0:
142,362,220535,6,0,L|209:368,1,57.0000021743775,14|2,0:0|1:2,0:0:0:0:
275,320,220868,6,0,L|365:312,1,83.6000025512696,14|0,0:0|1:0,0:0:0:0:
468,282,221202,1,10,0:0:0:0:
421,376,221368,1,0,1:0:0:0:
383,202,221535,2,0,L|491:192,1,83.6000025512696,10|0,0:0|1:0,0:0:0:0:
297,137,221868,2,0,P|276:183|297:244,1,83.6000025512696,10|0,0:0|1:0,0:0:0:0:
384,103,222202,5,10,0:0:0:0:
310,33,222368,2,0,L|248:40,1,41.8000012756348,2|2,1:2|0:0,0:0:0:0:
171,74,222535,1,10,0:0:0:0:
171,74,222702,1,2,1:2:0:0:
68,45,222868,6,0,L|62:147,1,83.6000025512696,10|0,0:0|1:0,0:0:0:0:
128,220,223202,1,10,0:0:0:0:
22,271,223368,1,2,1:2:0:0:
116,343,223535,6,0,B|197:334|197:334|203:324|203:324|281:315,1,167.200005102539,14|10,0:0|0:0,0:0:0:0:
377,349,224034,1,2,1:2:0:0:
461,289,224202,2,0,P|472:249|466:199,1,83.6000025512696,10|0,0:0|1:0,0:0:0:0:
318,193,224535,2,0,P|347:223|393:243,1,83.6000025512696,10|0,0:0|1:0,0:0:0:0:
478,112,224868,6,0,P|437:123|397:153,1,83.6000025512696,10|2,0:0|1:2,0:0:0:0:
403,147,225117,1,2,0:0:0:0:
403,147,225202,1,10,0:0:0:0:
468,208,225367,1,2,1:2:0:0:
308,128,225535,2,0,L|220:140,1,83.6000025512696,10|0,0:0|1:0,0:0:0:0:
108,130,225868,1,14,0:0:0:0:
57,212,226034,1,2,1:2:0:0:
40,64,226202,6,0,P|75:40|127:39,1,83.6000025512696,14|0,0:0|1:0,0:0:0:0:
239,9,226534,1,10,0:0:0:0:
225,140,226701,1,0,1:0:0:0:
336,42,226868,2,0,L|434:31,1,83.6000025512696,10|0,0:0|1:0,0:0:0:0:
470,150,227202,2,0,L|386:141,1,83.6000025512696,10|0,0:0|1:0,0:0:0:0:
319,214,227535,5,10,0:0:0:0:
378,279,227702,2,0,L|419:275,1,41.8000012756348,2|2,1:2|0:0,0:0:0:0:
508,257,227867,1,10,0:0:0:0:
508,257,228034,1,2,1:2:0:0:
497,371,228202,2,0,P|453:375|398:339,1,83.6000025512696,14|0,0:0|1:0,0:0:0:0:
294,299,228535,2,0,P|319:336|315:400,1,83.6000025512696,10|2,0:0|1:2,0:0:0:0:
195,266,228867,5,14,0:0:0:0:
185,272,229202,6,0,L|192:168,1,83.6000025512696,2|10,1:2|0:0,0:0:0:0:
143,87,229535,1,14,0:0:0:0:
141,74,229868,6,0,P|184:99|252:99,1,102.599996868897,14|0,0:0|0:0,0:0:0:0:
264,81,230202,5,14,0:0:0:0:
354,118,230368,2,0,L|360:176,2,34.1999989562989,2|2|14,1:2|0:0|0:0,0:0:0:0:
435,67,230701,1,2,1:2:0:0:
499,137,230868,6,0,B|480:209|480:209|490:232|490:232|469:327,1,182.399994433594,14|0,0:0|0:0,0:0:0:0:
