osu file format v14

[General]
AudioFilename: audio.mp3
AudioLeadIn: 0
PreviewTime: 192785
Countdown: 0
SampleSet: Soft
StackLeniency: 0.7
Mode: 0
LetterboxInBreaks: 0
WidescreenStoryboard: 1

[Editor]
DistanceSpacing: 1.2
BeatDivisor: 4
GridSize: 4
TimelineZoom: 1.7

[Metadata]
Title:Hanagoyomi
TitleUnicode:華暦
Artist:Ayumi.
ArtistUnicode:Ayumi.
Creator:Mimari
Version:Hard.
Source:花の野に咲くうたかたの
Tags:eroge galgame video game vn visual novel opening op full japanese female vocal Hana no No ni Saku Utakata no applique soft never_log_off alexsander kuse kubsnia_zhoyl_
BeatmapID:2411371
BeatmapSetID:1155366

[Difficulty]
HPDrainRate:5
CircleSize:3.8
OverallDifficulty:6
ApproachRate:7.5
SliderMultiplier:1.15
SliderTickRate:1

[Events]
//Background and Video events
0,0,"bg.png",0,0
//Break Periods
2,101068,105043
2,193979,204043
//Storyboard Layer 0 (Background)
//Storyboard Layer 1 (Fail)
//Storyboard Layer 2 (Pass)
//Storyboard Layer 3 (Foreground)
//Storyboard Layer 4 (Overlay)
//Storyboard Sound Samples

[TimingPoints]
1036,500,4,2,66,55,1,0
1536,500,4,2,67,55,1,0
1536,-142.857142857143,4,2,67,55,0,0
3035,-100,4,2,66,55,0,0
3536,-100,4,2,67,55,0,0
5035,-100,4,2,66,55,0,0
5036,-142.857142857143,4,2,66,55,0,0
5536,-142.857142857143,4,2,67,55,0,0
6535,-142.857142857143,4,2,66,55,0,0
9536,-142.857142857143,4,2,67,55,0,0
10535,-142.857142857143,4,2,66,55,0,0
11535,-142.857142857143,4,2,66,55,0,0
11536,-142.857142857143,4,2,67,55,0,0
12035,-142.857142857143,4,2,66,55,0,0
12036,-142.857142857143,4,2,66,55,0,0
13536,-142.857142857143,4,2,67,55,0,0
13786,-142.857142857143,4,2,66,55,0,0
14535,-142.857142857143,4,2,66,55,0,0
16869,333.333333333333,4,2,66,85,1,0
16869,-111.111111111111,4,2,66,85,0,0
26952,-100,4,2,66,75,0,0
27535,-142.857142857143,4,2,66,70,0,0
27868,-142.857142857143,4,2,66,65,0,0
28202,-200,4,2,66,60,0,0
28535,-200,4,2,66,55,0,0
28702,-200,4,2,66,50,0,0
28868,-166.666666666667,4,2,66,55,0,0
42202,-125,4,2,66,70,0,0
52868,-125,4,2,67,70,0,0
54202,-250,4,2,66,45,0,0
55202,-250,4,2,66,75,0,0
55868,-111.111111111111,4,2,66,75,0,0
58202,-125,4,2,66,75,0,0
64202,-125,4,2,67,55,0,0
64451,-125,4,2,66,55,0,0
64868,-100,4,2,66,92,0,1
86202,-125,4,2,66,75,0,0
87535,-125,4,2,66,85,0,0
88868,-111.111111111111,4,2,66,85,0,0
97868,-111.111111111111,4,2,66,70,0,0
98202,-111.111111111111,4,2,66,85,0,0
98868,-111.111111111111,4,2,66,70,0,0
99535,-166.666666666666,4,2,66,70,0,0
99868,-166.666666666666,4,2,66,65,0,0
100202,-166.666666666666,4,2,66,60,0,0
100535,-166.666666666666,4,2,66,55,0,0
100702,-166.666666666666,4,2,66,50,0,0
100868,-166.666666666666,4,2,66,65,0,0
105868,-133.333333333333,4,2,66,75,0,0
106202,-125,4,2,66,75,0,0
111534,-125,4,2,67,75,0,0
112868,-250,4,2,66,55,0,0
114202,-250,4,2,66,75,0,0
114535,-111.111111111111,4,2,66,75,0,0
116868,-125,4,2,66,75,0,0
122202,-100,4,2,66,75,0,0
123535,-100,4,2,66,92,0,1
144868,-125,4,2,66,85,0,0
147535,-117.647058823529,4,2,66,85,0,0
163535,-111.111111111111,4,2,66,85,0,0
192868,-285.714285714284,4,2,66,85,0,0
194202,-285.714285714284,4,2,67,85,0,0
194368,-285.714285714284,4,2,66,55,0,0
199535,-285.714285714284,4,2,67,55,0,0
199868,-285.714285714284,4,2,66,55,0,0
204202,-285.714285714284,4,2,67,65,0,0
204451,-285.714285714284,4,2,66,65,0,0
204535,-285.714285714284,4,2,66,75,0,0
204868,-100,4,2,66,92,0,1
215535,-125,4,2,66,85,0,0
219535,-125,4,2,66,95,0,0
220535,-125,4,2,66,85,0,0
220868,-111.111111111111,4,2,66,85,0,0
230868,-133.333333333333,4,2,66,85,0,0
231535,-133.333333333333,4,2,66,5,0,0

[Colours]
Combo1 : 251,252,194
Combo2 : 255,234,253
Combo3 : 254,194,194
Combo4 : 210,252,209

[HitObjects]
91,191,1536,6,0,B|76:264|76:264|82:279|82:279|66:348,2,160.99999508667,2|0|2,0:0|0:0|0:0,0:0:0:0:
91,191,4536,1,0,0:0:0:0:
81,75,5036,2,0,L|136:81,1,40.2499987716675,2|2,0:0|0:0,0:0:0:0:
177,11,5536,6,0,P|204:84|166:152,2,160.99999508667,2|2|2,0:0|0:0|0:0,0:0:0:0:
81,75,8036,2,0,L|40:70,2,40.2499987716675,0|0|0,0:0|0:0|0:0,0:0:0:0:
167,153,9036,2,0,L|216:152,1,40.2499987716675,2|0,0:0|0:0,0:0:0:0:
285,118,9536,6,0,B|353:120|353:120|372:109|372:109|447:113,2,160.99999508667,2|2|2,0:0|0:0|0:0,0:0:0:0:
167,153,12036,2,0,P|153:184|158:241,2,80.499997543335,2|2|2,0:0|0:0|0:0,0:0:0:0:
236,276,13536,6,0,P|201:307|91:289,1,160.99999508667,2|2,0:0|0:0,0:0:0:0:
256,192,15036,12,0,16536,0:0:0:0:
307,282,16869,6,0,L|193:276,1,103.499996841431,14|10,0:0|0:0,0:0:0:0:
126,306,17369,1,0,1:0:0:0:
48,278,17535,2,0,L|44:207,1,51.7499984207154,10|0,0:0|1:0,0:0:0:0:
82,151,17869,2,0,L|78:77,1,51.7499984207154,10|0,0:0|1:0,0:0:0:0:
50,21,18202,6,0,P|80:13|117:27,1,51.7499984207154,10|2,0:0|1:2,0:0:0:0:
176,48,18535,1,10,0:0:0:0:
176,48,18702,1,2,1:2:0:0:
254,21,18868,2,0,P|279:17|303:25,1,51.7499984207154,10|0,0:0|1:0,0:0:0:0:
386,11,19202,2,0,L|378:74,1,51.7499984207154,10|2,0:0|1:2,0:0:0:0:
328,127,19535,6,0,L|315:252,1,103.499996841431,14|10,0:0|0:0,0:0:0:0:
274,301,20035,1,2,1:2:0:0:
332,359,20202,2,0,B|370:351|370:351|387:359|387:359|432:351,1,103.499996841431,10|10,0:0|0:0,0:0:0:0:
512,331,20702,1,2,1:2:0:0:
460,266,20868,6,0,P|451:236|457:205,1,51.7499984207154,10|2,0:0|1:2,0:0:0:0:
494,143,21202,2,0,P|503:113|497:82,1,51.7499984207154,10|2,0:0|1:2,0:0:0:0:
444,31,21535,2,0,L|371:27,1,51.7499984207154,10|0,0:0|1:0,0:0:0:0:
313,54,21868,1,14,0:0:0:0:
313,54,22035,1,2,1:2:0:0:
249,0,22202,6,0,P|229:44|247:106,1,103.499996841431,14|10,0:0|0:0,0:0:0:0:
300,153,22702,1,0,1:0:0:0:
270,230,22868,2,0,L|203:222,1,51.7499984207154,10|0,0:0|1:0,0:0:0:0:
146,181,23202,2,0,L|79:173,1,51.7499984207154,10|2,0:0|1:2,0:0:0:0:
14,153,23535,6,0,P|9:186|23:220,1,51.7499984207154,10|2,0:2|1:2,0:0:0:0:
61,271,23868,1,10,0:0:0:0:
61,271,24035,1,2,1:2:0:0:
132,313,24202,2,0,P|165:318|199:304,1,51.7499984207154,14|0,0:0|0:0,0:0:0:0:
253,271,24535,2,0,L|264:340,1,51.7499984207154,10|2,0:0|1:2,0:0:0:0:
340,347,24868,6,0,L|350:244,1,103.499996841431,14|2,0:0|1:2,0:0:0:0:
398,176,25368,1,10,0:0:0:0:
381,94,25535,2,0,B|342:107|342:107|277:83,1,103.499996841431,14|14,0:0|0:0,0:0:0:0:
222,29,26035,1,0,0:0:0:0:
151,71,26201,6,0,P|149:96|157:120,1,51.7499984207154,14|0,0:0|1:0,0:0:0:0:
209,186,26535,2,0,P|210:211|202:235,1,51.7499984207154,14|2,0:0|1:2,0:0:0:0:
164,309,26868,2,0,B|118:315|118:315|106:309|106:309|43:319,1,103.499996841431,6|0,1:2|0:0,0:0:0:0:
10,158,27535,6,0,L|20:67,1,80.499997543335,2|2,0:0|0:0,0:0:0:0:
100,35,28202,2,0,L|106:99,1,57.5,2|0,0:0|0:0,0:0:0:0:
187,50,28868,6,0,L|296:45,1,103.499996841431,2|0,0:0|0:0,0:0:0:0:
329,31,29535,2,0,B|375:38|375:38|386:31|386:31|444:38,1,103.499996841431,2|2,0:0|0:0,0:0:0:0:
462,62,30202,2,0,L|458:108,1,34.4999989471436,2|2,0:0|0:0,0:0:0:0:
473,135,30535,2,0,L|469:181,1,34.4999989471436,2|2,0:0|0:0,0:0:0:0:
464,210,30868,1,2,0:0:0:0:
296,337,31535,6,0,B|244:343|244:343|185:320,1,103.499996841431,2|0,0:0|0:0,0:0:0:0:
155,316,32202,2,0,P|117:281|103:225,1,103.499996841431,2|2,0:0|0:0,0:0:0:0:
123,196,32868,2,0,L|128:155,1,34.4999989471436,2|2,0:0|0:0,0:0:0:0:
154,129,33202,2,0,L|159:88,1,34.4999989471436,2|2,0:0|0:0,0:0:0:0:
167,54,33535,1,2,0:0:0:0:
419,30,34202,6,0,B|420:82|420:82|414:90|414:90|416:145,1,103.499996841431,2|0,0:0|0:0,0:0:0:0:
420,172,34868,2,0,P|373:184|312:158,1,103.499996841431,2|2,0:0|0:0,0:0:0:0:
289,140,35535,2,0,L|293:93,1,34.4999989471436,2|2,0:0|0:0,0:0:0:0:
274,67,35868,2,0,L|267:21,1,34.4999989471436,2|2,0:0|0:0,0:0:0:0:
231,13,36202,1,2,0:0:0:0:
65,20,36868,6,0,B|82:51|82:51|72:129,1,103.499996841431,2|2,0:0|0:0,0:0:0:0:
71,160,37535,2,0,P|37:166|5:156,2,68.9999978942872,2|2|2,0:0|0:0|0:0,0:0:0:0:
107,141,38368,1,2,0:0:0:0:
107,141,38535,2,0,P|117:108|111:74,2,68.9999978942872,2|2|2,0:0|0:0|0:0,0:0:0:0:
131,224,39535,5,2,0:0:0:0:
256,192,39618,12,2,41868,0:0:0:0:
146,105,42202,6,0,L|245:97,1,92,6|8,1:2|0:0,0:0:0:0:
310,68,42702,1,2,0:0:0:0:
378,105,42868,2,0,L|385:166,1,46,2|0,1:2|1:0,0:0:0:0:
444,200,43202,2,0,L|453:265,1,46,8|2,0:0|1:2,0:0:0:0:
452,323,43535,6,0,P|425:322|407:310,1,46,2|2,1:2|0:0,0:0:0:0:
339,278,43868,1,10,0:0:0:0:
339,278,44035,1,2,0:0:0:0:
269,314,44202,2,0,L|266:377,1,46,2|0,1:2|1:0,0:0:0:0:
190,341,44535,2,0,L|138:354,1,46,8|0,0:0|0:0,0:0:0:0:
145,273,44868,6,0,B|129:241|129:241|140:168,1,92,2|8,1:2|0:0,0:0:0:0:
197,135,45368,1,2,0:0:0:0:
266,170,45535,2,0,L|330:175,1,46,2|0,1:2|1:0,0:0:0:0:
377,216,45868,2,0,L|441:221,1,46,8|2,0:0|1:2,0:0:0:0:
484,170,46202,6,0,P|491:137|487:115,1,46,2|2,1:2|1:2,0:0:0:0:
450,57,46535,1,10,0:0:0:0:
450,57,46702,1,2,0:0:0:0:
380,21,46868,2,0,L|327:26,1,46,2|0,1:2|1:0,0:0:0:0:
255,16,47202,2,0,L|202:21,1,46,8|0,0:0|0:0,0:0:0:0:
131,33,47535,6,0,L|122:145,1,92,6|8,1:2|0:0,0:0:0:0:
63,174,48035,1,2,0:0:0:0:
22,240,48202,2,0,L|27:298,1,46,2|0,1:2|1:0,0:0:0:0:
100,311,48535,2,0,L|144:348,1,46,8|2,0:0|1:2,0:0:0:0:
209,316,48868,6,0,L|257:319,1,46,2|2,1:2|0:0,0:0:0:0:
328,348,49202,1,10,0:0:0:0:
328,348,49368,1,2,0:0:0:0:
401,319,49535,2,0,P|412:296|411:261,1,46,2|0,1:2|1:0,0:0:0:0:
450,206,49868,2,0,P|437:183|408:164,1,46,8|0,0:0|0:0,0:0:0:0:
362,119,50202,6,0,L|303:130,1,46,6|2,1:2|0:0,0:0:0:0:
253,173,50535,1,10,0:0:0:0:
253,173,50702,1,2,0:0:0:0:
177,153,50868,2,0,L|118:164,1,46,2|0,1:2|1:0,0:0:0:0:
53,169,51202,2,0,L|45:109,1,46,10|2,0:0|0:0,0:0:0:0:
37,45,51535,5,6,1:2:0:0:
37,45,51702,1,2,0:0:0:0:
108,14,51868,2,0,L|165:19,1,46,10|2,0:0|0:0,0:0:0:0:
218,63,52202,2,0,P|260:75|303:55,1,92,2|2,1:2|0:0,0:0:0:0:
370,16,52702,1,2,0:0:0:0:
370,16,52868,5,2,0:0:0:0:
450,318,54202,2,0,P|475:324|498:323,2,46,2|2|2,0:0|0:0|0:0,0:0:0:0:
367,258,55202,1,2,0:0:0:0:
267,277,55535,5,14,0:0:0:0:
267,277,55702,1,2,1:2:0:0:
194,315,55868,2,0,L|131:312,1,51.7499984207154,10|2,0:0|1:2,0:0:0:0:
72,357,56202,2,0,P|59:298|87:240,1,103.499996841431,10|0,0:0|1:0,0:0:0:0:
138,208,56702,1,10,0:0:0:0:
138,208,56868,6,0,B|152:165|152:165|145:157|145:157|163:107,1,103.499996841431,6|10,1:2|0:0,0:0:0:0:
133,33,57368,1,2,1:2:0:0:
214,15,57535,2,0,L|266:22,1,51.7499984207154,10|0,0:0|1:0,0:0:0:0:
327,76,57868,2,0,L|383:69,1,51.7499984207154,0|0,1:0|1:0,0:0:0:0:
455,55,58202,6,0,L|445:153,1,92,4|2,1:2|1:2,0:0:0:0:
392,204,58702,1,0,0:0:0:0:
392,204,58868,2,0,L|398:255,1,46,2|0,1:2|0:0,0:0:0:0:
449,309,59202,2,0,L|455:360,1,46,2|0,1:2|0:0,0:0:0:0:
376,348,59535,6,0,P|342:353|285:328,1,92,2|2,1:2|1:2,0:0:0:0:
216,359,60035,1,0,0:0:0:0:
216,359,60202,2,0,P|211:331|219:296,1,46,2|0,1:2|0:0,0:0:0:0:
250,244,60535,2,0,P|255:216|247:181,1,46,2|0,1:2|0:0,0:0:0:0:
229,124,60868,6,0,L|123:132,1,92,2|0,1:2|1:0,0:0:0:0:
76,180,61368,2,0,P|54:133|68:83,1,92,2|0,0:0|0:0,0:0:0:0:
127,53,61868,2,0,L|184:49,1,46,2|0,1:2|0:0,0:0:0:0:
251,43,62202,1,6,1:2:0:0:
256,192,62285,12,2,64535,0:0:0:0:
344,292,64868,6,0,B|314:314|314:314|231:306,1,115,6|10,1:2|0:0,0:0:0:0:
155,336,65368,1,2,0:0:0:0:
81,290,65535,2,0,L|73:223,1,57.5,2|0,1:3|0:0,0:0:0:0:
34,156,65868,1,10,0:0:0:0:
34,156,66035,1,2,1:2:0:0:
61,73,66202,6,0,P|89:59|140:59,1,57.5,2|2,1:2|0:0,0:0:0:0:
184,4,66535,2,0,P|208:23|228:70,1,57.5,10|2,0:0|1:2,0:0:0:0:
300,8,66868,2,0,P|309:63|277:118,1,115,2|10,1:2|0:0,0:0:0:0:
218,172,67368,1,2,1:2:0:0:
248,252,67535,6,0,B|297:261|297:261|315:256|315:256|375:266,1,115,2|10,1:2|0:0,0:0:0:0:
429,316,68035,1,2,0:0:0:0:
499,266,68202,2,0,P|505:243|493:203,1,57.5,2|0,1:3|0:0,0:0:0:0:
444,142,68535,1,10,0:0:0:0:
444,142,68702,1,2,1:2:0:0:
480,64,68868,6,0,L|423:56,1,57.5,2|2,1:2|0:0,0:0:0:0:
345,17,69202,1,10,0:0:0:0:
266,51,69368,1,2,1:2:0:0:
185,20,69535,2,0,B|116:3|133:46|70:29,1,115,2|8,1:2|0:0,0:0:0:0:
11,89,70035,1,8,0:0:0:0:
42,169,70202,6,0,L|28:251,1,57.5,6|0,1:2|0:0,0:0:0:0:
74,301,70535,2,0,L|60:383,1,57.5,10|0,0:0|0:0,0:0:0:0:
150,346,70868,2,0,L|233:335,1,57.5,2|0,1:3|0:0,0:0:0:0:
274,283,71202,2,0,L|357:272,1,57.5,10|0,0:0|0:0,0:0:0:0:
407,315,71535,6,0,L|421:233,1,57.5,2|0,1:2|0:0,0:0:0:0:
477,196,71868,2,0,L|491:114,1,57.5,10|0,0:0|0:0,0:0:0:0:
457,57,72202,2,0,P|422:32|343:38,1,115,2|8,1:2|0:0,0:0:0:0:
279,80,72702,1,0,1:0:0:0:
200,45,72868,6,0,L|118:41,1,57.5,6|0,1:2|0:0,0:0:0:0:
60,69,73202,1,10,0:0:0:0:
60,69,73368,1,2,1:2:0:0:
20,145,73535,2,0,L|34:217,1,57.5,2|2,1:3|0:0,0:0:0:0:
103,249,73868,2,0,L|117:321,1,57.5,10|10,0:0|0:0,0:0:0:0:
193,341,74202,6,0,B|229:358|229:358|310:351,1,115,6|8,1:2|0:0,0:0:0:0:
390,350,74702,1,0,0:0:0:0:
390,350,74868,2,0,P|393:315|399:281,1,57.5,6|0,1:2|1:0,0:0:0:0:
457,230,75202,2,0,P|454:195|448:161,1,57.5,14|8,0:0|0:0,0:0:0:0:
426,136,75452,1,8,0:0:0:0:
426,136,75535,6,0,B|418:95|418:95|423:73|423:73|411:3,1,115,6|10,1:2|0:0,0:0:0:0:
329,5,76035,1,2,0:0:0:0:
252,45,76202,2,0,L|180:33,1,57.5,2|2,1:3|0:0,0:0:0:0:
114,55,76535,1,10,0:0:0:0:
114,55,76702,1,2,1:2:0:0:
46,109,76868,6,0,P|35:136|38:175,1,57.5,2|2,1:2|0:0,0:0:0:0:
80,237,77202,2,0,P|106:247|135:247,1,57.5,10|2,0:0|1:2,0:0:0:0:
203,195,77535,2,0,B|237:178|237:178|314:187,1,115,2|10,1:2|0:0,0:0:0:0:
397,167,78035,1,2,1:2:0:0:
473,206,78202,6,0,B|464:255|464:255|468:273|468:273|459:333,1,115,6|10,1:2|0:0,0:0:0:0:
397,377,78702,1,2,0:0:0:0:
317,343,78869,2,0,L|243:332,1,57.5,2|0,1:3|0:0,0:0:0:0:
175,315,79202,1,10,0:0:0:0:
175,315,79369,1,2,1:2:0:0:
99,355,79535,6,0,P|87:321|95:280,1,57.5,2|2,1:2|1:2,0:0:0:0:
135,227,79869,1,10,0:0:0:0:
109,144,80035,1,2,0:0:0:0:
139,63,80202,2,0,B|169:44|169:44|258:63,1,115,2|8,1:2|0:0,0:0:0:0:
320,105,80702,1,8,0:0:0:0:
399,72,80869,6,0,L|403:154,1,57.5,6|0,1:2|0:0,0:0:0:0:
468,184,81202,2,0,L|473:263,1,57.5,10|0,0:0|0:0,0:0:0:0:
505,321,81535,2,0,L|447:328,1,57.5,2|0,1:3|0:0,0:0:0:0:
370,366,81869,2,0,L|312:373,1,57.5,10|0,0:0|0:0,0:0:0:0:
255,309,82202,6,0,L|171:305,1,57.5,2|0,1:2|0:0,0:0:0:0:
128,254,82535,2,0,L|44:250,1,57.5,10|0,0:0|1:0,0:0:0:0:
38,170,82869,2,0,B|32:103|64:127|51:50,1,115,2|10,1:2|0:0,0:0:0:0:
124,11,83369,1,0,1:0:0:0:
201,47,83535,6,0,L|265:53,1,57.5,6|0,1:2|0:0,0:0:0:0:
342,32,83869,1,10,0:0:0:0:
342,32,84035,1,2,1:2:0:0:
419,69,84202,2,0,P|423:107|408:149,1,57.5,2|2,1:3|1:2,0:0:0:0:
365,193,84535,2,0,P|361:231|376:273,1,57.5,10|2,0:0|1:2,0:0:0:0:
417,319,84869,6,0,P|365:296|306:308,1,115,6|8,1:2|0:0,0:0:0:0:
238,355,85369,1,0,0:0:0:0:
238,355,85535,2,0,P|222:319|228:281,1,57.5,2|2,1:2|1:2,0:0:0:0:
184,223,85868,2,0,P|200:187|194:149,1,57.5,10|2,0:0|1:2,0:0:0:0:
173,134,86119,1,0,1:0:0:0:
173,134,86202,6,0,L|80:142,1,92,4|2,1:2|0:0,0:0:0:0:
20,18,86868,6,0,L|111:25,1,92,4|2,1:2|0:0,0:0:0:0:
235,86,87535,6,0,L|291:83,1,46,14|2,0:0|1:2,0:0:0:0:
346,41,87868,2,0,L|402:44,1,46,10|2,0:0|1:2,0:0:0:0:
470,50,88202,1,14,0:0:0:0:
504,202,88535,2,0,P|491:224|484:248,1,46,14|2,0:0|1:2,0:0:0:0:
488,321,88868,6,0,P|449:342|381:330,1,103.499996841431,14|10,0:0|0:0,0:0:0:0:
319,306,89368,1,0,1:2:0:0:
242,335,89535,2,0,L|172:331,1,51.7499984207154,10|0,0:0|1:0,0:0:0:0:
111,359,89868,2,0,L|103:283,1,51.7499984207154,10|0,0:0|1:0,0:0:0:0:
51,244,90202,6,0,L|61:173,1,51.7499984207154,10|2,0:0|1:2,0:0:0:0:
108,126,90535,1,10,0:0:0:0:
108,126,90702,1,2,1:2:0:0:
88,45,90868,2,0,P|113:41|141:47,1,51.7499984207154,10|0,0:0|1:0,0:0:0:0:
209,90,91202,2,0,P|234:94|262:88,1,51.7499984207154,10|2,0:0|1:2,0:0:0:0:
323,37,91535,6,0,B|365:44|365:44|376:59|376:59|431:72,1,103.499996841431,14|10,0:0|0:0,0:0:0:0:
497,88,92034,1,2,1:2:0:0:
454,159,92202,2,0,P|465:216|466:279,1,103.499996841431,10|10,0:0|0:0,0:0:0:0:
429,335,92702,1,2,1:2:0:0:
352,364,92868,6,0,L|291:355,1,51.7499984207154,10|0,0:0|1:0,0:0:0:0:
233,307,93202,2,0,L|172:298,1,51.7499984207154,10|0,0:0|1:0,0:0:0:0:
112,344,93535,2,0,P|87:352|46:349,1,51.7499984207154,10|0,0:0|1:0,0:0:0:0:
17,282,93867,1,14,0:0:0:0:
17,282,94034,1,2,1:2:0:0:
54,207,94202,6,0,B|72:175|72:175|55:89,1,103.499996841431,14|10,0:0|0:0,0:0:0:0:
95,34,94701,1,2,1:2:0:0:
176,24,94868,2,0,L|227:30,1,51.7499984207154,10|0,0:0|1:0,0:0:0:0:
291,82,95202,2,0,L|342:88,1,51.7499984207154,10|2,0:0|1:2,0:0:0:0:
421,64,95535,6,0,P|426:97|412:131,1,51.7499984207154,10|2,0:0|1:2,0:0:0:0:
361,172,95868,1,10,0:0:0:0:
361,172,96035,1,2,1:2:0:0:
414,236,96202,2,0,L|475:245,1,51.7499984207154,10|0,0:0|1:0,0:0:0:0:
468,326,96535,2,0,L|416:333,1,51.7499984207154,14|2,0:0|1:2,0:0:0:0:
340,366,96868,6,0,L|223:354,1,103.499996841431,14|2,0:0|1:2,0:0:0:0:
155,338,97368,1,8,0:0:0:0:
125,260,97535,2,0,B|112:231|112:231|133:207|129:155,1,103.499996841431,14|14,0:0|0:0,0:0:0:0:
81,95,98035,1,0,0:0:0:0:
121,23,98202,6,0,L|185:31,1,51.7499984207154,6|2,1:2|1:2,0:0:0:0:
254,13,98535,2,0,L|318:21,1,51.7499984207154,14|2,0:0|1:2,0:0:0:0:
386,34,98868,2,0,B|392:80|392:80|386:92|386:92|396:155,1,103.499996841431,6|0,1:2|0:0,0:0:0:0:
459,185,99368,1,0,0:0:0:0:
459,185,99535,6,0,P|462:219|453:263,2,68.9999978942872,2|2|2,0:0|0:0|0:0,0:0:0:0:
392,135,100368,1,2,0:0:0:0:
313,153,100535,2,0,L|266:146,1,34.4999989471436,2|2,0:0|0:0,0:0:0:0:
212,97,100868,5,2,0:0:0:0:
58,62,105868,6,0,P|81:63|111:54,1,43.1250016450883,8|0,1:2|0:0,0:0:0:0:
169,13,106202,6,0,B|185:42|185:42|169:114,1,92,6|8,1:2|0:0,0:0:0:0:
97,152,106702,1,10,0:0:0:0:
111,238,106868,2,0,L|223:228,1,92,2|8,1:2|0:0,0:0:0:0:
270,181,107368,1,10,0:0:0:0:
343,215,107535,6,0,L|399:223,1,46,2|0,1:2|1:0,0:0:0:0:
470,234,107868,1,8,0:0:0:0:
470,234,108035,1,10,0:0:0:0:
504,315,108202,2,0,B|496:334|496:334|423:345,1,92,2|8,1:2|0:0,0:0:0:0:
342,308,108702,1,8,0:0:0:0:
265,347,108868,6,0,P|243:353|214:347,1,46,2|2,1:2|1:2,0:0:0:0:
156,295,109201,1,10,0:0:0:0:
156,295,109368,1,10,0:0:0:0:
76,326,109535,2,0,L|20:319,1,46,2|2,1:2|1:2,0:0:0:0:
57,239,109868,2,0,L|49:179,1,46,10|10,0:0|0:0,0:0:0:0:
39,110,110201,5,2,1:2:0:0:
39,110,110368,1,2,1:2:0:0:
103,51,110535,2,0,L|160:56,1,46,10|10,0:0|0:0,0:0:0:0:
224,91,110868,2,0,P|264:72|328:84,1,92,2|0,1:2|1:0,0:0:0:0:
376,121,111368,1,2,0:0:0:0:
376,121,111452,1,2,0:0:0:0:
376,121,111534,5,2,0:0:0:0:
307,370,112868,2,0,P|306:347|312:324,2,46,2|2|2,0:0|0:0|0:0,0:0:0:0:
267,258,113868,1,2,0:0:0:0:
126,297,114201,5,14,0:0:0:0:
126,297,114368,1,2,1:2:0:0:
43,327,114535,2,0,L|40:271,1,51.7499984207154,10|10,0:0|0:0,0:0:0:0:
10,194,114868,2,0,B|22:159|22:159|16:134|16:134|33:73,1,103.499996841431,10|0,0:0|1:0,0:0:0:0:
93,37,115368,1,10,0:0:0:0:
93,37,115534,6,0,P|141:62|200:45,1,103.499996841431,6|10,1:2|0:0,0:0:0:0:
271,12,116034,1,2,1:2:0:0:
344,45,116201,2,0,L|396:52,1,51.7499984207154,10|0,0:0|1:0,0:0:0:0:
480,68,116535,2,0,L|470:124,1,51.7499984207154,0|0,1:0|1:0,0:0:0:0:
430,191,116868,6,0,L|439:285,1,92,4|2,1:2|1:2,0:0:0:0:
386,351,117368,1,0,0:0:0:0:
386,351,117535,2,0,P|360:353|335:344,1,46,2|0,1:2|0:0,0:0:0:0:
270,307,117868,2,0,P|244:305|219:314,1,46,2|0,1:2|0:0,0:0:0:0:
154,353,118201,6,0,B|128:365|128:365|58:339,1,92,2|2,1:2|1:2,0:0:0:0:
31,277,118701,1,0,0:0:0:0:
31,277,118868,2,0,L|28:213,1,46,2|0,1:2|0:0,0:0:0:0:
62,154,119202,2,0,L|59:90,1,46,2|0,1:2|0:0,0:0:0:0:
21,24,119534,6,0,L|122:33,1,92,2|0,1:2|1:0,0:0:0:0:
177,81,120035,2,0,L|278:71,1,92,2|0,0:0|0:0,0:0:0:0:
337,23,120535,2,0,P|350:48|348:79,1,46,2|0,1:2|0:0,0:0:0:0:
316,145,120868,1,6,1:2:0:0:
256,192,120951,12,0,121868,0:0:0:0:
172,83,122202,6,0,L|175:35,2,28.75,8|0|0,0:0|1:0|1:0,0:0:0:0:
91,79,122535,2,0,L|94:31,2,28.75,8|0|0,0:0|1:0|1:0,0:0:0:0:
27,137,122868,5,8,0:0:0:0:
28,157,122951,1,8,0:0:0:0:
29,177,123034,1,8,0:0:0:0:
31,197,123117,1,8,0:0:0:0:
34,233,123201,5,12,0:0:0:0:
196,345,123535,6,0,B|248:350|248:350|264:342|264:342|329:347,1,115,6|10,1:2|0:0,0:0:0:0:
396,366,124035,1,2,1:2:0:0:
472,325,124202,2,0,L|477:259,1,57.5,2|0,1:3|0:0,0:0:0:0:
484,178,124535,1,10,0:0:0:0:
484,178,124702,1,2,1:2:0:0:
453,95,124869,6,0,P|425:81|374:81,1,57.5,2|2,1:2|1:2,0:0:0:0:
330,26,125202,2,0,P|306:45|286:92,1,57.5,10|2,0:0|1:2,0:0:0:0:
214,30,125535,2,0,P|205:85|237:140,1,115,2|10,1:2|0:0,0:0:0:0:
319,152,126035,1,2,1:2:0:0:
308,238,126202,6,0,B|259:247|259:247|241:242|241:242|181:252,1,115,2|10,1:2|0:0,0:0:0:0:
126,301,126702,1,2,1:2:0:0:
39,271,126869,2,0,L|30:208,1,57.5,2|0,1:3|0:0,0:0:0:0:
77,140,127202,1,10,0:0:0:0:
77,140,127369,1,2,1:2:0:0:
59,52,127535,6,0,P|90:51|117:58,1,57.5,2|2,1:2|1:2,0:0:0:0:
180,117,127869,1,10,0:0:0:0:
261,89,128035,1,2,1:2:0:0:
344,114,128202,2,0,B|389:120|389:120|417:110|417:110|459:119,1,115,2|8,1:2|0:0,0:0:0:0:
510,186,128702,1,8,0:0:0:0:
470,262,128869,6,0,L|456:344,1,57.5,6|0,1:2|0:0,0:0:0:0:
379,282,129202,2,0,L|327:324,1,57.5,10|0,0:0|1:0,0:0:0:0:
295,240,129535,2,0,L|237:247,1,57.5,2|0,1:3|0:0,0:0:0:0:
166,299,129869,2,0,L|108:306,1,57.5,10|0,0:0|0:0,0:0:0:0:
33,335,130202,6,0,P|26:301|39:262,1,57.5,2|0,1:2|0:0,0:0:0:0:
93,220,130535,2,0,P|100:186|87:147,1,57.5,10|0,0:0|1:0,0:0:0:0:
30,105,130869,2,0,P|82:75|140:86,1,115,2|8,1:2|0:0,0:0:0:0:
192,148,131369,1,0,1:0:0:0:
279,128,131535,6,0,L|267:198,1,57.5,2|0,1:2|0:0,0:0:0:0:
249,267,131869,1,10,0:0:0:0:
249,267,132035,1,2,1:2:0:0:
316,319,132202,2,0,L|398:308,1,57.5,2|2,1:3|1:2,0:0:0:0:
453,343,132535,2,0,L|460:284,1,57.5,10|2,0:0|1:2,0:0:0:0:
474,204,132869,6,0,B|482:166|482:166|474:133|474:133|490:77,1,115,6|8,1:2|0:0,0:0:0:0:
438,25,133369,1,0,0:0:0:0:
438,25,133535,2,0,P|412:12|360:20,1,57.5,6|0,1:2|1:0,0:0:0:0:
309,50,133868,2,0,P|283:63|231:55,1,57.5,14|0,0:0|1:0,0:0:0:0:
224,53,134119,1,0,1:0:0:0:
224,53,134202,6,0,B|183:61|183:61|161:56|161:56|91:68,1,115,6|10,1:2|0:0,0:0:0:0:
39,121,134702,1,2,1:2:0:0:
64,206,134869,2,0,L|51:266,1,57.5,2|0,1:3|0:0,0:0:0:0:
9,341,135202,1,10,0:0:0:0:
9,341,135369,1,2,1:2:0:0:
100,344,135535,6,0,L|182:335,1,57.5,2|2,1:2|1:2,0:0:0:0:
226,288,135869,2,0,L|296:296,1,57.5,10|2,0:0|1:2,0:0:0:0:
345,357,136202,2,0,P|369:307|348:241,1,115,2|10,1:2|0:0,0:0:0:0:
291,200,136702,1,2,1:2:0:0:
317,120,136869,6,0,B|366:129|366:129|384:125|384:125|444:134,1,115,2|10,1:2|0:0,0:0:0:0:
510,92,137369,1,2,1:2:0:0:
464,19,137535,2,0,L|390:8,1,57.5,2|0,1:3|0:0,0:0:0:0:
321,35,137869,1,10,0:0:0:0:
321,35,138036,1,2,1:2:0:0:
236,0,138202,6,0,L|179:8,1,57.5,2|2,1:2|1:2,0:0:0:0:
121,60,138536,1,10,0:0:0:0:
155,137,138702,1,2,1:2:0:0:
99,211,138869,2,0,B|82:288|82:288|101:318,1,115,2|8,1:2|0:0,0:0:0:0:
175,360,139369,1,8,0:0:0:0:
255,327,139536,6,0,L|323:341,1,57.5,6|0,1:2|0:0,0:0:0:0:
397,363,139869,2,0,L|394:306,1,57.5,10|0,0:0|1:0,0:0:0:0:
449,243,140202,2,0,L|453:179,1,57.5,2|0,1:3|0:0,0:0:0:0:
473,98,140536,2,0,L|415:105,1,57.5,10|0,0:0|0:0,0:0:0:0:
352,160,140869,6,0,P|316:158|286:139,1,57.5,2|0,1:2|0:0,0:0:0:0:
228,102,141202,2,0,P|192:104|162:123,1,57.5,10|0,0:0|1:0,0:0:0:0:
108,56,141535,2,0,P|89:89|111:174,1,115,2|8,1:2|0:0,0:0:0:0:
174,203,142036,1,0,0:0:0:0:
138,282,142202,6,0,L|205:290,1,57.5,2|0,1:2|0:0,0:0:0:0:
271,335,142536,1,10,0:0:0:0:
271,335,142702,1,2,1:2:0:0:
358,310,142869,2,0,P|370:286|367:244,1,57.5,2|2,1:3|1:2,0:0:0:0:
328,188,143202,2,0,P|323:159|328:131,1,57.5,10|2,0:0|1:2,0:0:0:0:
284,58,143536,6,0,P|338:46|387:75,1,115,2|8,1:2|0:0,0:0:0:0:
431,145,144036,1,0,0:0:0:0:
431,145,144202,2,0,L|438:201,1,57.5,2|2,1:2|1:2,0:0:0:0:
486,272,144535,2,0,L|478:328,1,57.5,10|2,0:0|1:2,0:0:0:0:
449,361,144786,1,0,1:0:0:0:
449,361,144869,6,0,L|356:369,1,92,4|2,1:2|0:0,0:0:0:0:
251,245,145535,6,0,L|342:252,1,92,4|2,1:2|0:0,0:0:0:0:
253,93,146202,6,0,L|207:95,1,46,14|2,0:0|1:2,0:0:0:0:
147,140,146535,2,0,L|91:137,1,46,10|2,0:0|1:2,0:0:0:0:
23,131,146869,1,14,0:0:0:0:
53,22,147202,2,0,P|78:11|108:13,1,46,14|2,0:0|1:2,0:0:0:0:
167,42,147535,6,0,L|266:52,1,97.7500018644333,2|8,1:2|0:0,0:0:0:0:
333,9,148035,2,0,P|345:47|323:105,1,97.7500018644333,2|0,1:2|1:0,0:0:0:0:
258,144,148535,2,0,P|250:168|254:202,1,48.8750009322167,10|0,0:0|0:0,0:0:0:0:
312,252,148868,6,0,B|359:248|359:248|365:241|365:241|422:236,1,97.7500018644333,2|8,1:2|0:0,0:0:0:0:
483,278,149368,1,0,0:0:0:0:
483,278,149535,2,0,L|476:335,1,48.8750009322167,0|0,1:0|1:0,0:0:0:0:
406,372,149868,1,10,0:0:0:0:
406,372,150035,1,2,0:0:0:0:
326,336,150202,6,0,B|272:326|287:360|212:343,1,97.7500018644333,2|8,1:2|0:0,0:0:0:0:
155,307,150702,2,0,P|136:278|160:212,1,97.7500018644333,2|0,1:2|1:0,0:0:0:0:
142,141,151202,2,0,L|194:151,1,48.8750009322167,10|0,0:0|0:0,0:0:0:0:
276,183,151535,6,0,L|270:78,1,97.7500018644333,2|8,1:2|0:0,0:0:0:0:
222,18,152035,1,0,0:0:0:0:
222,18,152202,2,0,L|161:20,1,48.8750009322167,0|0,1:0|1:0,0:0:0:0:
94,45,152535,1,10,0:0:0:0:
94,45,152702,1,0,0:0:0:0:
14,7,152868,6,0,L|6:117,2,97.7500018644333,6|8|0,1:2|0:0|1:0,0:0:0:0:
94,45,153702,1,0,1:0:0:0:
94,45,153868,2,0,L|156:39,1,48.8750009322167,10|0,0:0|0:0,0:0:0:0:
220,14,154202,6,0,B|232:44|232:44|219:122,1,97.7500018644333,6|8,1:2|0:0,0:0:0:0:
177,169,154702,2,0,P|212:185|269:167,1,97.7500018644333,2|0,1:2|1:0,0:0:0:0:
333,122,155202,2,0,P|361:120|387:136,1,48.8750009322167,10|0,0:0|1:0,0:0:0:0:
457,75,155535,6,0,L|466:190,1,97.7500018644333,6|8,1:2|0:0,0:0:0:0:
507,246,156035,1,0,1:0:0:0:
469,319,156202,2,0,L|405:329,1,48.8750009322167,4|0,1:2|1:0,0:0:0:0:
346,359,156535,2,0,L|280:369,1,48.8750009322167,8|0,0:0|1:0,0:0:0:0:
216,337,156868,6,0,P|194:301|207:239,1,97.7500018644333,4|8,1:2|3:2,0:0:0:0:
263,196,157368,1,8,0:0:0:0:
214,126,157535,2,0,L|183:122,2,24.4375004661083,0|0|10,1:0|1:0|3:2,0:0:0:0:
274,68,157868,1,8,3:2:0:0:
217,8,158035,6,0,L|111:17,1,97.7500018644333,6|0,1:2|1:0,0:0:0:0:
40,29,158535,2,0,P|27:56|27:94,1,48.8750009322167,10|0,0:0|0:0,0:0:0:0:
58,152,158868,2,0,P|91:127|156:138,1,97.7500018644333,2|10,1:2|0:0,0:0:0:0:
186,201,159368,2,0,L|175:259,1,48.8750009322167,2|0,1:2|0:0,0:0:0:0:
150,335,159702,6,0,B|198:331|198:331|203:325|203:325|260:318,1,97.7500018644333,2|0,1:2|0:0,0:0:0:0:
309,277,160202,2,0,L|365:283,1,48.8750009322167,2|0,1:2|1:0,0:0:0:0:
434,320,160535,1,10,0:0:0:0:
499,273,160702,6,0,B|511:241|511:241|486:163,1,97.7500018644333,2|0,1:2|1:0,0:0:0:0:
431,129,161202,2,0,L|437:67,1,48.8750009322167,10|0,0:0|0:0,0:0:0:0:
487,24,161535,2,0,P|459:6|398:13,1,97.7500018644333,2|10,1:2|0:0,0:0:0:0:
351,84,162035,6,0,L|287:90,1,48.8750009322167,2|0,1:2|0:0,0:0:0:0:
225,52,162368,1,2,1:2:0:0:
225,52,162535,2,0,L|176:47,1,48.8750009322167,10|0,0:0|0:0,0:0:0:0:
98,10,162868,1,0,1:0:0:0:
98,10,163035,1,0,1:0:0:0:
28,54,163202,2,0,L|34:100,2,24.4375004661083,10|8|10,0:0|0:0|0:0,0:0:0:0:
109,96,163535,6,0,L|98:221,1,103.499996841431,4|8,1:2|0:0,0:0:0:0:
45,269,164035,1,0,0:0:0:0:
81,346,164202,2,0,L|133:356,1,51.7499984207154,0|0,1:0|1:0,0:0:0:0:
207,321,164535,2,0,L|259:311,1,51.7499984207154,8|0,0:0|1:0,0:0:0:0:
312,254,164868,6,0,P|330:276|333:308,1,51.7499984207154,2|0,1:2|0:0,0:0:0:0:
308,372,165202,1,8,0:0:0:0:
390,378,165368,1,2,0:0:0:0:
390,378,165535,2,0,L|453:369,1,51.7499984207154,0|0,1:0|1:0,0:0:0:0:
496,303,165868,1,10,0:0:0:0:
463,224,166035,1,0,0:0:0:0:
463,224,166202,6,0,L|475:157,1,51.7499984207154,2|0,1:2|0:0,0:0:0:0:
405,116,166535,2,0,L|335:142,1,51.7499984207154,8|0,0:0|0:0,0:0:0:0:
283,180,166868,2,0,P|257:177|233:166,1,51.7499984207154,0|0,1:0|1:0,0:0:0:0:
170,119,167202,2,0,P|144:121|120:132,1,51.7499984207154,8|0,0:0|1:0,0:0:0:0:
61,207,167535,6,0,L|48:310,1,103.499996841431,2|8,1:2|0:0,0:0:0:0:
122,353,168035,1,0,0:0:0:0:
122,353,168202,2,0,B|170:362|170:362|179:359|179:359|228:369,1,103.499996841431,2|8,1:2|0:0,0:0:0:0:
299,317,168702,1,0,0:0:0:0:
250,240,168868,6,0,L|241:131,1,103.499996841431,6|10,1:2|0:0,0:0:0:0:
213,65,169368,1,0,0:0:0:0:
213,65,169535,2,0,P|237:57|272:63,1,51.7499984207154,2|0,1:2|1:0,0:0:0:0:
341,28,169868,2,0,P|365:36|400:30,1,51.7499984207154,10|2,0:0|1:2,0:0:0:0:
476,14,170202,6,0,B|489:43|489:43|472:118,1,103.499996841431,0|10,0:0|0:0,0:0:0:0:
412,168,170702,1,0,0:0:0:0:
412,168,170868,2,0,L|419:229,1,51.7499984207154,2|0,1:2|1:0,0:0:0:0:
471,284,171202,2,0,L|464:345,1,51.7499984207154,10|0,0:0|0:0,0:0:0:0:
385,307,171535,6,0,L|266:320,1,103.499996841431,2|8,1:2|0:0,0:0:0:0:
216,360,172035,2,0,L|150:356,1,51.7499984207154,2|0,0:0|1:0,0:0:0:0:
93,303,172368,1,0,1:0:0:0:
93,303,172535,2,0,P|81:269|87:240,1,51.7499984207154,10|0,0:0|0:0,0:0:0:0:
140,197,172868,6,0,P|90:204|38:175,1,103.499996841431,2|8,1:2|0:0,0:0:0:0:
13,105,173368,1,0,0:0:0:0:
13,105,173535,2,0,L|19:47,1,51.7499984207154,0|0,1:0|1:0,0:0:0:0:
95,14,173868,2,0,L|153:20,1,51.7499984207154,8|0,0:0|1:0,0:0:0:0:
214,68,174202,6,0,L|277:63,1,51.7499984207154,0|0,1:0|0:0,0:0:0:0:
336,20,174535,2,0,P|348:44|347:68,1,51.7499984207154,10|0,0:0|0:0,0:0:0:0:
304,137,174868,2,0,P|303:162|314:185,1,51.7499984207154,2|0,1:2|1:0,0:0:0:0:
391,234,175202,1,10,0:0:0:0:
479,216,175368,6,0,L|463:333,1,103.499996841431,2|2,1:2|1:2,0:0:0:0:
393,355,175868,2,0,L|327:362,1,51.7499984207154,10|0,0:0|0:0,0:0:0:0:
262,331,176202,1,0,1:0:0:0:
262,331,176368,1,0,1:0:0:0:
185,364,176535,2,0,L|119:357,1,51.7499984207154,10|0,0:0|0:0,0:0:0:0:
71,303,176868,6,0,P|54:257|73:197,1,103.499996841431,2|10,1:2|0:0,0:0:0:0:
120,143,177368,1,2,0:0:0:0:
120,143,177535,2,0,L|177:148,1,51.7499984207154,0|0,1:0|1:0,0:0:0:0:
239,197,177868,2,0,L|296:192,1,51.7499984207154,10|0,0:0|0:0,0:0:0:0:
370,220,178202,6,0,B|391:190|391:190|383:112,1,103.499996841431,2|8,1:2|0:0,0:0:0:0:
378,41,178702,1,0,0:0:0:0:
296,12,178868,2,0,L|234:29,1,51.7499984207154,2|0,1:2|1:0,0:0:0:0:
162,11,179202,1,10,0:0:0:0:
162,11,179368,1,2,1:2:0:0:
83,46,179535,6,0,L|77:109,1,51.7499984207154,6|0,1:2|0:0,0:0:0:0:
31,171,179868,2,0,L|25:234,1,51.7499984207154,10|0,0:0|0:0,0:0:0:0:
20,307,180202,2,0,B|75:317|64:280|128:293,1,103.499996841431,2|10,1:2|0:0,0:0:0:0:
182,346,180702,2,0,P|203:303|186:244,1,103.499996841431,2|0,1:2|0:0,0:0:0:0:
143,176,181202,6,0,B|189:168|189:168|203:171|203:171|246:165,1,103.499996841431,10|0,0:0|1:0,0:0:0:0:
326,152,181702,1,0,1:0:0:0:
326,152,181868,2,0,L|318:222,1,51.7499984207154,10|0,0:0|0:0,0:0:0:0:
309,283,182202,6,0,L|372:292,1,51.7499984207154,2|0,1:2|0:0,0:0:0:0:
426,343,182535,2,0,L|489:352,1,51.7499984207154,10|0,0:0|0:0,0:0:0:0:
464,265,182868,2,0,L|474:142,1,103.499996841431,2|10,1:2|0:0,0:0:0:0:
479,76,183368,2,0,P|451:47|373:55,1,103.499996841431,2|0,1:2|0:0,0:0:0:0:
317,79,183868,6,0,B|262:89|273:52|209:65,1,103.499996841431,10|0,0:0|1:0,0:0:0:0:
142,23,184368,1,0,1:0:0:0:
65,49,184535,2,0,L|57:106,1,51.7499984207154,10|0,0:0|0:0,0:0:0:0:
22,182,184868,6,0,B|65:188|65:188|76:183|76:183|132:192,1,103.499996841431,6|8,1:2|0:0,0:0:0:0:
188,241,185368,1,0,0:0:0:0:
188,241,185535,2,0,L|177:294,1,51.7499984207154,0|0,1:0|1:0,0:0:0:0:
244,348,185868,2,0,L|295:331,1,51.7499984207154,8|0,0:0|0:0,0:0:0:0:
372,315,186202,6,0,P|415:311|450:337,2,77.6249976310731,2|2|0,1:2|0:0|0:0,0:0:0:0:
293,331,186868,2,0,P|289:288|315:253,2,77.6249976310731,2|2|8,1:2|0:0|0:0,0:0:0:0:
208,357,187535,6,0,L|164:364,2,25.8749992103577,14|0|0,0:2|1:2|1:2,0:0:0:0:
175,286,187868,2,0,L|131:293,2,25.8749992103577,10|0|0,0:0|1:2|1:2,0:0:0:0:
110,206,188202,6,0,L|154:213,2,25.8749992103577,10|0|0,0:0|1:2|1:2,0:0:0:0:
107,114,188535,2,0,L|151:121,2,25.8749992103577,10|0|0,0:0|1:2|1:2,0:0:0:0:
191,41,188868,6,0,L|247:37,1,51.7499984207154,6|0,1:2|0:0,0:0:0:0:
315,75,189202,2,0,L|366:78,1,51.7499984207154,10|0,0:0|0:0,0:0:0:0:
443,36,189535,2,0,P|452:76|447:103,1,51.7499984207154,6|0,1:2|0:0,0:0:0:0:
406,156,189868,2,0,P|402:192|457:233,1,103.499996841431,14|6,0:0|1:2,0:0:0:0:
256,192,190368,12,0,192813,0:0:0:0:
225,331,204868,6,0,B|184:323|184:323|162:328|162:328|92:316,1,115,6|10,1:2|0:0,0:0:0:0:
42,266,205368,1,2,1:2:0:0:
65,178,205535,2,0,L|52:118,1,57.5,2|0,1:3|0:0,0:0:0:0:
10,43,205868,1,10,0:0:0:0:
10,43,206035,1,2,1:2:0:0:
95,14,206201,6,0,L|177:23,1,57.5,2|2,1:2|1:2,0:0:0:0:
222,72,206535,2,0,L|292:64,1,57.5,10|2,0:0|1:2,0:0:0:0:
341,3,206868,2,0,P|365:53|344:119,1,115,2|10,1:2|0:0,0:0:0:0:
294,178,207368,1,2,1:2:0:0:
333,257,207535,6,0,B|460:243,1,115,2|10,1:2|0:0,0:0:0:0:
512,293,208035,1,2,1:2:0:0:
459,361,208201,2,0,L|382:370,1,57.5,2|0,1:3|0:0,0:0:0:0:
322,349,208535,1,10,0:0:0:0:
322,349,208702,1,2,1:2:0:0:
239,382,208868,6,0,L|182:374,1,57.5,2|2,1:2|1:2,0:0:0:0:
122,324,209202,1,10,0:0:0:0:
156,247,209368,1,2,1:2:0:0:
100,173,209535,2,0,P|80:125|102:66,1,115,2|8,1:2|0:0,0:0:0:0:
172,25,210035,1,8,0:0:0:0:
250,56,210202,6,0,L|321:49,1,57.5,6|0,1:2|0:0,0:0:0:0:
383,72,210535,2,0,L|454:65,1,57.5,10|0,0:0|0:0,0:0:0:0:
427,149,210868,2,0,L|436:216,1,57.5,2|0,1:3|0:0,0:0:0:0:
491,270,211202,2,0,L|500:337,1,57.5,10|0,0:0|0:0,0:0:0:0:
413,318,211535,6,0,L|333:330,1,57.5,2|0,1:2|0:0,0:0:0:0:
276,298,211868,2,0,L|196:310,1,57.5,10|0,0:0|1:0,0:0:0:0:
157,366,212201,2,0,P|138:333|160:248,1,115,2|8,1:2|0:0,0:0:0:0:
213,210,212702,1,0,0:0:0:0:
172,134,212868,6,0,L|115:127,1,57.5,6|0,1:2|0:0,0:0:0:0:
58,60,213202,1,10,0:0:0:0:
58,60,213368,1,2,1:2:0:0:
124,7,213535,2,0,L|181:14,1,57.5,2|2,1:3|1:2,0:0:0:0:
249,56,213868,2,0,L|306:63,1,57.5,10|2,0:0|1:2,0:0:0:0:
369,10,214202,6,0,P|386:49|378:84,1,57.5,6|0,1:2|1:0,0:0:0:0:
345,135,214535,1,8,0:0:0:0:
386,208,214702,1,0,0:0:0:0:
335,278,214868,2,0,L|327:335,1,57.5,6|2,1:2|1:2,0:0:0:0:
239,303,215201,2,0,L|185:321,1,57.5,14|2,0:0|1:2,0:0:0:0:
150,339,215452,1,0,1:0:0:0:
150,339,215535,6,0,L|57:331,1,92,4|2,1:2|0:0,0:0:0:0:
24,172,216202,2,0,L|116:165,1,92,4|2,1:2|0:0,0:0:0:0:
255,26,216868,6,0,L|308:31,1,46,14|2,0:0|1:2,0:0:0:0:
369,75,217202,2,0,L|422:80,1,46,10|2,0:0|1:2,0:0:0:0:
489,47,217535,1,14,0:0:0:0:
504,202,217868,2,0,P|491:224|484:248,1,46,8|2,0:0|1:2,0:0:0:0:
488,321,218202,6,0,P|460:289|400:283,1,92,4|2,1:2|0:0,0:0:0:0:
258,153,218868,6,0,P|217:165|187:217,1,92,4|2,1:2|0:0,0:0:0:0:
38,348,219535,6,0,L|32:295,1,46,10|0,0:0|1:2,0:0:0:0:
47,219,219868,2,0,L|41:166,1,46,10|10,0:0|0:0,0:0:0:0:
67,86,220202,1,10,0:0:0:0:
209,8,220535,2,0,P|240:11|264:26,1,46,14|2,0:0|1:2,0:0:0:0:
336,26,220868,6,0,B|345:72|345:72|339:81|339:81|350:140,1,103.499996841431,14|10,0:0|0:0,0:0:0:0:
405,194,221368,1,2,1:2:0:0:
371,272,221535,2,0,L|306:284,1,51.7499984207154,10|0,0:0|1:0,0:0:0:0:
258,333,221868,2,0,L|182:327,1,51.7499984207154,10|0,0:0|1:0,0:0:0:0:
130,359,222202,6,0,P|122:329|136:292,1,51.7499984207154,10|2,0:0|1:2,0:0:0:0:
178,245,222535,1,10,0:0:0:0:
178,245,222702,1,2,1:2:0:0:
134,170,222868,2,0,L|83:160,1,51.7499984207154,10|0,0:0|1:0,0:0:0:0:
22,102,223202,2,0,L|42:40,1,51.7499984207154,10|2,0:0|1:2,0:0:0:0:
113,20,223535,6,0,P|169:16|212:46,1,103.499996841431,14|10,0:0|0:0,0:0:0:0:
265,106,224034,1,2,1:2:0:0:
354,90,224202,2,0,B|399:98|399:98|416:90|416:90|454:98,1,103.499996841431,10|10,0:0|0:0,0:0:0:0:
511,168,224702,1,2,1:2:0:0:
468,242,224868,6,0,L|476:304,1,51.7499984207154,10|2,0:0|1:2,0:0:0:0:
388,283,225202,2,0,L|364:343,1,51.7499984207154,10|2,0:0|1:2,0:0:0:0:
299,279,225535,2,0,L|223:282,1,51.7499984207154,10|0,0:0|1:0,0:0:0:0:
170,322,225868,1,14,0:0:0:0:
170,322,226034,1,2,1:2:0:0:
92,278,226202,6,0,P|80:228|100:181,1,103.499996841431,14|10,0:0|0:0,0:0:0:0:
179,133,226701,1,2,1:2:0:0:
254,168,226868,2,0,L|311:164,1,51.7499984207154,10|0,0:0|1:0,0:0:0:0:
373,117,227202,2,0,L|424:123,1,51.7499984207154,10|2,0:0|1:2,0:0:0:0:
500,152,227535,6,0,P|504:128|500:101,1,51.7499984207154,10|2,0:0|1:2,0:0:0:0:
441,41,227867,1,10,0:0:0:0:
441,41,228034,1,2,1:2:0:0:
358,17,228202,2,0,L|306:23,1,51.7499984207154,14|0,0:0|1:0,0:0:0:0:
253,77,228535,2,0,L|184:75,1,51.7499984207154,10|2,0:0|1:2,0:0:0:0:
139,15,228868,6,0,P|117:60|129:118,1,103.499996841431,14|2,0:0|1:2,0:0:0:0:
191,165,229368,1,10,0:0:0:0:
156,241,229535,2,0,B|110:247|110:247|98:241|98:241|46:246,1,103.499996841431,14|14,0:0|0:0,0:0:0:0:
198,363,230202,6,0,L|266:369,1,51.7499984207154,14|2,0:0|1:2,0:0:0:0:
326,329,230535,2,0,L|394:335,1,51.7499984207154,14|2,0:0|1:2,0:0:0:0:
457,296,230868,6,0,B|495:193|435:226|474:120,1,172.500006580353,14|0,0:0|0:0,0:0:0:0:
