osu file format v14

[General]
AudioFilename: audio.mp3
AudioLeadIn: 0
PreviewTime: 192785
Countdown: 0
SampleSet: Soft
StackLeniency: 0.4
Mode: 0
LetterboxInBreaks: 0
WidescreenStoryboard: 1

[Editor]
DistanceSpacing: 0.5
BeatDivisor: 4
GridSize: 8
TimelineZoom: 1.9

[Metadata]
Title:Hanagoyomi
TitleUnicode:華暦
Artist:Ayumi.
ArtistUnicode:Ayumi.
Creator:Mimari
Version:Alex's Expert.
Source:花の野に咲くうたかたの
Tags:eroge galgame video game vn visual novel opening op full japanese female vocal Hana no No ni Saku Utakata no applique soft never_log_off alexsander kuse kubsnia_zhoyl_
BeatmapID:2422207
BeatmapSetID:1155366

[Difficulty]
HPDrainRate:6.2
CircleSize:4
OverallDifficulty:8.6
ApproachRate:9.2
SliderMultiplier:1.8
SliderTickRate:1

[Events]
//Background and Video events
0,0,"alex.jpg",0,0
//Break Periods
2,193979,203632
//Storyboard Layer 0 (Background)
//Storyboard Layer 1 (Fail)
//Storyboard Layer 2 (Pass)
//Storyboard Layer 3 (Foreground)
//Storyboard Layer 4 (Overlay)
//Storyboard Sound Samples

[TimingPoints]
1036,500,4,2,66,55,1,0
1536,500,4,2,67,55,1,0
1536,-166.666666666667,4,2,67,55,0,0
1661,-166.666666666667,4,2,67,55,0,0
3035,-166.666666666667,4,2,66,55,0,0
3036,-166.666666666667,4,2,66,55,0,0
3536,-166.666666666667,4,2,67,55,0,0
3661,-166.666666666667,4,2,67,55,0,0
5035,-166.666666666667,4,2,66,55,0,0
5036,-166.666666666667,4,2,66,55,0,0
5536,-166.666666666667,4,2,67,55,0,0
6535,-166.666666666667,4,2,66,55,0,0
6536,-166.666666666667,4,2,66,55,0,0
9536,-166.666666666667,4,2,67,55,0,0
10535,-166.666666666667,4,2,66,55,0,0
10536,-166.666666666667,4,2,66,55,0,0
11536,-166.666666666667,4,2,67,55,0,0
12035,-166.666666666667,4,2,66,55,0,0
12036,-166.666666666667,4,2,66,55,0,0
13536,-166.666666666667,4,2,67,55,0,0
13785,-166.666666666667,4,2,67,55,0,0
13786,-166.666666666667,4,2,66,55,0,0
16798,-100,4,2,66,55,0,0
16869,333.333333333333,4,2,66,85,1,0
16869,-100,4,2,66,85,0,0
25868,-100,4,2,66,85,0,0
26868,-125,4,2,66,85,0,0
26881,-125,4,2,66,85,0,0
26952,-125,4,2,66,75,0,0
27464,-125,4,2,66,75,0,0
27535,-100,4,2,66,70,0,0
27797,-100,4,2,66,70,0,0
27868,-125,4,2,66,65,0,0
28131,-125,4,2,66,65,0,0
28202,-166.666666666667,4,2,66,60,0,0
28464,-166.666666666667,4,2,66,60,0,0
28535,-250,4,2,66,55,0,0
28631,-250,4,2,66,55,0,0
28702,-250,4,2,66,50,0,0
28797,-250,4,2,66,50,0,0
28868,-142.857142857143,4,2,66,55,0,0
37868,-142.857142857143,4,2,66,55,0,0
38868,-125,4,2,66,55,0,0
39535,-100,4,2,66,55,0,0
40702,-100,4,2,66,55,0,0
42131,-100,4,2,66,55,0,0
42202,-100,4,2,66,70,0,0
52868,-100,4,2,67,70,0,0
53202,-166.666666666667,4,2,67,70,0,0
54131,-166.666666666667,4,2,67,70,0,0
54202,-100,4,2,66,45,0,0
55131,-100,4,2,66,45,0,0
55202,-100,4,2,66,75,0,0
56202,-100,4,2,66,75,0,0
58202,-125,4,2,66,75,0,0
64131,-125,4,2,66,75,0,0
64202,-142.857142857143,4,2,67,55,0,0
64451,-142.857142857143,4,2,66,55,0,0
64535,-100,4,2,66,55,0,0
64797,-100,4,2,66,55,0,0
64868,-83.3333333333333,4,2,66,92,0,1
86131,-83.3333333333333,4,2,66,92,0,1
86202,-125,4,2,66,75,0,0
87464,-125,4,2,66,75,0,0
87535,-100,4,2,66,85,0,0
88868,-100,4,2,66,85,0,0
97797,-100,4,2,66,85,0,0
97868,-100,4,2,66,70,0,0
98131,-100,4,2,66,70,0,0
98202,-100,4,2,66,85,0,0
98797,-100,4,2,66,85,0,0
98868,-125,4,2,66,70,0,0
99797,-125,4,2,66,70,0,0
99868,-125,4,2,66,65,0,0
100131,-125,4,2,66,65,0,0
100202,-125,4,2,66,60,0,0
100464,-125,4,2,66,60,0,0
100535,-125,4,2,66,55,0,0
100631,-125,4,2,66,55,0,0
100702,-125,4,2,66,50,0,0
100797,-125,4,2,66,50,0,0
100868,-142.857142857143,4,2,66,55,0,0
105797,-142.857142857143,4,2,66,65,0,0
105868,-83.3333333333333,4,2,66,75,0,0
106202,-100,4,2,66,75,0,0
111534,-100,4,2,67,75,0,0
111535,-100,4,2,67,75,0,0
111868,-166.666666666667,4,2,66,55,0,0
112797,-166.666666666667,4,2,67,55,0,0
112868,-100,4,2,66,55,0,0
114131,-100,4,2,66,55,0,0
114202,-100,4,2,66,75,0,0
116868,-125,4,2,66,75,0,0
122202,-100,4,2,66,75,0,0
123202,-100,4,2,66,75,0,0
123464,-100,4,2,66,75,0,0
123535,-83.3333333333333,4,2,66,92,0,1
144797,-83.3333333333333,4,2,66,92,0,1
144868,-125,4,2,66,85,0,0
146202,-100,4,2,66,85,0,0
147535,-100,4,2,66,85,0,0
158035,-100,4,2,66,85,0,0
163535,-100,4,2,66,85,0,0
167535,-100,4,2,66,85,0,0
194202,-100,4,2,67,85,0,0
194297,-100,4,2,67,85,0,0
194368,-100,4,2,66,55,0,0
199535,-100,4,2,67,55,0,0
199868,-100,4,2,66,55,0,0
204131,-100,4,2,66,55,0,0
204202,-142.857142857143,4,2,67,65,0,0
204451,-142.857142857143,4,2,66,65,0,0
204464,-142.857142857143,4,2,66,65,0,0
204535,-100,4,2,66,75,0,0
204797,-100,4,2,66,75,0,0
204868,-83.3333333333333,4,2,66,92,0,1
215464,-83.3333333333333,4,2,66,92,0,1
215535,-125,4,2,66,85,0,0
216868,-100,4,2,66,85,0,0
218202,-125,4,2,66,85,0,0
218868,-100,4,2,66,85,0,0
219464,-100,4,2,66,85,0,0
219535,-100,4,2,66,95,0,0
220464,-100,4,2,66,95,0,0
220535,-100,4,2,66,85,0,0
220868,-100,4,2,66,85,0,0
229868,-100,4,2,66,85,0,0
230868,-125,4,2,66,85,0,0
231464,-125,4,2,66,85,0,0
231535,-100,4,2,66,5,0,0

[Colours]
Combo1 : 251,252,194
Combo2 : 125,125,255
Combo3 : 145,72,72
Combo4 : 210,252,209

[HitObjects]
151,174,1036,5,2,0:0:0:0:
212,232,1286,1,2,0:0:0:0:
104,234,1536,2,0,P|75:189|92:127,1,107.999996704102,2|0,0:0|0:0,0:0:0:0:
126,75,2286,1,0,0:0:0:0:
114,55,2536,1,0,0:0:0:0:
114,55,3036,5,2,0:0:0:0:
193,47,3286,1,2,0:0:0:0:
253,106,3536,2,0,L|237:216,1,107.999996704102,2|0,0:0|0:0,0:0:0:0:
243,290,4286,1,0,0:0:0:0:
250,311,4536,1,0,0:0:0:0:
250,311,5036,5,2,0:0:0:0:
316,266,5286,1,2,0:0:0:0:
484,324,5536,2,0,P|436:345|385:331,1,107.999996704102,2|0,0:0|0:0,0:0:0:0:
385,154,6536,2,0,P|433:133|485:148,1,107.999996704102,2|0,0:0|0:0,0:0:0:0:
301,238,7536,6,0,L|245:228,1,53.9999983520508,2|0,0:0|0:0,0:0:0:0:
184,276,8036,2,0,L|119:284,1,53.9999983520508,0|0,0:0|0:0,0:0:0:0:
66,347,8536,1,0,0:0:0:0:
66,347,9036,5,2,0:0:0:0:
12,295,9286,1,0,0:0:0:0:
73,226,9536,2,0,B|88:193|88:193|75:107,1,107.999996704102,2|0,0:0|0:0,0:0:0:0:
245,148,10536,2,0,L|365:141,1,107.999996704102,2|0,0:0|0:0,0:0:0:0:
227,334,11536,5,2,0:0:0:0:
385,299,12036,1,2,0:0:0:0:
352,141,12536,1,2,0:0:0:0:
193,174,13036,1,2,0:0:0:0:
381,224,13536,6,0,L|441:210,1,53.9999983520508,2|0,0:0|0:0,0:0:0:0:
367,309,14036,2,0,L|311:287,1,53.9999983520508,2|0,0:0|0:0,0:0:0:0:
231,309,14536,2,0,P|200:317|174:318,1,53.9999983520508,2|0,0:0|0:0,0:0:0:0:
84,224,15036,6,0,B|162:196|208:263|208:263|301:311|379:217,1,323.999990112305,2|0,0:0|0:0,0:0:0:0:
371,227,16869,6,0,P|342:195|342:129,1,90,14|0,0:0|1:0,0:0:0:0:
475,64,17202,2,0,L|434:172,1,90,10|0,0:0|1:0,0:0:0:0:
263,97,17535,2,0,P|295:67|361:67,1,90,10|0,0:0|1:0,0:0:0:0:
240,220,17869,1,10,0:0:0:0:
165,97,18035,1,2,1:2:0:0:
132,294,18202,5,10,0:0:0:0:
251,134,18369,1,2,1:2:0:0:
251,134,18452,1,2,0:0:0:0:
251,134,18535,1,10,0:0:0:0:
73,79,18702,1,2,1:2:0:0:
240,220,18868,2,0,L|336:211,1,90,10|0,0:0|1:0,0:0:0:0:
444,345,19202,1,10,0:0:0:0:
296,298,19368,1,2,1:2:0:0:
401,112,19535,6,0,L|428:261,1,135,14|0,0:0|0:0,0:0:0:0:
404,270,19868,1,10,0:0:0:0:
319,132,20035,1,2,1:2:0:0:
169,250,20202,2,0,P|127:257|78:236,1,90,10|0,0:0|1:0,0:0:0:0:
226,142,20535,2,0,P|184:135|135:156,1,90,10|0,0:0|1:0,0:0:0:0:
319,224,20868,5,10,0:0:0:0:
175,343,21035,1,2,1:2:0:0:
175,343,21118,1,2,0:0:0:0:
175,343,21202,1,10,0:0:0:0:
226,142,21368,1,2,1:2:0:0:
391,300,21535,2,0,L|272:300,1,90,10|0,0:0|1:0,0:0:0:0:
482,225,21868,1,14,0:0:0:0:
430,378,22035,1,2,1:2:0:0:
347,181,22202,6,0,P|350:136|386:99,1,90,14|2,0:0|1:2,0:0:0:0:
410,31,22452,1,2,0:0:0:0:
410,31,22535,2,0,L|303:17,1,90,10|2,0:0|1:2,0:0:0:0:
142,123,22868,2,0,B|184:102|184:102|249:109,1,90,10|2,0:0|1:2,0:0:0:0:
262,176,23118,1,2,0:0:0:0:
262,176,23202,1,10,0:0:0:0:
117,250,23368,1,2,1:2:0:0:
292,360,23535,6,0,B|307:315|307:315|297:273,1,90,10|2,0:0|1:2,0:0:0:0:
223,313,23785,1,2,0:0:0:0:
223,313,23868,1,10,0:0:0:0:
348,191,24035,1,2,1:2:0:0:
142,123,24202,2,0,L|132:212,1,90,14|0,0:0|1:0,0:0:0:0:
228,55,24535,1,10,0:0:0:0:
79,68,24702,1,2,1:2:0:0:
271,142,24868,5,14,0:0:0:0:
271,142,25202,1,2,1:2:0:0:
352,73,25368,1,10,0:0:0:0:
461,212,25535,1,14,0:0:0:0:
461,212,25868,6,0,B|469:261|469:261|432:355,1,135,14|0,0:0|0:0,0:0:0:0:
412,360,26202,1,14,0:0:0:0:
300,276,26368,1,2,1:2:0:0:
330,267,26452,1,2,0:0:0:0:
360,259,26535,1,14,0:0:0:0:
291,370,26702,1,2,1:2:0:0:
255,200,26868,6,0,B|215:197|191:226|191:226|108:164|25:232,1,252,6|0,1:2|0:0,0:0:0:0:
11,260,27535,6,0,L|46:351,1,90,2|2,0:0|0:0,0:0:0:0:
87,200,27868,6,0,L|120:287,1,72,2|2,0:0|0:0,0:0:0:0:
162,149,28202,6,0,L|190:222,1,53.9999983520508,2|2,0:0|0:0,0:0:0:0:
238,109,28535,6,0,L|254:151,1,36,2|2,0:0|0:0,0:0:0:0:
337,196,28868,6,0,B|369:175|369:175|458:190,1,125.999996154785,2|0,0:0|0:0,0:0:0:0:
486,116,29368,1,0,0:0:0:0:
486,116,29535,2,0,B|349:97|349:97|293:131,1,188.999994232178,2|2,0:0|0:0,0:0:0:0:
234,185,30202,6,0,L|211:115,1,62.9999980773926,2|2,0:0|0:0,0:0:0:0:
325,63,30535,2,0,L|302:133,1,62.9999980773926,0|2,0:0|0:0,0:0:0:0:
245,33,30868,2,0,B|201:32|201:32|166:45|166:45|105:42,1,125.999996154785,2|0,0:0|0:0,0:0:0:0:
121,42,31535,6,0,P|161:79|160:147,1,125.999996154785,2|0,0:0|0:0,0:0:0:0:
92,185,32035,1,0,0:0:0:0:
92,185,32202,2,0,P|137:161|229:243,1,188.999994232178,2|2,0:0|0:0,0:0:0:0:
170,336,32868,5,2,0:0:0:0:
157,316,33035,1,2,0:0:0:0:
71,294,33202,1,2,0:0:0:0:
84,274,33368,1,2,0:0:0:0:
8,213,33535,2,0,P|53:172|123:171,1,125.999996154785,2|0,0:0|0:0,0:0:0:0:
115,168,34202,6,0,L|145:40,1,125.999996154785,2|0,0:0|0:0,0:0:0:0:
215,90,34702,1,0,0:0:0:0:
215,90,34868,2,0,B|267:111|267:111|403:70,1,188.999994232178,2|2,0:0|0:0,0:0:0:0:
461,128,35535,6,0,L|443:192,1,62.9999980773926,2|2,0:0|0:0,0:0:0:0:
371,250,35868,1,2,0:0:0:0:
384,270,36035,1,2,0:0:0:0:
279,236,36202,2,0,L|135:221,1,125.999996154785,2|0,0:0|0:0,0:0:0:0:
153,222,36868,6,0,P|185:280|160:338,1,125.999996154785,2|0,0:0|0:0,0:0:0:0:
98,284,37368,1,2,0:0:0:0:
72,193,37535,2,0,P|90:164|135:142,1,62.9999980773926,2|0,0:0|0:0,0:0:0:0:
198,119,37868,2,0,L|215:40,1,62.9999980773926,2|0,0:0|0:0,0:0:0:0:
268,186,38202,5,2,0:0:0:0:
334,121,38368,2,0,L|290:112,1,31.4999990386963,2|2,0:0|0:0,0:0:0:0:
357,197,38535,1,2,0:0:0:0:
429,165,38702,1,2,0:0:0:0:
384,279,38868,6,0,P|338:280|307:269,1,72,2|0,0:0|0:0,0:0:0:0:
225,259,39202,2,0,P|179:258|148:269,1,72,2|0,0:0|0:0,0:0:0:0:
60,373,39535,5,2,0:0:0:0:
128,350,39702,1,2,0:0:0:0:
199,357,39868,1,2,0:0:0:0:
266,382,40035,1,2,0:0:0:0:
335,361,40202,1,2,0:0:0:0:
335,361,40535,5,2,0:0:0:0:
277,296,40702,1,2,0:0:0:0:
277,296,40785,1,2,0:0:0:0:
277,296,40868,1,2,0:0:0:0:
351,245,41035,1,2,0:0:0:0:
269,205,41202,1,2,0:0:0:0:
337,147,41368,1,2,0:0:0:0:
234,125,41535,6,0,P|212:93|207:60,1,60,2|2,0:0|0:0,0:0:0:0:
292,4,41757,1,0,0:0:0:0:
313,14,41868,2,0,P|296:49|270:69,1,60,2|2,0:0|0:0,0:0:0:0:
155,0,42091,1,0,0:0:0:0:
142,11,42202,6,0,L|123:158,1,135,6|0,1:2|0:0,0:0:0:0:
92,165,42535,2,0,L|111:257,1,90,8|2,0:0|0:0,0:0:0:0:
0,376,42868,2,0,B|41:355|41:355|97:367,1,90,2|0,1:2|1:0,0:0:0:0:
184,217,43202,1,8,0:0:0:0:
30,234,43368,1,2,1:2:0:0:
233,280,43535,6,0,P|260:240|258:190,1,90,2|2,1:2|0:0,0:0:0:0:
135,58,43868,1,10,0:0:0:0:
184,217,44035,1,2,0:0:0:0:
348,138,44202,2,0,L|298:130,1,45,2|0,1:2|0:0,0:0:0:0:
233,44,44368,2,0,L|283:36,1,45,0|0,1:0|0:0,0:0:0:0:
350,209,44535,2,0,L|248:198,1,90,8|0,0:0|0:0,0:0:0:0:
60,143,44868,6,0,P|125:95|220:130,1,180,2|8,1:2|0:0,0:0:0:0:
196,275,45368,1,2,0:0:0:0:
304,131,45535,2,0,P|300:84|256:47,1,90,2|0,1:2|1:0,0:0:0:0:
143,183,45868,2,0,P|147:230|191:267,1,90,8|2,0:0|1:2,0:0:0:0:
359,264,46202,5,2,1:2:0:0:
220,194,46368,1,2,1:2:0:0:
183,384,46535,1,10,0:0:0:0:
278,260,46702,1,2,0:0:0:0:
143,183,46868,2,0,L|87:193,1,45,2|0,1:2|0:0,0:0:0:0:
11,113,47035,2,0,L|24:172,1,45,0|0,1:0|1:0,0:0:0:0:
89,274,47202,2,0,B|134:278|134:278|182:256,1,90,8|0,0:0|0:0,0:0:0:0:
210,83,47535,6,0,L|237:171,1,90,6|0,1:2|0:0,0:0:0:0:
249,190,47785,1,0,1:0:0:0:
249,190,47868,1,8,0:0:0:0:
373,132,48035,1,2,0:0:0:0:
249,18,48202,2,0,P|203:9|156:29,1,90,2|0,1:2|1:0,0:0:0:0:
101,177,48535,2,0,P|131:141|137:90,1,90,8|2,0:0|1:2,0:0:0:0:
0,204,48868,5,2,1:2:0:0:
123,261,49035,1,2,0:0:0:0:
37,102,49202,1,10,0:0:0:0:
49,268,49368,1,2,0:0:0:0:
217,147,49535,2,0,P|263:137|307:156,1,90,2|0,1:2|1:0,0:0:0:0:
410,273,49868,2,0,L|423:178,1,90,8|0,0:0|0:0,0:0:0:0:
326,47,50202,6,0,L|372:31,1,45,6|2,1:2|0:0,0:0:0:0:
455,80,50368,1,2,0:0:0:0:
301,151,50535,2,0,L|347:167,1,45,10|2,0:0|0:0,0:0:0:0:
448,173,50702,1,2,0:0:0:0:
302,257,50868,1,2,1:2:0:0:
378,340,51035,1,0,1:0:0:0:
343,165,51202,1,10,0:0:0:0:
280,268,51368,1,2,0:0:0:0:
164,153,51535,6,0,P|162:98|186:63,1,90,6|2,1:2|0:0,0:0:0:0:
210,232,51868,1,10,0:0:0:0:
91,237,52035,1,2,0:0:0:0:
239,121,52202,2,0,P|296:112|362:160,1,135,2|0,1:2|0:0,0:0:0:0:
387,184,52535,2,0,L|433:85,1,90,8|2,0:0|0:0,0:0:0:0:
387,34,52868,1,2,0:0:0:0:
387,34,53202,6,0,B|320:47|320:47|273:22,2,107.999996704102,0|0|0,0:0|0:0|0:0,0:0:0:0:
258,224,54202,5,2,0:0:0:0:
153,131,54535,1,2,0:0:0:0:
0,282,54868,1,2,0:0:0:0:
105,189,55202,1,2,0:0:0:0:
105,189,55535,5,14,0:0:0:0:
195,307,55702,1,2,1:2:0:0:
195,307,55785,1,0,1:0:0:0:
195,307,55868,2,0,L|251:286,1,45,10|0,0:0|0:0,0:0:0:0:
266,140,56035,2,0,L|296:191,1,45,2|0,1:2|0:0,0:0:0:0:
117,216,56202,2,0,L|173:195,1,45,10|0,0:0|0:0,0:0:0:0:
188,49,56368,2,0,L|218:100,1,45,0|0,0:0|0:0,0:0:0:0:
366,197,56535,5,0,1:0:0:0:
400,202,56618,1,0,1:0:0:0:
435,193,56702,1,10,0:0:0:0:
465,173,56785,1,8,0:0:0:0:
484,143,56868,5,6,1:2:0:0:
392,286,57035,1,2,1:2:0:0:
283,129,57202,1,10,0:0:0:0:
244,347,57368,1,2,1:2:0:0:
117,142,57535,2,0,L|154:171,1,45,10|0,0:0|0:0,0:0:0:0:
303,205,57702,2,0,L|266:234,1,45,0|0,1:0|0:0,0:0:0:0:
47,193,57868,5,0,1:0:0:0:
33,150,57952,1,0,1:0:0:0:
40,106,58035,1,0,1:0:0:0:
68,71,58118,1,0,1:0:0:0:
108,53,58202,6,0,L|226:79,1,108,4|0,1:2|0:0,0:0:0:0:
233,82,58535,2,0,L|203:163,1,72,2|0,1:2|0:0,0:0:0:0:
287,318,58868,2,0,P|323:283|400:281,1,108,2|0,1:2|1:0,0:0:0:0:
403,281,59202,1,2,1:2:0:0:
358,172,59368,1,0,0:0:0:0:
222,257,59535,6,0,P|173:228|160:161,1,108,2|0,1:2|1:0,0:0:0:0:
170,149,59868,2,0,P|221:168|252:169,1,72,2|0,1:2|0:0,0:0:0:0:
409,43,60202,2,0,L|448:154,1,108,2|0,1:2|1:0,0:0:0:0:
435,179,60535,1,2,1:2:0:0:
313,119,60702,1,0,0:0:0:0:
222,257,60868,6,0,P|168:249|108:285,1,108,2|0,1:2|1:0,0:0:0:0:
90,291,61202,2,0,L|63:209,1,72,0|2,1:0|0:0,0:0:0:0:
212,63,61535,2,0,P|154:87|99:65,1,108,0|0,1:0|1:0,0:0:0:0:
75,59,61868,1,2,1:2:0:0:
151,165,62035,1,0,0:0:0:0:
0,95,62202,1,6,1:2:0:0:
256,192,62285,12,0,63702,0:0:0:0:
39,201,64202,6,0,L|71:291,1,94.499997116089,2|0,0:0|0:0,0:0:0:0:
129,342,64535,2,0,L|155:296,3,45,0|0|0|0,0:0|0:0|0:0|0:0,0:0:0:0:
273,219,64868,6,0,P|319:201|388:239,1,107.999996704102,6|0,1:2|0:0,0:0:0:0:
433,279,65118,1,2,1:2:0:0:
433,279,65202,2,0,L|457:157,1,107.999996704102,10|2,0:0|0:0,0:0:0:0:
315,27,65535,2,0,P|267:62|161:57,1,161.999995056153,2|0,1:3|0:0,0:0:0:0:
137,39,65868,1,10,0:0:0:0:
237,151,66035,1,2,1:2:0:0:
37,286,66202,5,2,1:2:0:0:
154,139,66368,1,2,0:0:0:0:
234,349,66535,1,10,0:0:0:0:
81,192,66702,1,2,1:2:0:0:
316,312,66868,2,0,P|369:309|414:269,1,107.999996704102,2|0,1:2|0:0,0:0:0:0:
237,181,67202,1,10,0:0:0:0:
130,321,67368,1,2,1:2:0:0:
338,201,67535,6,0,L|316:79,1,107.999996704102,2|0,1:2|0:0,0:0:0:0:
467,215,67868,1,10,0:0:0:0:
352,314,68035,1,2,0:0:0:0:
408,136,68202,2,0,P|459:112|517:129,1,107.999996704102,2|0,1:3|0:0,0:0:0:0:
334,231,68535,1,10,0:0:0:0:
238,94,68702,1,2,1:2:0:0:
102,281,68868,5,2,1:2:0:0:
266,179,69035,1,2,0:0:0:0:
17,128,69202,1,10,0:0:0:0:
189,286,69368,1,2,1:2:0:0:
157,42,69535,2,0,B|123:87|123:87|125:152,1,107.999996704102,2|0,1:2|0:0,0:0:0:0:
185,189,69785,1,0,0:0:0:0:
185,189,69868,2,0,L|256:174,1,53.9999983520508,8|0,0:0|0:0,0:0:0:0:
154,292,70035,2,0,L|101:280,1,53.9999983520508,8|8,0:0|0:0,0:0:0:0:
255,103,70202,6,0,P|300:128|314:192,1,107.999996704102,6|0,1:2|0:0,0:0:0:0:
236,346,70535,2,0,P|235:294|283:250,1,107.999996704102,10|0,0:0|0:0,0:0:0:0:
423,184,70868,2,0,L|303:178,1,107.999996704102,2|0,1:3|0:0,0:0:0:0:
147,108,71202,2,0,L|267:102,1,107.999996704102,10|0,0:0|0:0,0:0:0:0:
373,257,71535,6,0,B|396:308|396:308|378:368,1,107.999996704102,2|0,1:2|0:0,0:0:0:0:
161,368,71868,2,0,B|138:317|138:317|153:268,1,107.999996704102,10|0,0:0|0:0,0:0:0:0:
369,162,72202,2,0,B|307:212|307:212|174:182,1,215.999993408203,2|8,1:2|0:0,0:0:0:0:
291,99,72702,1,0,1:0:0:0:
98,24,72868,2,0,L|79:141,1,107.999996704102,6|0,1:2|0:0,0:0:0:0:
88,207,73118,1,0,1:2:0:0:
88,207,73202,5,10,0:0:0:0:
219,67,73368,1,2,1:2:0:0:
185,279,73535,1,2,1:3:0:0:
359,170,73702,1,2,0:0:0:0:
292,383,73868,1,10,0:0:0:0:
261,172,74035,1,10,0:0:0:0:
115,383,74202,6,0,P|57:374|22:328,1,107.999996704102,6|0,1:2|1:0,0:0:0:0:
112,179,74535,2,0,B|134:232|134:232|113:290,1,107.999996704102,8|0,0:0|0:0,0:0:0:0:
20,57,74868,1,6,1:2:0:0:
50,237,75035,1,0,1:0:0:0:
145,31,75202,5,14,0:0:0:0:
195,12,75285,1,8,0:0:0:0:
248,17,75368,1,8,0:0:0:0:
293,45,75452,1,8,0:0:0:0:
321,90,75535,6,0,P|391:104|456:43,1,161.999995056153,6|2,1:2|1:2,0:0:0:0:
440,12,75868,1,10,0:0:0:0:
384,188,76035,1,2,0:0:0:0:
197,118,76202,2,0,P|130:106|44:177,1,161.999995056153,2|0,1:3|0:0,0:0:0:0:
43,191,76535,1,10,0:0:0:0:
230,211,76702,1,2,1:2:0:0:
130,16,76868,5,2,1:2:0:0:
138,194,77035,1,2,0:0:0:0:
314,27,77202,1,10,0:0:0:0:
230,211,77368,1,2,1:2:0:0:
41,64,77535,2,0,P|80:24|133:16,1,107.999996704102,2|0,1:2|0:0,0:0:0:0:
299,118,77868,1,10,0:0:0:0:
126,110,78035,1,2,1:2:0:0:
305,240,78202,6,0,L|430:235,1,107.999996704102,6|0,1:2|0:0,0:0:0:0:
369,314,78452,1,2,1:2:0:0:
369,314,78535,2,0,L|261:318,1,107.999996704102,10|2,0:0|0:0,0:0:0:0:
61,232,78868,2,0,B|100:190|100:190|171:195|173:283,1,161.999995056153,2|0,1:3|0:0,0:0:0:0:
144,285,79202,1,10,0:0:0:0:
226,108,79368,1,2,1:2:0:0:
369,314,79535,5,2,1:2:0:0:
235,197,79702,1,2,1:2:0:0:
432,102,79868,1,10,0:0:0:0:
336,304,80035,1,2,0:0:0:0:
351,59,80202,2,0,P|383:20|452:15,1,107.999996704102,2|0,1:2|0:0,0:0:0:0:
377,202,80535,2,0,L|318:209,1,53.9999983520508,8|0,0:0|0:0,0:0:0:0:
245,280,80702,2,0,L|192:257,1,53.9999983520508,8|8,0:0|0:0,0:0:0:0:
210,91,80868,6,0,L|250:203,1,107.999996704102,6|0,1:2|0:0,0:0:0:0:
44,124,81202,2,0,L|4:236,1,107.999996704102,10|0,0:0|0:0,0:0:0:0:
113,54,81535,2,0,P|69:29|9:36,1,107.999996704102,2|0,1:3|0:0,0:0:0:0:
107,205,81868,2,0,P|63:230|3:223,1,107.999996704102,10|0,0:0|0:0,0:0:0:0:
210,91,82202,6,0,B|260:71|260:71|313:86,1,107.999996704102,2|0,1:2|0:0,0:0:0:0:
313,285,82535,2,0,B|260:300|260:300|210:280,1,107.999996704102,10|0,0:0|1:0,0:0:0:0:
428,171,82868,2,0,B|477:281|364:274|433:389,1,215.999993408203,2|10,1:2|0:0,0:0:0:0:
353,221,83368,1,0,1:0:0:0:
206,362,83535,2,0,P|148:363|104:335,1,107.999996704102,6|0,1:2|0:0,0:0:0:0:
70,273,83785,1,2,1:2:0:0:
70,273,83868,5,10,0:0:0:0:
273,227,84035,1,2,1:2:0:0:
62,105,84202,1,2,1:3:0:0:
257,44,84368,1,2,1:2:0:0:
74,192,84535,1,10,0:0:0:0:
0,0,84702,1,2,1:2:0:0:
207,173,84868,6,0,B|230:225|230:225|211:281,1,107.999996704102,6|0,1:2|0:0,0:0:0:0:
119,86,85202,1,8,0:0:0:0:
309,175,85368,1,8,0:0:0:0:
90,239,85535,1,2,1:2:0:0:
201,63,85702,1,2,1:2:0:0:
296,291,85868,1,10,0:0:0:0:
339,292,85952,1,8,0:0:0:0:
381,285,86035,1,10,0:0:0:0:
422,270,86118,1,8,0:0:0:0:
448,247,86202,6,0,L|421:117,1,108,4|0,1:2|0:0,0:0:0:0:
408,110,86535,2,0,P|369:142|298:134,1,108,2|0,0:0|0:0,0:0:0:0:
282,125,86868,2,0,B|237:122|237:122|212:134|212:134|159:136,1,108,4|0,1:2|0:0,0:0:0:0:
105,99,87202,1,2,0:0:0:0:
105,99,87535,5,14,0:0:0:0:
32,225,87702,1,2,1:2:0:0:
46,247,87785,1,0,1:0:0:0:
60,270,87868,2,0,L|49:322,1,45,10|0,0:0|0:0,0:0:0:0:
153,214,88035,2,0,L|164:266,1,45,2|0,1:2|0:0,0:0:0:0:
236,139,88202,2,0,P|285:112|384:180,1,180,14|12,0:0|0:0,0:0:0:0:
381,170,88868,6,0,L|355:291,1,90,14|0,0:0|1:0,0:0:0:0:
184,285,89202,2,0,P|224:248|277:247,1,90,10|0,0:0|1:2,0:0:0:0:
435,300,89535,2,0,P|382:283|355:238,1,90,10|0,0:0|1:0,0:0:0:0:
424,75,89868,1,10,0:0:0:0:
491,240,90035,1,2,1:2:0:0:
499,14,90202,5,10,0:0:0:0:
387,173,90368,1,2,1:2:0:0:
387,173,90452,1,2,0:0:0:0:
387,173,90535,1,10,0:0:0:0:
312,0,90702,1,2,1:2:0:0:
492,161,90868,2,0,L|380:159,1,90,10|0,0:0|1:0,0:0:0:0:
247,263,91202,1,10,0:0:0:0:
412,249,91368,1,2,1:2:0:0:
235,127,91535,6,0,B|196:108|196:108|87:144,1,135,14|0,0:0|0:0,0:0:0:0:
90,162,91868,1,10,0:0:0:0:
247,263,92035,1,2,1:2:0:0:
26,217,92202,2,0,P|7:174|22:114,1,90,10|0,0:0|1:0,0:0:0:0:
167,270,92535,2,0,L|68:275,1,90,10|0,0:0|1:0,0:0:0:0:
235,127,92868,5,10,0:0:0:0:
337,294,93035,1,2,1:2:0:0:
337,294,93118,1,2,0:0:0:0:
337,294,93202,1,10,0:0:0:0:
427,141,93368,1,2,1:2:0:0:
245,268,93535,2,0,L|261:389,1,90,10|0,0:0|1:0,0:0:0:0:
397,224,93868,1,14,0:0:0:0:
243,158,94035,1,2,1:2:0:0:
403,308,94202,6,0,P|447:295|478:246,1,90,14|2,0:0|1:2,0:0:0:0:
502,192,94452,1,2,0:0:0:0:
502,192,94535,2,0,L|460:87,1,90,10|2,0:0|1:2,0:0:0:0:
276,74,94868,2,0,L|234:179,1,90,10|2,0:0|1:2,0:0:0:0:
286,231,95118,1,2,0:0:0:0:
286,231,95202,1,10,0:0:0:0:
160,90,95368,1,2,1:2:0:0:
26,247,95535,6,0,P|73:261|118:243,1,90,10|2,0:0|1:2,0:0:0:0:
164,185,95785,1,2,0:0:0:0:
164,185,95868,1,10,0:0:0:0:
135,371,96035,1,2,1:2:0:0:
70,170,96202,2,0,L|57:56,1,90,10|0,0:0|0:0,0:0:0:0:
110,248,96535,1,14,0:0:0:0:
230,145,96702,1,2,1:2:0:0:
322,353,96868,5,14,0:0:0:0:
322,353,97202,1,2,1:2:0:0:
221,276,97368,1,10,0:0:0:0:
62,365,97535,1,14,0:0:0:0:
62,365,97868,6,0,B|107:349|107:349|149:362|149:362|213:346,1,135,14|0,0:0|0:0,0:0:0:0:
223,353,98202,1,6,1:2:0:0:
167,205,98368,1,2,1:2:0:0:
158,235,98452,1,2,0:0:0:0:
150,265,98535,1,14,0:0:0:0:
83,147,98702,1,2,1:2:0:0:
286,244,98868,6,0,B|364:249|379:183|379:183|346:106|255:138,1,252,6|0,1:2|0:0,0:0:0:0:
250,147,99535,5,2,0:0:0:0:
374,67,99702,1,2,0:0:0:0:
397,68,99785,1,2,0:0:0:0:
423,69,99868,5,2,0:0:0:0:
511,144,100035,1,2,0:0:0:0:
401,164,100202,5,2,0:0:0:0:
330,223,100368,1,2,0:0:0:0:
454,233,100535,5,2,0:0:0:0:
510,280,100702,1,2,0:0:0:0:
491,300,100868,6,0,L|346:298,1,125.999996154785,2|0,0:0|0:0,0:0:0:0:
240,370,101368,1,0,0:0:0:0:
183,317,101535,2,0,P|238:289|303:331,1,125.999996154785,2|0,0:0|0:0,0:0:0:0:
339,253,102035,1,2,0:0:0:0:
262,187,102202,6,0,P|243:164|232:123,1,62.9999980773926,2|2,0:0|0:0,0:0:0:0:
152,164,102535,2,0,P|147:134|158:93,1,62.9999980773926,0|2,0:0|0:0,0:0:0:0:
228,41,102868,1,2,0:0:0:0:
192,242,103202,1,0,0:0:0:0:
192,242,103535,6,0,B|237:228|237:228|272:240|272:240|323:227,1,125.999996154785,2|0,0:0|0:0,0:0:0:0:
391,150,104035,1,2,0:0:0:0:
435,214,104202,2,0,L|454:75,1,125.999996154785,2|0,0:0|0:0,0:0:0:0:
379,22,104702,1,2,0:0:0:0:
324,69,104868,5,2,0:0:0:0:
228,60,105035,1,2,0:0:0:0:
165,115,105202,1,2,0:0:0:0:
82,76,105368,1,2,0:0:0:0:
121,204,105535,1,2,0:0:0:0:
121,204,105868,6,0,B|162:163|162:163|237:171|231:244,1,161.999995056153,8|0,1:2|0:0,0:0:0:0:
237,266,106202,6,0,L|353:246,1,90,6|0,1:2|1:0,0:0:0:0:
401,276,106452,1,8,0:0:0:0:
405,296,106535,1,0,1:0:0:0:
316,169,106702,1,10,0:0:0:0:
233,342,106868,2,0,P|182:326|160:287,1,90,2|0,1:2|1:0,0:0:0:0:
140,219,107118,1,8,0:0:0:0:
151,202,107202,1,0,1:0:0:0:
41,326,107368,1,10,0:0:0:0:
92,129,107535,5,2,1:2:0:0:
228,205,107702,1,0,1:0:0:0:
248,202,107785,1,8,0:0:0:0:
266,193,107868,1,0,1:0:0:0:
162,297,108035,1,10,0:0:0:0:
227,112,108202,2,0,P|272:99|328:123,1,90,2|0,1:2|1:0,0:0:0:0:
362,167,108452,1,8,0:0:0:0:
369,186,108535,1,0,1:0:0:0:
408,47,108702,1,8,0:0:0:0:
470,259,108868,5,2,1:2:0:0:
376,172,109035,2,0,L|360:114,1,45,2|8,1:2|0:0,0:0:0:0:
322,256,109202,1,2,1:2:0:0:
471,244,109368,2,0,L|455:186,1,45,2|8,1:2|0:0,0:0:0:0:
417,328,109535,1,2,1:2:0:0:
305,226,109702,1,2,1:2:0:0:
284,224,109785,1,0,1:0:0:0:
264,221,109868,2,0,L|167:225,1,90,10|10,0:0|0:0,0:0:0:0:
302,71,110202,5,2,1:2:0:0:
131,28,110368,1,2,1:2:0:0:
112,35,110452,1,8,0:0:0:0:
99,51,110535,1,2,1:2:0:0:
174,224,110702,1,10,0:0:0:0:
253,1,110868,2,0,L|280:87,1,90,2|0,1:2|0:0,0:0:0:0:
353,132,111118,1,8,0:0:0:0:
366,148,111202,2,0,L|345:236,1,90,0|8,1:0|0:0,0:0:0:0:
381,312,111452,1,2,0:0:0:0:
381,312,111535,1,2,0:0:0:0:
381,312,111868,6,0,P|321:317|257:316,2,107.999996704102,2|2|2,0:0|0:0|0:0,0:0:0:0:
176,176,112868,5,2,0:0:0:0:
305,112,113202,1,2,0:0:0:0:
174,250,113535,1,2,0:0:0:0:
218,96,113868,1,2,0:0:0:0:
218,96,114202,5,14,0:0:0:0:
97,138,114368,1,2,1:2:0:0:
97,138,114452,1,0,1:0:0:0:
97,138,114535,2,0,L|54:122,1,45,10|0,0:0|0:0,0:0:0:0:
0,242,114702,2,0,L|42:226,1,45,10|0,0:0|0:0,0:0:0:0:
179,190,114868,2,0,P|209:203|229:224,1,45,10|0,0:0|0:0,0:0:0:0:
313,306,115035,2,0,P|343:293|363:272,1,45,0|0,0:0|0:0,0:0:0:0:
294,153,115202,5,0,1:0:0:0:
270,125,115285,1,0,1:0:0:0:
265,89,115368,1,10,0:0:0:0:
282,57,115452,1,0,0:0:0:0:
311,36,115535,6,0,L|367:49,1,45,6|0,1:2|0:0,0:0:0:0:
478,163,115702,1,2,1:2:0:0:
478,163,115785,1,0,0:0:0:0:
478,163,115868,2,0,L|459:232,1,45,10|0,0:0|0:0,0:0:0:0:
327,259,116035,1,2,1:2:0:0:
445,69,116202,1,10,0:0:0:0:
512,272,116368,1,0,1:0:0:0:
502,289,116452,1,0,0:0:0:0:
485,300,116535,5,0,1:0:0:0:
442,286,116618,1,0,1:0:0:0:
398,293,116702,1,0,1:0:0:0:
363,321,116785,1,0,1:0:0:0:
349,363,116868,6,0,P|311:328|244:334,1,108,4|0,1:2|0:0,0:0:0:0:
225,337,117202,2,0,L|194:240,1,72,2|0,1:2|0:0,0:0:0:0:
41,200,117535,2,0,B|80:220|80:220|161:201,1,108,2|0,1:2|1:0,0:0:0:0:
165,187,117868,1,2,1:2:0:0:
83,296,118035,1,0,0:0:0:0:
98,122,118202,6,0,P|136:93|209:106,1,108,2|0,1:2|1:0,0:0:0:0:
223,114,118535,2,0,L|300:102,1,72,2|0,1:2|0:0,0:0:0:0:
431,215,118868,2,0,L|402:330,1,108,2|0,1:2|1:0,0:0:0:0:
374,349,119202,1,2,1:2:0:0:
296,252,119368,1,0,0:0:0:0:
119,328,119535,6,0,P|178:313|229:352,1,108,2|0,1:2|1:0,0:0:0:0:
233,360,119868,2,0,L|311:346,1,72,0|2,1:0|0:0,0:0:0:0:
478,265,120202,2,0,B|500:224|500:224|479:149,1,108,0|0,1:0|1:0,0:0:0:0:
461,137,120535,1,2,1:2:0:0:
347,193,120702,1,0,0:0:0:0:
246,53,120868,1,6,1:2:0:0:
256,192,120952,12,0,122035,0:0:0:0:
22,40,122202,5,8,0:0:0:0:
51,73,122285,1,0,1:0:0:0:
92,91,122368,1,0,1:0:0:0:
136,90,122452,1,0,1:0:0:0:
176,70,122535,2,0,L|200:131,1,45,8|0,0:0|1:0,0:0:0:0:
151,224,122702,5,0,1:0:0:0:
121,191,122785,1,0,1:0:0:0:
80,173,122868,1,8,0:0:0:0:
36,174,122952,1,8,0:0:0:0:
2,203,123035,2,0,L|12:258,1,45,8|8,0:0|0:0,0:0:0:0:
138,321,123202,6,0,B|125:276|125:276|133:235|133:235|118:185,1,135,12|0,0:0|0:0,0:0:0:0:
142,100,123535,6,0,P|191:122|257:120,1,107.999996704102,6|0,1:2|1:0,0:0:0:0:
318,148,123785,1,2,1:2:0:0:
318,148,123868,1,10,0:0:0:0:
121,191,124035,1,2,1:2:0:0:
308,62,124202,2,0,P|377:91|392:179,1,161.999995056153,2|0,1:3|0:0,0:0:0:0:
385,209,124535,2,0,L|247:227,1,107.999996704102,10|2,0:0|1:2,0:0:0:0:
68,358,124868,5,2,1:2:0:0:
257,305,125035,1,2,1:2:0:0:
52,193,125202,1,10,0:0:0:0:
199,365,125368,1,2,1:2:0:0:
149,124,125535,2,0,L|126:237,1,107.999996704102,2|0,1:2|0:0,0:0:0:0:
81,33,125868,1,10,0:0:0:0:
250,126,126035,1,2,1:2:0:0:
46,272,126202,6,0,B|95:242|95:242|200:270,1,161.999995056153,2|2,1:2|1:2,0:0:0:0:
222,297,126535,1,10,0:0:0:0:
149,124,126702,1,2,1:2:0:0:
319,260,126868,2,0,B|374:272|374:272|427:248,1,107.999996704102,2|0,1:3|0:0,0:0:0:0:
459,47,127202,1,10,0:0:0:0:
364,192,127368,1,2,1:2:0:0:
187,33,127535,5,2,1:2:0:0:
382,114,127702,1,2,1:2:0:0:
156,216,127868,1,10,0:0:0:0:
319,73,128035,1,2,1:2:0:0:
67,15,128202,2,0,P|33:56|35:114,1,107.999996704102,2|0,1:2|0:0,0:0:0:0:
156,216,128535,2,0,L|227:201,1,53.9999983520508,8|0,0:0|0:0,0:0:0:0:
127,371,128702,1,8,0:0:0:0:
127,371,128785,1,8,0:0:0:0:
127,371,128868,6,0,L|-2:355,1,107.999996704102,6|0,1:2|0:0,0:0:0:0:
267,310,129202,2,0,L|138:294,1,107.999996704102,10|0,0:0|1:0,0:0:0:0:
358,200,129535,2,0,L|465:186,1,107.999996704102,2|0,1:3|0:0,0:0:0:0:
218,139,129868,2,0,L|325:125,1,107.999996704102,10|0,0:0|0:0,0:0:0:0:
139,275,130202,6,0,B|106:232|106:232|116:176,1,107.999996704102,2|0,1:2|0:0,0:0:0:0:
301,29,130535,2,0,B|334:72|334:72|324:128,1,107.999996704102,10|0,0:0|1:0,0:0:0:0:
66,109,130868,2,0,P|155:101|200:214,1,215.999993408203,2|8,1:2|0:0,0:0:0:0:
31,224,131368,1,0,1:0:0:0:
221,279,131535,2,0,P|268:248|279:187,1,107.999996704102,2|0,1:2|0:0,0:0:0:0:
277,128,131785,1,2,1:2:0:0:
277,128,131868,5,10,0:0:0:0:
359,342,132035,1,2,1:2:0:0:
395,112,132202,1,2,1:3:0:0:
243,270,132368,1,2,1:2:0:0:
477,184,132535,1,10,0:0:0:0:
297,49,132702,1,2,1:2:0:0:
439,287,132868,6,0,L|455:176,1,107.999996704102,6|0,1:2|0:0,0:0:0:0:
227,163,133202,2,0,L|243:274,1,107.999996704102,8|0,0:0|0:0,0:0:0:0:
395,112,133535,1,6,1:2:0:0:
343,304,133702,1,0,1:0:0:0:
285,70,133868,1,14,0:0:0:0:
145,165,134035,1,8,0:0:0:0:
114,154,134118,1,8,0:0:0:0:
88,133,134202,6,0,P|164:115|236:191,1,161.999995056153,6|2,1:2|1:2,0:0:0:0:
228,201,134535,1,10,0:0:0:0:
193,32,134702,1,2,1:2:0:0:
28,194,134868,2,0,B|6:249|6:249|40:358,1,161.999995056153,2|0,1:3|0:0,0:0:0:0:
65,373,135202,2,0,L|176:366,1,107.999996704102,10|2,0:0|1:2,0:0:0:0:
373,249,135535,5,2,1:2:0:0:
187,287,135702,1,2,1:2:0:0:
421,320,135868,1,10,0:0:0:0:
203,192,136035,1,2,1:2:0:0:
456,249,136202,2,0,P|490:290|493:352,1,107.999996704102,2|0,1:2|0:0,0:0:0:0:
310,202,136535,1,10,0:0:0:0:
455,120,136702,1,2,1:2:0:0:
392,328,136868,6,0,L|253:317,1,107.999996704102,2|0,1:2|0:0,0:0:0:0:
227,361,137118,1,2,1:2:0:0:
227,361,137202,2,0,L|165:346,1,53.9999983520508,10|0,0:0|0:0,0:0:0:0:
76,357,137368,2,0,L|58:302,1,53.9999983520508,2|0,1:2|0:0,0:0:0:0:
108,161,137535,2,0,B|200:137|179:212|271:175,1,161.999995056153,2|0,1:3|0:0,0:0:0:0:
292,155,137868,1,10,0:0:0:0:
141,236,138035,1,2,1:2:0:0:
279,75,138202,5,2,1:2:0:0:
386,229,138368,1,2,1:2:0:0:
321,0,138535,1,10,0:0:0:0:
168,161,138702,1,2,1:2:0:0:
441,151,138868,2,0,P|395:133|335:149,1,107.999996704102,2|0,1:2|0:0,0:0:0:0:
198,275,139202,2,0,P|152:293|92:277,1,107.999996704102,8|8,0:0|0:0,0:0:0:0:
35,234,139452,1,8,0:0:0:0:
35,234,139535,6,0,B|16:185|16:185|41:119,1,107.999996704102,6|0,1:2|0:0,0:0:0:0:
193,25,139868,2,0,B|212:74|212:74|187:140,1,107.999996704102,10|0,0:0|1:0,0:0:0:0:
296,272,140202,2,0,L|410:271,1,107.999996704102,2|0,1:3|0:0,0:0:0:0:
403,88,140535,2,0,L|296:89,1,107.999996704102,10|0,0:0|0:0,0:0:0:0:
125,196,140868,6,0,P|173:178|228:197,1,107.999996704102,2|0,1:2|0:0,0:0:0:0:
224,365,141202,2,0,P|174:383|123:366,1,107.999996704102,10|0,0:0|1:0,0:0:0:0:
31,153,141535,2,0,B|87:198|87:198|49:356,1,215.999993408203,2|8,1:2|0:0,0:0:0:0:
177,179,142035,1,0,0:0:0:0:
224,365,142202,6,0,L|340:360,1,107.999996704102,2|0,1:2|0:0,0:0:0:0:
399,317,142452,1,2,1:2:0:0:
399,317,142535,1,10,0:0:0:0:
220,264,142702,1,2,1:2:0:0:
418,184,142868,1,2,1:3:0:0:
264,118,143035,1,2,1:2:0:0:
380,296,143202,1,10,0:0:0:0:
396,66,143368,1,2,1:2:0:0:
220,264,143535,6,0,P|158:259|119:225,1,107.999996704102,2|0,1:2|0:0,0:0:0:0:
172,32,143868,1,8,0:0:0:0:
194,190,144035,1,8,0:0:0:0:
58,30,144202,1,2,1:2:0:0:
25,214,144368,1,2,1:2:0:0:
235,104,144535,1,10,0:0:0:0:
278,103,144618,1,8,0:0:0:0:
321,103,144702,1,10,0:0:0:0:
364,102,144785,1,8,0:0:0:0:
400,102,144868,6,0,L|418:226,1,108,4|0,1:2|0:0,0:0:0:0:
439,236,145202,2,0,P|386:227|334:261,1,108,2|0,0:0|0:0,0:0:0:0:
341,289,145535,2,0,B|212:287,1,108,4|0,1:2|0:0,0:0:0:0:
159,257,145868,1,2,0:0:0:0:
159,257,146202,5,14,0:0:0:0:
263,155,146368,1,2,1:2:0:0:
282,136,146452,1,0,1:0:0:0:
297,115,146535,2,0,L|287:50,1,45,10|0,0:0|0:0,0:0:0:0:
179,135,146702,2,0,L|185:179,1,45,2|0,1:2|0:0,0:0:0:0:
304,240,146868,1,14,0:0:0:0:
304,240,147202,5,14,0:0:0:0:
368,142,147368,1,2,1:2:0:0:
489,305,147535,6,0,L|399:297,1,90,6|0,1:2|0:0,0:0:0:0:
281,153,147868,1,8,0:0:0:0:
378,132,148035,2,0,B|417:180|417:180|396:319,1,180,2|0,1:2|1:0,0:0:0:0:
246,248,148535,2,0,P|282:220|327:219,1,90,10|0,0:0|0:0,0:0:0:0:
238,358,148868,6,0,B|176:347|176:347|129:369|129:369|57:362,1,180,2|8,1:2|0:0,0:0:0:0:
116,277,149368,1,0,0:0:0:0:
10,168,149535,2,0,L|-2:266,1,90,0|0,1:0|1:0,0:0:0:0:
141,118,149868,1,10,0:0:0:0:
11,75,150035,1,2,0:0:0:0:
160,201,150202,6,0,P|203:198|248:161,1,90,2|0,1:2|0:0,0:0:0:0:
338,27,150535,1,8,0:0:0:0:
255,52,150702,2,0,L|291:238,1,180,2|0,1:2|1:0,0:0:0:0:
445,224,151202,2,0,P|402:200|359:205,1,90,10|0,0:0|0:0,0:0:0:0:
214,289,151535,6,0,P|263:319|371:276,1,180,2|8,1:2|0:0,0:0:0:0:
218,208,152035,2,0,P|172:214|141:248,1,90,0|0,0:0|1:0,0:0:0:0:
64,368,152368,1,0,1:0:0:0:
42,195,152535,2,0,L|65:289,1,90,10|0,0:0|0:0,0:0:0:0:
192,133,152868,6,0,B|292:105|261:195|369:170,1,180,6|8,1:2|0:0,0:0:0:0:
463,148,153368,1,0,0:0:0:0:
337,79,153535,1,0,1:0:0:0:
430,224,153702,1,0,1:0:0:0:
512,47,153868,2,0,P|470:27|422:35,1,90,10|0,0:0|0:0,0:0:0:0:
266,140,154202,6,0,B|291:198|291:198|281:247|281:247|316:331,1,180,6|8,1:2|0:0,0:0:0:0:
212,209,154702,1,2,1:2:0:0:
343,115,154868,2,0,P|321:78|261:63,1,90,0|0,0:0|1:0,0:0:0:0:
116,100,155202,2,0,L|210:93,1,90,10|0,0:0|1:0,0:0:0:0:
32,222,155535,6,0,L|253:205,1,180,6|8,1:2|0:0,0:0:0:0:
341,116,156035,1,0,0:0:0:0:
305,309,156202,2,0,L|287:215,1,90,4|0,1:2|1:0,0:0:0:0:
449,138,156535,2,0,L|431:232,1,90,8|0,0:0|0:0,0:0:0:0:
256,140,156868,5,4,1:2:0:0:
405,63,157035,1,8,0:0:0:0:
288,220,157202,1,8,3:2:0:0:
148,55,157368,1,8,0:0:0:0:
174,25,157452,1,8,0:0:0:0:
211,8,157535,1,0,1:0:0:0:
251,9,157618,1,0,1:0:0:0:
288,25,157702,2,0,L|275:97,1,45,10|8,3:2|3:2,0:0:0:0:
182,146,157868,2,0,L|200:210,1,45,8|8,3:2|3:2,0:0:0:0:
353,269,158035,6,0,B|295:244|295:244|178:286,1,180,6|0,1:2|1:0,0:0:0:0:
38,209,158535,2,0,B|22:166|22:166|37:116,1,90,10|0,0:0|0:0,0:0:0:0:
196,45,158868,2,0,B|212:88|212:88|197:138,1,90,2|0,1:2|1:0,0:0:0:0:
99,9,159202,1,10,0:0:0:0:
299,113,159368,6,0,L|269:210,1,90,6|0,1:2|0:0,0:0:0:0:
428,280,159702,2,0,P|389:223|276:223,1,180,2|0,1:2|0:0,0:0:0:0:
319,381,160202,2,0,L|342:278,1,90,2|0,1:2|1:0,0:0:0:0:
294,130,160535,1,10,0:0:0:0:
162,290,160702,6,0,B|217:281|217:281|272:300|272:300|358:290,1,180,6|0,1:2|1:0,0:0:0:0:
459,151,161202,2,0,L|483:247,1,90,10|0,0:0|0:0,0:0:0:0:
356,105,161535,2,0,P|309:86|256:101,1,90,2|0,1:2|1:0,0:0:0:0:
181,217,161868,1,10,0:0:0:0:
146,23,162035,2,0,L|178:119,1,90,6|0,1:2|0:0,0:0:0:0:
54,13,162368,1,2,1:2:0:0:
96,207,162535,6,0,L|38:378,1,180,10|0,0:0|1:0,0:0:0:0:
9,202,163035,1,0,1:0:0:0:
166,324,163202,5,10,0:0:0:0:
207,340,163285,1,8,0:0:0:0:
251,338,163368,1,10,0:0:0:0:
290,317,163452,1,8,0:0:0:0:
323,286,163535,6,0,B|282:190|375:204|326:105,1,180,4|8,1:2|0:0,0:0:0:0:
270,26,164035,1,0,0:0:0:0:
192,164,164202,1,0,1:0:0:0:
157,40,164368,1,0,1:0:0:0:
137,228,164535,2,0,P|180:247|232:237,1,90,8|0,0:0|1:0,0:0:0:0:
84,76,164868,6,0,L|71:169,1,90,2|0,1:2|0:0,0:0:0:0:
146,335,165202,1,8,0:0:0:0:
221,241,165368,2,0,P|273:217|377:281,1,180,2|0,0:0|1:0,0:0:0:0:
481,162,165868,2,0,L|468:66,1,90,10|0,0:0|0:0,0:0:0:0:
263,115,166202,6,0,B|203:101|203:101|148:120|148:120|80:106,1,180,2|8,1:2|0:0,0:0:0:0:
17,26,166702,1,0,0:0:0:0:
69,181,166868,1,0,1:0:0:0:
140,38,167035,1,0,1:0:0:0:
172,231,167202,2,0,L|153:347,1,90,8|0,0:0|1:0,0:0:0:0:
383,348,167535,6,0,P|330:285|222:299,1,180,2|8,1:2|0:0,0:0:0:0:
106,383,168035,1,0,0:0:0:0:
12,193,168202,2,0,P|65:130|173:144,1,180,2|8,1:2|0:0,0:0:0:0:
106,222,168702,1,0,0:0:0:0:
185,18,168868,6,0,L|211:222,1,180,6|10,1:2|0:0,0:0:0:0:
282,278,169368,1,0,0:0:0:0:
413,176,169535,2,0,P|372:152|329:157,1,90,2|0,1:2|1:0,0:0:0:0:
467,262,169868,1,10,0:0:0:0:
467,60,170035,6,0,B|416:19|416:19|294:43,1,180,2|0,1:2|1:0,0:0:0:0:
175,145,170535,2,0,L|202:243,1,90,10|0,0:0|0:0,0:0:0:0:
28,235,170868,2,0,B|66:210|66:210|121:215,1,90,2|0,1:2|1:0,0:0:0:0:
253,289,171202,2,0,L|352:276,1,90,10|0,0:0|0:0,0:0:0:0:
377,101,171535,6,0,P|290:130|292:215,1,180,2|8,1:2|0:0,0:0:0:0:
446,146,172035,2,0,P|462:93|443:50,1,90,2|0,0:0|1:0,0:0:0:0:
314,26,172368,1,0,1:0:0:0:
374,196,172535,2,0,L|415:285,1,90,10|0,0:0|0:0,0:0:0:0:
240,205,172868,6,0,P|186:182|97:224,1,135,2|0,1:2|0:0,0:0:0:0:
86,221,173202,2,0,L|49:131,1,90,8|0,0:0|0:0,0:0:0:0:
181,275,173535,1,0,1:0:0:0:
37,284,173702,1,0,1:0:0:0:
135,107,173868,2,0,P|179:92|234:103,1,90,8|0,0:0|1:0,0:0:0:0:
305,237,174202,6,0,L|321:130,1,90,0|2,1:0|0:0,0:0:0:0:
371,92,174452,1,2,0:0:0:0:
371,92,174535,2,0,P|417:80|464:95,1,90,10|0,0:0|0:0,0:0:0:0:
502,244,174868,2,0,L|488:333,1,90,2|0,1:2|1:0,0:0:0:0:
414,154,175202,1,10,0:0:0:0:
309,210,175368,6,0,P|262:208|223:179,1,90,2|0,1:2|0:0,0:0:0:0:
176,56,175702,1,2,1:2:0:0:
25,182,175868,2,0,P|72:180|111:151,1,90,10|0,0:0|0:0,0:0:0:0:
273,46,176202,2,0,L|288:151,1,90,0|0,1:0|1:0,0:0:0:0:
214,273,176535,2,0,L|229:168,1,90,10|0,0:0|0:0,0:0:0:0:
49,102,176868,6,0,B|96:147|96:147|71:269,1,180,2|10,1:2|0:0,0:0:0:0:
177,115,177368,1,2,0:0:0:0:
316,189,177535,2,0,L|225:183,1,90,0|0,1:0|1:0,0:0:0:0:
72,259,177868,2,0,P|121:249|163:268,1,90,10|0,0:0|0:0,0:0:0:0:
269,105,178202,6,0,L|289:293,1,180,2|8,1:2|0:0,0:0:0:0:
381,382,178702,1,0,0:0:0:0:
398,191,178868,2,0,L|378:304,1,90,2|0,1:2|1:0,0:0:0:0:
214,371,179202,1,10,0:0:0:0:
143,312,179368,6,0,P|179:283|228:280,1,90,2|6,1:2|1:2,0:0:0:0:
71,221,179702,1,0,0:0:0:0:
246,188,179868,2,0,P|275:152|278:103,1,90,10|0,0:0|0:0,0:0:0:0:
137,40,180202,2,0,P|153:83|194:110,1,90,2|0,1:2|1:0,0:0:0:0:
381,29,180535,1,10,0:0:0:0:
437,102,180702,6,0,P|379:70|270:123,1,180,2|0,0:0|0:0,0:0:0:0:
243,289,181202,1,10,0:0:0:0:
186,195,181368,2,0,L|369:187,1,180,0|0,0:0|1:0,0:0:0:0:
229,50,181868,2,0,P|190:31|136:37,1,90,10|0,0:0|0:0,0:0:0:0:
47,198,182202,6,0,P|91:164|198:178,1,135,2|0,1:2|0:0,0:0:0:0:
186,195,182535,2,0,L|166:294,1,90,10|0,0:0|0:0,0:0:0:0:
327,351,182868,2,0,L|344:262,1,90,2|0,1:2|1:0,0:0:0:0:
245,125,183202,1,10,0:0:0:0:
254,253,183368,6,0,B|319:241|319:241|371:264|371:264|447:251,1,180,2|0,0:0|0:0,0:0:0:0:
387,90,183868,2,0,L|372:145,1,45,10|0,0:0|0:0,0:0:0:0:
489,126,184035,2,0,L|508:183,1,45,0|0,0:0|0:0,0:0:0:0:
507,288,184202,2,0,P|461:258|419:255,1,90,0|0,1:0|1:0,0:0:0:0:
296,351,184535,2,0,L|395:338,1,90,10|0,0:0|0:0,0:0:0:0:
241,211,184868,6,0,L|24:239,1,180,6|8,1:2|0:0,0:0:0:0:
126,146,185368,1,0,0:0:0:0:
173,302,185535,1,0,1:0:0:0:
241,211,185702,1,0,1:0:0:0:
99,324,185868,2,0,P|127:362|166:379,1,90,8|0,0:0|0:0,0:0:0:0:
343,290,186202,6,0,L|212:292,1,90,2|0,1:2|0:0,0:0:0:0:
238,263,186452,1,2,0:0:0:0:
238,263,186535,1,10,0:0:0:0:
354,367,186702,1,0,0:0:0:0:
300,204,186868,2,0,P|260:178|218:177,1,90,2|0,1:2|0:0,0:0:0:0:
65,112,187202,2,0,P|105:86|147:85,1,90,10|8,0:0|0:0,0:0:0:0:
303,108,187535,5,14,0:2:0:0:
341,117,187618,1,0,1:2:0:0:
381,109,187702,1,0,1:2:0:0:
413,86,187785,1,0,1:2:0:0:
432,50,187868,5,10,0:0:0:0:
388,46,187952,1,0,1:2:0:0:
343,41,188035,1,0,1:2:0:0:
298,37,188118,1,0,1:2:0:0:
253,32,188202,6,0,L|262:-14,1,45,10|0,0:0|1:2,0:0:0:0:
139,50,188368,2,0,L|148:96,1,45,0|0,1:2|1:2,0:0:0:0:
225,223,188535,5,10,0:0:0:0:
187,191,188618,1,0,1:0:0:0:
141,176,188702,1,0,1:0:0:0:
92,180,188785,1,0,1:0:0:0:
48,203,188868,6,0,L|76:312,1,90,6|0,1:2|0:0,0:0:0:0:
244,333,189202,2,0,B|200:318|200:318|150:341,1,90,10|0,0:0|0:0,0:0:0:0:
306,215,189535,2,0,L|409:215,1,90,2|0,1:2|0:0,0:0:0:0:
456,265,189785,1,2,0:0:0:0:
456,265,189868,2,0,P|465:320|437:367,1,90,14|0,0:0|0:0,0:0:0:0:
351,139,190202,1,6,1:2:0:0:
256,192,190285,12,0,192813,0:0:0:0:
78,352,204202,6,0,L|41:235,1,94.499997116089,2|0,0:0|0:0,0:0:0:0:
93,168,204535,6,0,L|155:172,1,45,2|0,0:0|0:0,0:0:0:0:
224,224,204702,2,0,L|286:220,1,45,0|0,0:0|0:0,0:0:0:0:
402,185,204868,6,0,P|332:199|267:138,1,161.999995056153,6|2,1:2|1:2,0:0:0:0:
277,105,205202,1,10,0:0:0:0:
209,249,205368,1,2,1:2:0:0:
140,83,205535,2,0,B|96:59|96:59|31:78|43:150,1,161.999995056153,2|0,1:3|0:0,0:0:0:0:
63,176,205868,1,10,0:0:0:0:
161,6,206035,1,2,1:2:0:0:
209,249,206202,5,2,1:2:0:0:
377,133,206368,1,2,1:2:0:0:
140,83,206535,1,10,0:0:0:0:
322,212,206702,1,2,1:2:0:0:
58,207,206868,2,0,P|112:169|156:174,1,107.999996704102,2|0,1:2|0:0,0:0:0:0:
235,367,207202,1,10,0:0:0:0:
124,248,207368,1,2,1:2:0:0:
321,116,207535,6,0,L|294:235,1,107.999996704102,2|0,1:2|0:0,0:0:0:0:
340,289,207785,1,2,1:2:0:0:
340,289,207868,2,0,L|458:275,1,107.999996704102,10|2,0:0|1:2,0:0:0:0:
273,369,208202,2,0,P|228:331|111:349,1,161.999995056153,2|0,1:3|0:0,0:0:0:0:
99,359,208535,1,10,0:0:0:0:
230,236,208702,1,2,1:2:0:0:
7,100,208868,5,2,1:2:0:0:
149,244,209035,1,2,1:2:0:0:
115,0,209202,1,10,0:0:0:0:
43,210,209368,1,2,1:2:0:0:
232,30,209535,2,0,P|283:16|342:35,1,107.999996704102,2|0,1:2|0:0,0:0:0:0:
379,196,209868,2,0,L|358:251,1,53.9999983520508,8|0,0:0|0:0,0:0:0:0:
266,148,210035,2,0,L|287:88,1,53.9999983520508,8|8,0:0|0:0,0:0:0:0:
435,265,210202,6,0,P|395:314|350:321,1,107.999996704102,6|0,1:2|0:0,0:0:0:0:
169,276,210535,2,0,P|228:253|270:270,1,107.999996704102,10|0,0:0|0:0,0:0:0:0:
99,380,210868,2,0,L|62:260,1,107.999996704102,2|0,1:3|0:0,0:0:0:0:
168,88,211202,2,0,L|131:208,1,107.999996704102,10|0,0:0|0:0,0:0:0:0:
0,32,211535,6,0,B|45:6|45:6|105:21,1,107.999996704102,2|0,1:2|0:0,0:0:0:0:
254,145,211868,2,0,B|308:158|308:158|353:132,1,107.999996704102,10|0,0:0|1:0,0:0:0:0:
204,300,212202,2,0,L|167:82,1,215.999993408203,2|8,1:2|0:0,0:0:0:0:
274,227,212702,1,0,0:0:0:0:
324,28,212868,6,0,L|355:140,1,107.999996704102,6|0,1:2|0:0,0:0:0:0:
355,212,213118,1,2,1:2:0:0:
355,212,213202,1,10,0:0:0:0:
232,29,213368,1,2,1:2:0:0:
159,207,213535,1,2,1:3:0:0:
44,0,213701,1,2,1:2:0:0:
220,156,213868,1,10,0:0:0:0:
28,253,214035,1,2,1:2:0:0:
196,50,214202,6,0,L|222:166,1,107.999996704102,6|0,1:2|1:0,0:0:0:0:
120,319,214535,1,8,0:0:0:0:
139,151,214702,1,8,0:0:0:0:
244,348,214868,1,6,1:2:0:0:
122,234,215035,1,2,1:2:0:0:
345,134,215202,5,14,0:0:0:0:
341,177,215285,1,8,0:0:0:0:
338,220,215368,1,10,0:0:0:0:
335,263,215452,1,8,0:0:0:0:
332,306,215535,6,0,P|291:274|225:277,1,108,4|0,1:2|0:0,0:0:0:0:
202,279,215868,2,0,L|230:148,1,108,2|0,0:0|0:0,0:0:0:0:
225,137,216202,2,0,P|171:159|112:149,1,108,4|0,1:2|0:0,0:0:0:0:
71,93,216535,1,2,0:0:0:0:
71,93,216868,5,14,0:0:0:0:
6,253,217035,1,2,1:2:0:0:
12,280,217118,1,0,1:0:0:0:
20,307,217202,2,0,L|75:302,1,45,10|0,0:0|0:0,0:0:0:0:
139,366,217368,2,0,L|194:361,1,45,2|0,1:2|0:0,0:0:0:0:
260,305,217535,1,14,0:0:0:0:
133,140,217868,5,8,0:0:0:0:
154,240,218035,1,2,1:2:0:0:
275,153,218202,2,0,P|321:143|384:195,1,108,4|0,1:2|0:0,0:0:0:0:
388,202,218535,2,0,L|368:291,1,72,2|0,0:0|0:0,0:0:0:0:
494,113,218868,6,0,P|454:72|372:68,1,135,4|0,1:2|0:0,0:0:0:0:
334,70,219202,2,0,L|238:70,1,90,2|0,0:0|0:0,0:0:0:0:
141,180,219535,6,0,L|156:248,1,45,10|0,0:0|0:0,0:0:0:0:
286,291,219702,1,0,1:2:0:0:
308,275,219785,1,0,1:0:0:0:
329,258,219868,2,0,L|280:236,1,45,10|0,0:0|0:0,0:0:0:0:
161,316,220035,2,0,L|210:294,1,45,10|0,0:0|0:0,0:0:0:0:
47,233,220202,1,10,0:0:0:0:
196,69,220368,1,0,1:0:0:0:
196,69,220452,1,0,1:0:0:0:
196,69,220535,2,0,L|218:218,1,135,12|0,0:0|0:0,0:0:0:0:
201,229,220868,6,0,P|169:200|103:200,1,90,14|0,0:0|1:0,0:0:0:0:
0,308,221202,2,0,L|91:304,1,90,10|0,0:0|1:0,0:0:0:0:
290,225,221535,2,0,L|200:228,1,90,10|0,0:0|1:0,0:0:0:0:
379,153,221868,1,10,0:0:0:0:
330,303,222035,1,2,1:2:0:0:
265,81,222202,5,10,0:0:0:0:
382,240,222368,1,2,1:2:0:0:
382,240,222452,1,2,0:0:0:0:
382,240,222535,1,10,0:0:0:0:
404,36,222702,1,2,1:2:0:0:
224,156,222868,2,0,P|268:164|319:143,1,90,10|0,0:0|1:0,0:0:0:0:
113,58,223202,1,10,0:0:0:0:
118,210,223368,1,2,1:2:0:0:
267,67,223535,6,0,P|315:55|389:101,1,135,14|0,0:0|0:0,0:0:0:0:
399,127,223868,1,10,0:0:0:0:
299,234,224035,1,2,1:2:0:0:
481,285,224202,2,0,P|431:264|386:272,1,90,10|0,0:0|1:0,0:0:0:0:
243,365,224535,2,0,P|198:367|158:347,1,90,10|0,0:0|1:0,0:0:0:0:
128,144,224868,5,10,0:0:0:0:
218,300,225035,1,2,1:2:0:0:
218,300,225118,1,2,0:0:0:0:
218,300,225202,1,10,0:0:0:0:
31,235,225368,1,2,1:2:0:0:
214,128,225535,2,0,L|310:125,1,90,10|0,0:0|1:0,0:0:0:0:
157,224,225868,1,14,0:0:0:0:
152,58,226035,1,2,1:2:0:0:
266,220,226202,6,0,P|284:267|272:309,1,90,14|2,0:0|1:2,0:0:0:0:
248,377,226452,1,2,0:0:0:0:
248,377,226535,2,0,L|342:376,1,90,10|2,0:0|1:2,0:0:0:0:
456,260,226868,2,0,B|442:153,1,90,10|2,0:0|1:2,0:0:0:0:
484,106,227118,1,2,0:0:0:0:
484,106,227202,1,10,0:0:0:0:
369,240,227368,1,2,1:2:0:0:
252,78,227535,6,0,P|296:56|344:62,1,90,8|0,0:0|1:2,0:0:0:0:
312,135,227785,1,2,0:0:0:0:
312,135,227868,1,10,0:0:0:0:
192,8,228035,1,2,1:2:0:0:
134,183,228202,2,0,L|143:275,1,90,14|0,0:0|0:0,0:0:0:0:
264,362,228535,1,10,0:0:0:0:
223,218,228702,1,2,1:2:0:0:
69,353,228868,5,14,0:0:0:0:
69,353,229202,1,2,1:2:0:0:
218,296,229368,1,10,0:0:0:0:
46,183,229535,1,14,0:0:0:0:
46,183,229868,6,0,P|104:193|166:153,1,135,14|0,0:0|0:0,0:0:0:0:
177,123,230202,1,14,0:0:0:0:
241,279,230368,1,2,1:2:0:0:
251,249,230452,1,2,0:0:0:0:
263,220,230535,1,14,0:0:0:0:
360,363,230702,1,0,1:2:0:0:
449,256,230868,6,0,B|481:202|481:202|430:67|430:67|412:115|359:134,1,288,14|0,0:0|0:0,0:0:0:0:
