osu file format v14

[General]
AudioFilename: Ayumi Miyazaki - brave heart~tri.Version~.mp3
AudioLeadIn: 0
PreviewTime: 61314
Countdown: 0
SampleSet: Soft
StackLeniency: 0.6
Mode: 0
LetterboxInBreaks: 0
EpilepsyWarning: 1
WidescreenStoryboard: 1

[Editor]
Bookmarks: 786,4166,10926,12616,19377,26138,32898,39659,46419,53180,59940,61631,68391,75152,81912,86983,90363,97124,103884,110645,117405,124166
DistanceSpacing: 1.8
BeatDivisor: 4
GridSize: 4
TimelineZoom: 1.4

[Metadata]
Title:brave heart~tri.Version~
TitleUnicode:brave heart~tri.Version~
Artist:Ayumi Miyazaki
ArtistUnicode:宮﨑歩
Creator:Kencho
Version:Hard
Source:デジモンアドベンチャー tri.
Tags:digimon adventure 15th Anniversary Project digivolve digital monster braveheart insert tv size short version kanor Pata-Mon Karen GIDZ -_G_I_D_Z_- yf_bmp
BeatmapID:1120088
BeatmapSetID:528037

[Difficulty]
HPDrainRate:5
CircleSize:3.6
OverallDifficulty:5.6
ApproachRate:6.8
SliderMultiplier:1.4
SliderTickRate:1

[Events]
//Background and Video events
0,0,"BG.jpg",0,0
//Break Periods
//Storyboard Layer 0 (Background)
//Storyboard Layer 1 (Fail)
//Storyboard Layer 2 (Pass)
//Storyboard Layer 3 (Foreground)
//Storyboard Sound Samples

[TimingPoints]
786,422.535211267606,4,2,1,40,1,0
786,-125,4,2,1,40,0,0
12405,-125,4,2,1,5,0,0
12616,-100,4,2,1,70,0,1
12722,-100,4,2,1,70,0,0
32898,-100,4,2,1,60,0,0
46419,-100,4,2,1,70,0,0
58250,-100,4,2,1,74,0,0
58673,-100,4,2,1,78,0,0
59095,-100,4,2,1,82,0,0
59518,-100,4,2,1,86,0,0
59940,-100,4,2,1,60,0,0
61631,-90.90909090909,4,2,1,80,0,1
73462,-90.90909090909,4,2,1,82,0,1
73884,-90.90909090909,4,2,1,84,0,1
74307,-90.90909090909,4,2,1,86,0,1
74729,-90.90909090909,4,2,1,88,0,1
75046,-90.90909090909,4,2,1,88,0,0
75152,-90.90909090909,4,2,1,80,0,1
86983,-125,4,2,1,60,0,0
90363,-100,4,2,1,70,0,1
90469,-100,4,2,1,70,0,0
111384,-100,4,2,1,45,0,0
112335,-100,4,2,1,40,0,0
114025,-100,4,2,1,35,0,0
115715,-100,4,2,1,30,0,0
117405,-100,4,2,1,25,0,0
119095,-100,4,2,1,20,0,0
120786,-100,4,2,1,5,0,0

[Colours]
Combo1 : 255,128,192
Combo2 : 255,128,64
Combo3 : 0,128,255
Combo4 : 255,64,64
Combo5 : 192,64,192
Combo6 : 255,255,64
Combo7 : 96,255,64
Combo8 : 96,128,192

[HitObjects]
155,40,4166,6,0,P|132:90|138:145,1,112,0|0,3:2|0:0,0:0:0:0:
290,218,5011,2,0,P|295:162|273:112,1,112,0|0,3:2|0:0,0:0:0:0:
182,253,5856,6,0,L|192:364,1,112,0|0,3:2|0:0,0:0:0:0:
353,318,6701,2,0,L|364:206,1,112,0|0,3:2|0:0,0:0:0:0:
218,122,7546,6,0,P|162:116|112:138,1,112,0|0,3:2|0:0,0:0:0:0:
89,304,8391,1,0,0:0:0:0:
165,339,8602,2,0,L|220:334,2,56,0|0|0,3:2|3:2|3:2,0:0:0:0:
246,361,9236,6,0,L|256:250,1,112,0|0,0:0|0:0,0:0:0:0:
308,183,9870,2,0,P|327:203|338:228,1,56,0|0,3:2|0:0,0:0:0:0:
223,170,10293,2,0,P|231:144|248:122,1,56,0|0,3:2|0:0,0:0:0:0:
256,250,10715,2,0,P|230:257|201:253,1,56,0|0,3:2|3:2,0:0:0:0:
256,192,11032,12,0,12194,0:0:0:0:
201,252,12616,6,0,L|191:356,1,105,14|0,3:2|0:0,0:0:0:0:
226,352,13039,2,0,L|295:345,1,70,8|0,0:0|0:0,0:0:0:0:
359,240,13462,2,0,L|289:246,1,70,2|0,3:2|0:0,0:0:0:0:
365,317,13884,2,0,L|434:310,1,70,8|0,0:0|0:0,0:0:0:0:
489,199,14307,6,0,P|490:146|468:99,1,105,2|0,3:2|0:0,0:0:0:0:
433,94,14729,2,0,L|363:88,1,70,8|0,0:0|0:0,0:0:0:0:
241,81,15152,2,0,P|240:116|254:147,1,70,2|0,3:2|0:0,0:0:0:0:
341,205,15574,2,0,P|341:240|327:271,1,70,8|2,0:0|0:0,0:0:0:0:
200,332,15997,6,0,L|190:228,1,105,2|0,3:2|0:0,0:0:0:0:
155,231,16419,2,0,L|86:238,1,70,8|0,0:0|0:0,0:0:0:0:
20,155,16842,1,2,0:0:0:0:
65,60,17053,2,0,L|134:53,2,70,0|8|0,3:2|3:2|3:2,0:0:0:0:
157,141,17687,6,0,L|226:148,1,70,2|0,0:0|0:0,0:0:0:0:
325,75,18109,2,0,L|256:68,1,70,8|0,0:0|0:0,0:0:0:0:
334,162,18532,2,0,L|403:169,1,70,2|0,0:0|0:0,0:0:0:0:
325,75,18955,1,8,3:2:0:0:
281,212,19166,1,2,0:0:0:0:
281,212,19271,1,2,0:0:0:0:
281,212,19377,6,0,P|274:263|285:316,1,105,10|0,3:2|0:0,0:0:0:0:
319,319,19800,2,0,L|388:326,1,70,8|0,0:0|0:0,0:0:0:0:
227,265,20222,2,0,L|158:272,1,70,2|0,3:2|0:0,0:0:0:0:
64,319,20645,2,0,P|54:285|56:250,1,70,8|0,0:0|0:0,0:0:0:0:
137,160,21067,6,0,L|33:150,1,105,2|0,3:2|0:0,0:0:0:0:
48,182,21490,2,0,P|57:216|55:251,1,70,8|0,0:0|0:0,0:0:0:0:
137,160,21912,2,0,P|134:126|144:92,1,70,2|0,3:2|0:0,0:0:0:0:
180,226,22335,2,0,L|173:295,1,70,8|2,0:0|0:0,0:0:0:0:
137,160,22757,6,0,P|187:149|234:170,1,105,2|0,3:2|0:0,0:0:0:0:
258,196,23180,2,0,L|327:189,1,70,8|0,0:0|0:0,0:0:0:0:
432,178,23602,1,2,0:0:0:0:
422,73,23814,2,0,L|415:4,2,70,0|8|0,3:2|3:2|3:2,0:0:0:0:
328,189,24447,6,0,P|293:193|261:182,1,70,2|0,0:0|0:0,0:0:0:0:
275,56,24870,2,0,P|295:84|302:117,1,70,8|0,0:0|0:0,0:0:0:0:
187,169,25293,2,0,P|201:136|226:114,1,70,2|0,0:0|0:0,0:0:0:0:
328,189,25715,1,8,3:2:0:0:
318,294,25926,1,2,3:2:0:0:
318,294,26032,1,2,0:0:0:0:
318,294,26138,6,0,L|311:363,1,70,2|0,0:0|0:0,0:0:0:0:
206,355,26560,2,0,L|137:348,1,70,8|0,3:2|3:2,0:0:0:0:
42,303,26983,1,2,3:2:0:0:
144,279,27194,1,0,3:2:0:0:
144,279,27300,1,0,0:0:0:0:
144,279,27405,2,0,P|146:313|137:347,1,70,8|0,3:2|3:2,0:0:0:0:
77,220,27828,6,0,L|70:151,1,70,2|0,3:2|0:0,0:0:0:0:
93,48,28250,1,8,0:0:0:0:
138,143,28462,2,0,P|104:152|69:150,1,70,0|2,3:2|3:2,0:0:0:0:
180,64,28884,2,0,P|214:55|249:57,2,70,0|8|2,3:2|3:2|3:2,0:0:0:0:
279,124,29518,6,0,L|348:117,1,70,2|0,3:2|0:0,0:0:0:0:
411,33,29940,2,0,L|342:40,1,70,8|0,3:2|3:2,0:0:0:0:
279,124,30363,1,2,3:2:0:0:
356,194,30574,1,0,3:2:0:0:
356,194,30680,1,0,0:0:0:0:
356,194,30786,2,0,L|425:187,1,70,8|0,3:2|3:2,0:0:0:0:
279,124,31208,6,0,L|272:193,1,70,2|0,3:2|0:0,0:0:0:0:
169,169,31631,2,0,L|176:238,1,70,8|0,0:0|0:0,0:0:0:0:
279,353,32053,2,0,L|272:284,1,70,2|0,3:2|0:0,0:0:0:0:
176,328,32476,1,8,3:2:0:0:
176,328,32581,1,2,0:0:0:0:
176,328,32687,1,2,0:0:0:0:
272,194,32898,5,10,3:2:0:0:
272,194,33321,2,0,P|307:198|335:218,1,70,8|0,3:2|0:0,0:0:0:0:
377,314,33743,1,2,0:0:0:0:
279,353,33955,2,0,L|210:346,1,70,0|8,3:2|0:0,0:0:0:0:
129,278,34377,2,0,L|60:285,1,70,0|2,3:2|0:0,0:0:0:0:
124,367,34800,5,0,0:0:0:0:
214,257,35011,2,0,P|200:226|174:203,1,70,8|0,0:0|3:2,0:0:0:0:
209,346,35433,2,0,L|278:339,1,70,2|0,3:2|0:0,0:0:0:0:
129,278,35856,2,0,L|60:285,1,70,8|0,3:2|0:0,0:0:0:0:
117,151,36278,6,0,P|180:127|238:164,2,140,2|8|2,3:2|3:2|0:0,0:0:0:0:
166,271,37335,2,0,P|174:238|173:203,1,70,0|8,3:2|0:0,0:0:0:0:
93,303,37757,6,0,L|232:317,1,140,0|0,3:2|0:0,0:0:0:0:
328,362,38391,2,0,P|337:328|335:293,1,70,8|0,3:2|0:0,0:0:0:0:
235,195,38814,2,0,L|131:205,1,105,2|0,3:2|0:0,0:0:0:0:
96,209,39236,1,8,3:2:0:0:
178,151,39447,1,2,0:0:0:0:
192,291,39659,5,6,3:2:0:0:
192,291,40081,2,0,L|199:360,1,70,8|0,3:2|0:0,0:0:0:0:
95,373,40504,1,2,0:0:0:0:
67,270,40715,2,0,P|75:236|96:209,1,70,0|8,3:2|0:0,0:0:0:0:
172,135,41138,2,0,P|194:163|201:196,1,70,0|2,3:2|0:0,0:0:0:0:
96,209,41560,5,0,0:0:0:0:
104,69,41771,2,0,P|132:47|165:40,1,70,8|0,0:0|3:2,0:0:0:0:
242,135,42194,2,0,L|172:135,1,70,2|0,3:2|0:0,0:0:0:0:
248,40,42616,2,0,P|282:48|309:69,1,70,8|0,3:2|0:0,0:0:0:0:
345,205,43039,6,0,P|278:193|242:135,1,140,2|8,3:2|3:2,0:0:0:0:
341,100,43673,1,0,0:0:0:0:
427,197,43884,2,0,L|420:266,1,70,2|0,0:0|3:2,0:0:0:0:
345,205,44307,1,8,0:0:0:0:
507,188,44518,6,0,L|493:327,1,140,0|0,3:2|0:0,0:0:0:0:
354,281,45152,2,0,P|385:266|420:267,1,70,8|0,3:2|0:0,0:0:0:0:
316,362,45574,2,0,P|287:342|270:311,1,70,2|0,3:2|0:0,0:0:0:0:
404,356,45997,1,8,3:2:0:0:
404,356,46102,1,2,0:0:0:0:
404,356,46208,1,2,0:0:0:0:
390,217,46419,6,0,L|376:78,1,140,6|8,3:2|0:0,0:0:0:0:
275,48,47053,1,0,3:2:0:0:
188,107,47264,2,0,P|153:108|119:99,1,70,2|0,3:2|3:2,0:0:0:0:
37,34,47687,1,8,3:2:0:0:
48,138,47898,1,0,3:2:0:0:
59,242,48109,6,0,B|95:251|95:251|197:240,1,140,2|8,3:2|3:2,0:0:0:0:
242,145,48743,2,0,P|208:136|173:138,1,70,0|2,3:2|3:2,0:0:0:0:
284,224,49166,1,0,0:0:0:0:
359,151,49377,2,0,L|352:82,1,70,8|0,3:2|0:0,0:0:0:0:
284,224,49800,6,0,L|298:363,1,140,2|8,3:2|3:2,0:0:0:0:
401,384,50433,1,0,3:2:0:0:
476,310,50645,2,0,L|469:241,1,70,2|0,3:2|0:0,0:0:0:0:
381,185,51067,1,8,3:2:0:0:
284,224,51278,1,0,0:0:0:0:
187,263,51490,6,0,B|151:272|151:272|49:261,1,140,2|8,3:2|3:2,0:0:0:0:
28,364,52124,2,0,L|97:371,1,70,0|2,3:2|3:2,0:0:0:0:
187,263,52546,1,0,0:0:0:0:
244,351,52757,2,0,L|313:358,1,70,8|0,3:2|0:0,0:0:0:0:
187,263,53180,6,0,L|48:249,1,140,2|8,3:2|3:2,0:0:0:0:
14,150,53814,1,0,3:2:0:0:
85,73,54025,2,0,P|115:117|118:167,1,105,2|0,3:2|0:0,0:0:0:0:
112,202,54447,2,0,L|181:195,1,70,8|0,3:2|0:0,0:0:0:0:
286,185,54870,6,0,L|293:254,1,70,2|0,3:2|0:0,0:0:0:0:
387,150,55293,2,0,L|380:81,1,70,8|0,3:2|3:2,0:0:0:0:
359,219,55715,2,0,P|393:224|426:212,1,70,2|0,3:2|0:0,0:0:0:0:
314,116,56138,2,0,P|280:111|247:123,1,70,8|0,3:2|0:0,0:0:0:0:
387,149,56560,6,0,P|385:82|331:37,1,140,6|8,0:0|0:0,0:0:0:0:
247,123,57194,1,0,0:0:0:0:
309,229,57405,2,0,L|448:243,1,140,2|8,0:0|0:0,0:0:0:0:
387,149,58039,1,0,0:0:0:0:
375,271,58250,6,0,L|368:340,1,70,8|0,0:0|0:0,0:0:0:0:
266,220,58673,2,0,L|277:288,1,70,8|0,0:0|0:0,0:0:0:0:
147,198,59095,2,0,L|175:261,1,70,8|0,0:0|0:0,0:0:0:0:
27,208,59518,2,0,L|70:261,1,70,8|0,0:0|0:0,0:0:0:0:
157,106,59940,6,0,P|105:110|69:147,1,105,2|2,0:0|0:0,0:0:0:0:
162,345,60574,2,0,P|213:341|249:304,1,105,2|2,0:0|0:0,0:0:0:0:
257,269,60997,2,0,L|326:276,1,70,0|2,3:2|3:2,0:0:0:0:
175,262,61419,1,0,3:2:0:0:
175,262,61525,1,0,0:0:0:0:
175,262,61631,6,0,P|147:194|163:117,1,154.000004699707,6|8,0:0|0:0,0:0:0:0:
236,28,62264,1,0,0:0:0:0:
270,139,62476,2,0,P|213:144|162:117,1,115.50000352478,2|0,3:2|0:0,0:0:0:0:
130,97,62898,2,0,L|123:173,1,77.0000023498536,8|0,0:0|0:0,0:0:0:0:
114,289,63321,6,0,P|131:218|200:219,1,154.000004699707,2|8,0:0|0:0,0:0:0:0:
298,282,63955,1,0,0:0:0:0:
225,371,64166,2,0,L|149:364,1,77.0000023498536,2|0,3:2|0:0,0:0:0:0:
200,219,64588,1,8,0:0:0:0:
335,212,64800,1,0,0:0:0:0:
335,212,64905,1,0,0:0:0:0:
335,212,65011,6,0,P|376:274|348:342,1,154.000004699707,2|8,0:0|0:0,0:0:0:0:
225,371,65645,1,0,0:0:0:0:
191,261,65856,2,0,P|247:255|298:282,1,115.50000352478,2|0,3:2|0:0,0:0:0:0:
323,310,66278,2,0,L|330:234,1,77.0000023498536,8|0,0:0|0:0,0:0:0:0:
443,206,66701,6,0,L|428:358,1,154.000004699707,2|8,0:0|0:0,0:0:0:0:
323,310,67335,1,0,0:0:0:0:
220,363,67546,2,0,L|144:356,1,77.0000023498536,2|0,3:2|0:0,0:0:0:0:
39,307,67969,1,8,0:0:0:0:
151,281,68180,1,0,3:2:0:0:
151,281,68286,1,0,0:0:0:0:
151,281,68391,6,0,P|153:319|143:356,1,77.0000023498536,2|0,3:2|0:0,0:0:0:0:
77,216,68814,2,0,P|75:178|85:141,1,77.0000023498536,8|0,3:2|0:0,0:0:0:0:
155,49,69236,2,0,L|231:56,1,77.0000023498536,2|0,3:2|0:0,0:0:0:0:
317,135,69659,2,0,L|393:128,1,77.0000023498536,8|0,3:2|0:0,0:0:0:0:
463,36,70081,6,0,P|392:58|393:127,1,154.000004699707,2|8,3:2|3:2,0:0:0:0:
497,179,70715,2,0,P|510:141|507:105,1,77.0000023498536,0|2,3:2|0:0,0:0:0:0:
415,229,71138,2,0,P|441:259|474:274,1,77.0000023498536,0|8,3:2|0:0,0:0:0:0:
393,127,71560,6,0,B|353:118|353:118|241:129,1,154.000004699707,0|0,3:2|0:0,0:0:0:0:
125,141,72194,2,0,L|118:65,1,77.0000023498536,8|0,3:2|0:0,0:0:0:0:
240,129,72616,1,2,3:2:0:0:
156,209,72828,1,0,3:2:0:0:
232,51,73039,1,8,3:2:0:0:
331,196,73250,6,0,B|383:192|383:192|431:208|431:208|482:204,1,154.000004699707,4|0,3:2|3:2,0:0:0:0:
373,276,73884,2,0,L|380:352,1,77.0000023498536,8|0,3:2|3:2,0:0:0:0:
440,124,74307,2,0,L|433:48,1,77.0000023498536,2|0,3:2|3:2,0:0:0:0:
331,196,74729,1,8,3:2:0:0:
482,204,74940,1,2,3:2:0:0:
482,204,75046,1,2,0:0:0:0:
482,204,75152,6,0,P|506:140|440:124,1,154.000004699707,6|8,0:0|0:0,0:0:0:0:
331,196,75786,1,0,0:0:0:0:
296,306,75997,2,0,P|353:311|404:284,1,115.50000352478,2|0,3:2|0:0,0:0:0:0:
436,264,76419,2,0,L|443:340,1,77.0000023498536,8|0,0:0|0:0,0:0:0:0:
498,191,76842,6,0,P|426:167|362:203,1,154.000004699707,2|8,0:0|0:0,0:0:0:0:
436,264,77476,1,0,0:0:0:0:
426,149,77687,2,0,L|419:73,1,77.0000023498536,2|0,3:2|0:0,0:0:0:0:
316,19,78109,1,8,0:0:0:0:
219,82,78321,1,0,0:0:0:0:
219,82,78426,1,0,0:0:0:0:
219,82,78532,6,0,B|179:91|179:91|67:80,1,154.000004699707,2|8,0:0|0:0,0:0:0:0:
161,12,79166,1,0,0:0:0:0:
173,165,79377,2,0,L|59:154,1,115.50000352478,2|0,3:2|0:0,0:0:0:0:
19,150,79800,2,0,L|26:226,1,77.0000023498536,8|0,0:0|0:0,0:0:0:0:
37,341,80222,6,0,B|89:337|89:337|137:353|137:353|188:349,1,154.000004699707,2|8,0:0|0:0,0:0:0:0:
293,299,80856,1,0,0:0:0:0:
180,274,81067,2,0,P|178:312|188:349,1,77.0000023498536,2|0,3:2|0:0,0:0:0:0:
293,299,81490,1,8,0:0:0:0:
258,189,81701,1,0,0:0:0:0:
180,274,81912,6,0,P|124:286|73:264,1,115.50000352478,2|0,3:2|0:0,0:0:0:0:
39,244,82335,2,0,L|32:320,1,77.0000023498536,8|0,0:0|0:0,0:0:0:0:
135,180,82757,2,0,L|142:104,1,77.0000023498536,2|0,3:2|0:0,0:0:0:0:
29,129,83180,1,8,0:0:0:0:
39,244,83391,1,0,0:0:0:0:
135,180,83602,6,0,P|191:168|242:190,1,115.50000352478,2|0,3:2|0:0,0:0:0:0:
276,210,84025,2,0,L|283:134,1,77.0000023498536,8|0,0:0|0:0,0:0:0:0:
180,274,84447,2,0,L|173:350,1,77.0000023498536,2|0,3:2|0:0,0:0:0:0:
286,325,84870,1,8,0:0:0:0:
276,210,85081,1,0,0:0:0:0:
180,274,85293,6,0,P|124:286|73:264,1,115.50000352478,2|0,3:2|0:0,0:0:0:0:
39,244,85715,2,0,L|32:320,1,77.0000023498536,8|0,0:0|0:0,0:0:0:0:
135,180,86138,2,0,L|142:104,1,77.0000023498536,2|0,3:2|0:0,0:0:0:0:
29,129,86560,1,8,0:0:0:0:
39,244,86771,1,0,0:0:0:0:
135,180,86983,6,0,L|80:185,1,56,4|0,3:2|0:0,0:0:0:0:
306,294,87616,2,0,L|361:289,1,56,0|0,0:0|3:2,0:0:0:0:
246,237,88039,1,0,0:0:0:0:
283,372,88250,2,0,L|338:367,1,56,0|0,3:2|0:0,0:0:0:0:
205,324,88673,6,0,L|200:379,1,56,4|0,3:2|0:0,0:0:0:0:
368,192,89307,2,0,L|363:247,1,56,0|0,0:0|3:2,0:0:0:0:
311,132,89729,1,0,0:0:0:0:
445,169,89940,2,0,L|440:224,1,56,0|0,3:2|0:0,0:0:0:0:
311,132,90363,6,0,L|321:28,1,105,14|0,3:2|0:0,0:0:0:0:
286,32,90786,2,0,L|217:39,1,70,8|0,0:0|0:0,0:0:0:0:
153,144,91208,2,0,L|223:138,1,70,2|0,3:2|0:0,0:0:0:0:
147,67,91631,2,0,L|78:74,1,70,8|0,0:0|0:0,0:0:0:0:
23,185,92053,6,0,P|22:238|44:285,1,105,2|0,3:2|0:0,0:0:0:0:
79,290,92476,2,0,L|149:296,1,70,8|0,0:0|0:0,0:0:0:0:
271,303,92898,2,0,P|272:268|258:237,1,70,2|0,3:2|0:0,0:0:0:0:
171,179,93321,2,0,P|171:144|185:113,1,70,8|2,0:0|0:0,0:0:0:0:
309,46,93743,6,0,L|413:56,1,105,2|0,3:2|0:0,0:0:0:0:
410,91,94166,2,0,L|403:160,1,70,8|0,0:0|0:0,0:0:0:0:
392,265,94588,1,2,0:0:0:0:
307,202,94800,2,0,L|238:195,2,70,0|8|0,3:2|3:2|3:2,0:0:0:0:
296,306,95433,6,0,L|227:299,1,70,2|0,0:0|0:0,0:0:0:0:
128,372,95856,2,0,L|197:379,1,70,8|0,0:0|0:0,0:0:0:0:
119,285,96278,2,0,L|50:278,1,70,2|0,0:0|0:0,0:0:0:0:
128,372,96701,1,8,3:2:0:0:
172,235,96912,1,2,0:0:0:0:
172,235,97018,1,2,0:0:0:0:
172,235,97124,6,0,P|179:184|168:131,1,105,10|0,3:2|0:0,0:0:0:0:
134,128,97546,2,0,L|65:121,1,70,8|0,0:0|0:0,0:0:0:0:
226,182,97969,2,0,L|295:175,1,70,2|0,3:2|0:0,0:0:0:0:
380,233,98391,2,0,P|390:267|388:302,1,70,8|0,0:0|0:0,0:0:0:0:
286,279,98814,6,0,L|296:175,1,105,2|0,3:2|0:0,0:0:0:0:
267,194,99236,2,0,P|233:203|198:201,1,70,8|0,0:0|0:0,0:0:0:0:
140,114,99659,2,0,P|149:80|168:50,1,70,2|0,3:2|0:0,0:0:0:0:
273,43,100081,2,0,P|297:67|313:99,1,70,8|2,0:0|0:0,0:0:0:0:
267,194,100504,6,0,L|277:298,1,105,2|0,3:2|0:0,0:0:0:0:
280,333,100926,2,0,L|349:326,1,70,8|0,0:0|0:0,0:0:0:0:
444,370,101349,1,2,0:0:0:0:
434,265,101560,2,0,L|427:196,2,70,0|8|0,3:2|3:2|3:2,0:0:0:0:
350,326,102194,6,0,L|281:333,1,70,2|0,0:0|0:0,0:0:0:0:
248,232,102616,2,0,L|191:272,1,70,8|0,0:0|0:0,0:0:0:0:
112,201,103039,2,0,L|83:264,1,70,2|0,0:0|0:0,0:0:0:0:
190,173,103462,1,8,3:2:0:0:
102,102,103673,1,2,3:2:0:0:
102,102,103778,1,2,0:0:0:0:
102,102,103884,6,0,L|33:109,1,70,2|0,0:0|0:0,0:0:0:0:
148,31,104307,2,0,L|217:24,1,70,8|0,3:2|3:2,0:0:0:0:
320,50,104729,1,2,3:2:0:0:
225,93,104940,1,0,3:2:0:0:
225,93,105046,1,0,0:0:0:0:
225,93,105152,2,0,P|216:59|218:24,1,70,8|0,3:2|3:2,0:0:0:0:
302,136,105574,6,0,P|311:170|309:205,1,70,2|0,3:2|0:0,0:0:0:0:
278,305,105997,1,8,0:0:0:0:
182,347,106208,2,0,P|173:313|175:278,1,70,0|2,3:2|3:2,0:0:0:0:
201,176,106631,2,0,L|132:183,2,70,0|8|2,3:2|3:2|3:2,0:0:0:0:
309,205,107264,6,0,L|378:198,1,70,2|0,3:2|0:0,0:0:0:0:
441,114,107687,2,0,L|372:121,1,70,8|0,3:2|3:2,0:0:0:0:
309,205,108109,1,2,3:2:0:0:
386,275,108321,1,0,3:2:0:0:
386,275,108426,1,0,0:0:0:0:
386,275,108532,2,0,L|455:268,1,70,8|0,3:2|3:2,0:0:0:0:
309,205,108955,6,0,L|240:212,1,70,2|0,3:2|0:0,0:0:0:0:
205,63,109377,2,0,L|245:119,1,70,8|0,0:0|0:0,0:0:0:0:
135,224,109800,2,0,L|163:160,1,70,2|2,3:2|0:0,0:0:0:0:
309,205,110222,1,8,3:2:0:0:
309,205,110328,1,2,0:0:0:0:
309,205,110433,1,2,0:0:0:0:
251,292,110645,6,0,L|182:285,1,70,10|2,3:2|0:0,0:0:0:0:
309,205,111067,1,8,3:2:0:0:
315,355,111278,1,6,3:2:0:0:
256,192,111384,12,0,120786,0:0:0:0:
