osu file format v14

[General]
AudioFilename: Ayumi Miyazaki - brave heart~tri.Version~.mp3
AudioLeadIn: 0
PreviewTime: 61314
Countdown: 0
SampleSet: Soft
StackLeniency: 0.6
Mode: 0
LetterboxInBreaks: 0
EpilepsyWarning: 1
WidescreenStoryboard: 1

[Editor]
Bookmarks: 786,4166,10926,12616,19377,26138,32898,39659,46419,53180,59940,61631,68391,75152,81912,86983,90363,97124,103884,110645,117405,124166
DistanceSpacing: 2
BeatDivisor: 4
GridSize: 4
TimelineZoom: 1.4

[Metadata]
Title:brave heart~tri.Version~
TitleUnicode:brave heart~tri.Version~
Artist:Ayumi Miyazaki
ArtistUnicode:宮﨑歩
Creator:Kencho
Version:Digivolution
Source:デジモンアドベンチャー tri.
Tags:digimon adventure 15th Anniversary Project digivolve digital monster braveheart insert tv size short version kanor Pata-Mon Karen GIDZ -_G_I_D_Z_- yf_bmp
BeatmapID:1120086
BeatmapSetID:528037

[Difficulty]
HPDrainRate:6
CircleSize:4
OverallDifficulty:7.3
ApproachRate:8.2
SliderMultiplier:1.6
SliderTickRate:1

[Events]
//Background and Video events
0,0,"BG.jpg",0,0
//Break Periods
//Storyboard Layer 0 (Background)
//Storyboard Layer 1 (Fail)
//Storyboard Layer 2 (Pass)
//Storyboard Layer 3 (Foreground)
//Storyboard Sound Samples

[TimingPoints]
786,422.535211267606,4,2,1,40,1,0
786,-125,4,2,1,40,0,0
12405,-125,4,2,1,5,0,0
12616,-100,4,2,1,70,0,1
12722,-100,4,2,1,70,0,0
32898,-100,4,2,1,60,0,0
46419,-100,4,2,1,70,0,0
58250,-100,4,2,1,74,0,0
58673,-100,4,2,1,78,0,0
59095,-100,4,2,1,82,0,0
59518,-100,4,2,1,86,0,0
59940,-100,4,2,1,60,0,0
61631,-83.33333333333,4,2,1,80,0,1
73462,-83.33333333333,4,2,1,82,0,1
73884,-83.33333333333,4,2,1,84,0,1
74307,-83.33333333333,4,2,1,86,0,1
74729,-83.33333333333,4,2,1,88,0,1
75046,-83.33333333333,4,2,1,88,0,0
75152,-83.33333333333,4,2,1,80,0,1
86983,-125,4,2,1,60,0,0
90363,-100,4,2,1,70,0,1
90469,-100,4,2,1,70,0,0
111384,-100,4,2,1,45,0,0
112335,-100,4,2,1,40,0,0
114025,-100,4,2,1,35,0,0
115715,-100,4,2,1,30,0,0
117405,-100,4,2,1,25,0,0
119095,-100,4,2,1,20,0,0
120786,-100,4,2,1,5,0,0

[Colours]
Combo1 : 255,128,192
Combo2 : 255,128,64
Combo3 : 0,128,255
Combo4 : 255,64,64
Combo5 : 192,64,192
Combo6 : 255,255,64
Combo7 : 96,255,64
Combo8 : 96,128,192

[HitObjects]
118,249,4166,6,0,L|213:254,1,96,0|0,3:2|0:0,0:0:0:0:
252,256,4588,1,0,0:0:0:0:
376,173,4800,1,0,0:0:0:0:
376,173,4905,1,0,0:0:0:0:
376,173,5011,2,0,P|332:157|285:166,1,96,0|0,3:2|0:0,0:0:0:0:
256,192,5433,2,0,L|252:256,1,64,0|0,0:0|0:0,0:0:0:0:
343,75,5856,6,0,P|299:59|252:68,1,96,0|0,3:2|0:0,0:0:0:0:
223,94,6278,1,0,0:0:0:0:
118,249,6490,1,0,0:0:0:0:
118,249,6595,1,0,0:0:0:0:
118,249,6701,2,0,L|213:254,1,96,0|0,3:2|0:0,0:0:0:0:
252,256,7124,2,0,L|256:192,1,64,0|0,0:0|0:0,0:0:0:0:
154,43,7546,6,0,P|138:87|147:134,1,96,0|0,3:2|0:0,0:0:0:0:
173,163,7969,1,0,0:0:0:0:
252,256,8180,1,0,0:0:0:0:
252,256,8286,1,0,0:0:0:0:
252,256,8391,1,0,0:0:0:0:
133,228,8602,1,0,3:2:0:0:
246,180,8814,1,0,3:2:0:0:
183,284,9025,1,0,3:2:0:0:
173,163,9236,6,0,P|198:122|241:105,1,96,0|0,0:0|0:0,0:0:0:0:
280,108,9659,1,0,0:0:0:0:
252,256,9870,2,0,L|188:252,1,64,0|0,3:2|0:0,0:0:0:0:
376,113,10293,2,0,L|440:117,1,64,0|0,3:2|0:0,0:0:0:0:
348,261,10715,1,0,3:2:0:0:
280,108,10926,5,0,3:2:0:0:
256,192,11032,12,0,12405,0:0:0:0:
280,108,12616,6,0,L|273:227,1,120,14|0,3:2|0:0,0:0:0:0:
268,308,13039,1,8,0:0:0:0:
115,261,13250,1,0,0:0:0:0:
115,261,13356,1,0,0:0:0:0:
115,261,13462,2,0,L|122:142,1,120,2|0,3:2|0:0,0:0:0:0:
200,122,13884,2,0,L|195:202,1,80,8|0,0:0|0:0,0:0:0:0:
149,60,14307,6,0,P|203:41|258:67,1,120,2|0,3:2|0:0,0:0:0:0:
200,122,14729,1,8,0:0:0:0:
62,256,14940,1,0,0:0:0:0:
62,256,15046,1,0,0:0:0:0:
62,256,15152,2,0,L|55:137,1,120,2|0,3:2|0:0,0:0:0:0:
50,56,15574,1,8,0:0:0:0:
193,242,15786,1,2,0:0:0:0:
193,242,15891,1,2,0:0:0:0:
193,242,15997,6,0,L|200:123,1,120,2|0,3:2|0:0,0:0:0:0:
205,42,16419,1,8,0:0:0:0:
109,193,16631,1,0,0:0:0:0:
109,193,16736,1,0,0:0:0:0:
109,193,16842,1,2,0:0:0:0:
277,291,17053,2,0,L|279:251,1,40,0|0,3:2|0:0,0:0:0:0:
284,171,17264,1,8,3:2:0:0:
193,242,17476,1,0,3:2:0:0:
361,340,17687,6,0,P|400:341|438:327,1,80,2|0,0:0|0:0,0:0:0:0:
393,218,18109,1,8,0:0:0:0:
284,171,18321,1,0,0:0:0:0:
284,171,18426,1,0,0:0:0:0:
284,171,18532,2,0,P|270:208|271:247,1,80,2|0,0:0|0:0,0:0:0:0:
380,100,18955,1,8,3:2:0:0:
209,137,19166,1,2,0:0:0:0:
209,137,19271,1,2,0:0:0:0:
209,137,19377,6,0,P|188:193|190:253,1,120,10|0,3:2|0:0,0:0:0:0:
271,248,19800,1,8,0:0:0:0:
146,347,20011,1,0,0:0:0:0:
146,347,20116,1,0,0:0:0:0:
146,347,20222,2,0,B|114:355|114:355|27:344,1,120,2|0,3:2|0:0,0:0:0:0:
27,263,20645,2,0,L|106:274,1,80,8|0,0:0|0:0,0:0:0:0:
234,370,21067,6,0,P|224:311|248:257,1,120,2|0,3:2|0:0,0:0:0:0:
302,196,21490,1,8,0:0:0:0:
434,358,21701,1,0,0:0:0:0:
434,358,21807,1,0,0:0:0:0:
434,358,21912,2,0,L|315:365,1,120,2|0,3:2|0:0,0:0:0:0:
234,370,22335,1,8,0:0:0:0:
422,203,22546,1,2,0:0:0:0:
422,203,22652,1,2,0:0:0:0:
422,203,22757,6,0,L|303:196,1,120,2|0,3:2|0:0,0:0:0:0:
222,191,23180,1,8,0:0:0:0:
358,280,23391,1,0,0:0:0:0:
358,280,23497,1,0,0:0:0:0:
358,280,23602,1,2,0:0:0:0:
367,120,23814,2,0,L|327:118,1,40,0|0,3:2|0:0,0:0:0:0:
247,113,24025,1,8,3:2:0:0:
422,203,24236,1,0,3:2:0:0:
372,40,24447,6,0,L|367:120,1,80,2|0,0:0|0:0,0:0:0:0:
422,203,24870,1,8,0:0:0:0:
247,113,25081,1,0,0:0:0:0:
247,113,25187,1,0,0:0:0:0:
247,113,25293,2,0,L|252:193,1,80,2|0,0:0|0:0,0:0:0:0:
197,276,25715,1,8,3:2:0:0:
422,203,25926,1,2,3:2:0:0:
422,203,26032,1,2,0:0:0:0:
422,203,26138,5,2,0:0:0:0:
247,113,26349,1,0,0:0:0:0:
417,123,26560,1,8,3:2:0:0:
252,193,26771,1,0,3:2:0:0:
327,34,26983,1,2,3:2:0:0:
342,282,27194,1,0,3:2:0:0:
342,282,27300,1,0,0:0:0:0:
342,282,27405,2,0,L|347:362,1,80,8|0,3:2|3:2,0:0:0:0:
252,193,27828,6,0,P|287:176|327:176,1,80,2|0,3:2|0:0,0:0:0:0:
174,279,28250,1,8,0:0:0:0:
164,118,28462,2,0,L|159:38,1,80,0|2,3:2|3:2,0:0:0:0:
252,193,28884,1,0,3:2:0:0:
86,204,29095,1,8,3:2:0:0:
325,136,29307,2,0,L|327:176,1,40,2|2,3:2|0:0,0:0:0:0:
332,256,29518,5,2,3:2:0:0:
320,55,29729,1,0,0:0:0:0:
252,193,29940,1,8,3:2:0:0:
419,81,30152,1,0,3:2:0:0:
221,29,30363,1,2,3:2:0:0:
332,256,30574,1,0,3:2:0:0:
332,256,30680,1,0,0:0:0:0:
332,256,30786,2,0,P|350:218|353:181,1,80,8|0,3:2|3:2,0:0:0:0:
157,232,31208,6,0,P|139:270|136:307,1,80,2|0,3:2|0:0,0:0:0:0:
252,193,31631,1,8,0:0:0:0:
70,219,31842,1,0,0:0:0:0:
237,295,32053,1,2,3:2:0:0:
168,103,32264,1,0,0:0:0:0:
131,358,32476,1,8,3:2:0:0:
131,358,32581,1,2,0:0:0:0:
131,358,32687,1,2,0:0:0:0:
266,91,32898,6,0,L|346:80,1,80,10|0,3:2|0:0,0:0:0:0:
390,234,33321,1,8,3:2:0:0:
252,193,33532,1,0,0:0:0:0:
404,143,33743,1,2,0:0:0:0:
314,276,33955,2,0,P|278:292|239:295,1,80,0|8,3:2|0:0,0:0:0:0:
190,110,34377,2,0,P|226:94|266:91,1,80,0|2,3:2|0:0,0:0:0:0:
148,183,34800,5,0,0:0:0:0:
217,26,35011,1,8,0:0:0:0:
252,193,35222,1,0,3:2:0:0:
125,79,35433,1,2,3:2:0:0:
297,97,35645,1,0,0:0:0:0:
109,115,35856,1,8,3:2:0:0:
308,61,36067,1,0,0:0:0:0:
159,262,36278,6,0,L|148:182,1,80,2|0,3:2|0:0,0:0:0:0:
262,353,36701,2,0,L|273:273,1,80,8|0,3:2|0:0,0:0:0:0:
174,356,37124,1,2,0:0:0:0:
351,293,37335,1,0,3:2:0:0:
252,193,37546,1,8,0:0:0:0:
343,384,37757,2,0,P|382:377|416:357,1,80,0|2,3:2|0:0,0:0:0:0:
376,177,38180,5,0,0:0:0:0:
245,276,38391,2,0,P|248:316|262:353,1,80,8|0,3:2|0:0,0:0:0:0:
359,254,38814,2,0,P|373:216|376:176,1,80,2|0,3:2|3:2,0:0:0:0:
374,153,39131,1,0,0:0:0:0:
367,130,39236,1,8,3:2:0:0:
448,290,39447,1,2,0:0:0:0:
262,353,39659,6,0,L|182:342,1,80,6|0,3:2|0:0,0:0:0:0:
86,191,40081,2,0,L|166:180,1,80,8|0,3:2|0:0,0:0:0:0:
39,284,40504,1,2,0:0:0:0:
49,121,40715,2,0,L|129:110,1,80,0|8,3:2|0:0,0:0:0:0:
299,283,41138,2,0,L|219:272,1,80,0|2,3:2|0:0,0:0:0:0:
359,213,41560,5,0,0:0:0:0:
290,370,41771,1,8,0:0:0:0:
255,203,41983,1,0,3:2:0:0:
382,317,42194,1,2,3:2:0:0:
210,299,42405,1,0,0:0:0:0:
398,281,42616,1,8,3:2:0:0:
199,335,42828,1,0,0:0:0:0:
342,136,43039,6,0,P|356:174|359:214,1,80,2|0,3:2|0:0,0:0:0:0:
241,73,43462,2,0,P|227:111|224:151,1,80,8|0,3:2|0:0,0:0:0:0:
331,57,43884,1,2,0:0:0:0:
160,96,44095,1,0,3:2:0:0:
342,136,44307,1,8,0:0:0:0:
171,17,44518,2,0,L|160:97,1,80,0|2,3:2|0:0,0:0:0:0:
143,215,44940,5,0,0:0:0:0:
331,57,45152,2,0,L|251:68,1,80,8|0,3:2|0:0,0:0:0:0:
374,274,45574,2,0,L|454:263,1,80,2|0,3:2|0:0,0:0:0:0:
259,75,45997,1,8,3:2:0:0:
259,75,46102,1,2,0:0:0:0:
259,75,46208,1,2,0:0:0:0:
51,226,46419,6,0,B|104:238|104:238|155:226|155:226|207:238,1,160,6|8,3:2|0:0,0:0:0:0:
306,175,47053,2,0,L|268:184,1,40,0|0,3:2|0:0,0:0:0:0:
207,238,47264,2,0,P|188:202|190:163,1,80,2|0,3:2|3:2,0:0:0:0:
324,272,47687,1,8,3:2:0:0:
179,363,47898,1,0,3:2:0:0:
190,164,48109,6,0,L|199:5,1,160,2|8,3:2|3:2,0:0:0:0:
352,76,48743,2,0,L|350:116,1,40,0|0,3:2|0:0,0:0:0:0:
271,134,48955,2,0,L|275:54,1,80,2|0,3:2|0:0,0:0:0:0:
347,197,49377,1,8,3:2:0:0:
190,164,49588,1,0,0:0:0:0:
324,272,49800,6,0,B|363:283|363:283|428:263|433:197,1,160,2|8,3:2|3:2,0:0:0:0:
297,124,50433,2,0,L|258:134,1,40,0|0,3:2|0:0,0:0:0:0:
212,200,50645,2,0,L|207:280,1,80,2|0,3:2|0:0,0:0:0:0:
297,124,51067,1,8,3:2:0:0:
137,114,51278,1,0,0:0:0:0:
347,197,51490,6,0,P|385:128|356:57,1,160,2|8,3:2|3:2,0:0:0:0:
212,200,52124,2,0,L|210:240,1,40,0|0,3:2|0:0,0:0:0:0:
206,321,52335,2,0,L|286:317,1,80,2|0,3:2|0:0,0:0:0:0:
212,200,52757,1,8,3:2:0:0:
126,324,52969,1,0,0:0:0:0:
303,224,53180,6,0,P|382:222|442:273,1,160,2|8,3:2|3:2,0:0:0:0:
286,317,53814,1,0,3:2:0:0:
212,200,54025,2,0,P|198:139|205:81,1,120,2|0,3:2|0:0,0:0:0:0:
283,72,54447,2,0,L|204:83,1,80,8|0,3:2|0:0,0:0:0:0:
354,24,54870,6,0,P|369:61|364:100,1,80,2|0,3:2|0:0,0:0:0:0:
326,247,55293,2,0,P|311:209|316:170,1,80,8|0,3:2|3:2,0:0:0:0:
476,188,55715,2,0,L|397:199,1,80,2|0,3:2|0:0,0:0:0:0:
204,83,56138,2,0,L|283:72,1,80,8|0,3:2|0:0,0:0:0:0:
157,193,56560,6,0,L|315:171,1,160,6|8,0:0|0:0,0:0:0:0:
204,83,57194,1,0,0:0:0:0:
195,267,57405,2,0,L|274:256,1,80,2|0,0:0|0:0,0:0:0:0:
157,193,57828,1,8,0:0:0:0:
233,341,58039,1,0,0:0:0:0:
315,171,58250,5,8,0:0:0:0:
220,372,58462,1,0,0:0:0:0:
235,133,58673,1,8,0:0:0:0:
436,228,58884,1,0,0:0:0:0:
197,213,59095,1,8,0:0:0:0:
292,12,59307,1,0,0:0:0:0:
277,251,59518,1,8,0:0:0:0:
76,156,59729,1,0,0:0:0:0:
395,132,59940,6,0,L|434:129,2,40,2|0|0,0:0|0:0|0:0,0:0:0:0:
361,215,60257,2,0,L|400:212,2,40,2|0|0,0:0|0:0|0:0,0:0:0:0:
327,298,60574,2,0,L|366:295,2,40,2|0|0,0:0|0:0|0:0,0:0:0:0:
250,235,60891,1,2,0:0:0:0:
248,219,60997,6,0,L|245:180,1,40,0|0,3:2|0:0,0:0:0:0:
182,310,61208,2,0,L|185:349,1,40,2|0,3:2|0:0,0:0:0:0:
103,247,61419,1,0,3:2:0:0:
94,230,61525,1,0,0:0:0:0:
87,212,61631,6,0,P|96:120|176:75,1,191.999994140625,6|8,0:0|0:0,0:0:0:0:
312,147,62264,1,0,0:0:0:0:
305,282,62476,2,0,B|266:303|266:303|166:297,1,143.999995605469,2|0,3:2|0:0,0:0:0:0:
103,247,62898,2,0,P|87:293|97:337,1,95.99999707031,8|0,0:0|0:0,0:0:0:0:
385,311,63321,6,0,P|417:218|397:130,1,191.9999941406,2|8,0:0|0:0,0:0:0:0:
168,190,63955,1,0,0:0:0:0:
289,313,64166,1,2,3:2:0:0:
228,81,64377,1,0,0:0:0:0:
108,299,64588,1,8,0:0:0:0:
336,229,64800,1,0,0:0:0:0:
353,220,64905,1,0,0:0:0:0:
370,211,65011,6,0,P|403:124|355:44,1,191.999994140625,2|8,0:0|0:0,0:0:0:0:
174,122,65645,1,0,0:0:0:0:
259,238,65856,2,0,L|401:229,1,143.9999956055,2|0,3:2|0:0,0:0:0:0:
385,308,66278,2,0,L|289:313,1,95.99999707031,8|0,0:0|0:0,0:0:0:0:
342,83,66701,6,0,P|416:140|403:228,1,191.999994140625,2|8,0:0|0:0,0:0:0:0:
259,238,67335,1,0,0:0:0:0:
195,88,67546,1,2,3:2:0:0:
335,171,67757,1,0,0:0:0:0:
172,187,67969,1,8,0:0:0:0:
294,79,68180,1,0,3:2:0:0:
318,81,68286,1,0,0:0:0:0:
342,83,68391,6,0,L|438:93,1,95.99999707031,2|0,3:2|0:0,0:0:0:0:
209,24,68814,2,0,P|196:69|201:117,1,95.9999970703126,8|0,3:2|0:0,0:0:0:0:
303,360,69236,2,0,P|316:315|311:267,1,95.9999970703126,2|0,3:2|0:0,0:0:0:0:
74,291,69659,2,0,L|170:301,1,95.99999707031,8|0,3:2|0:0,0:0:0:0:
201,117,70081,6,0,P|172:154|167:201,1,95.99999707031,2|0,3:2|0:0,0:0:0:0:
343,157,70504,1,8,3:2:0:0:
212,28,70715,2,0,P|164:34|129:64,1,95.99999707031,0|2,3:2|0:0,0:0:0:0:
343,157,71138,1,0,3:2:0:0:
296,1,71349,1,8,0:0:0:0:
272,230,71560,6,0,L|262:326,1,95.99999707031,0|2,3:2|0:0,0:0:0:0:
343,157,71983,1,0,0:0:0:0:
167,202,72194,1,8,3:2:0:0:
351,318,72405,1,0,0:0:0:0:
140,185,72616,5,2,3:2:0:0:
428,212,72828,1,0,3:2:0:0:
193,342,73039,1,8,3:2:0:0:
321,84,73250,6,0,P|369:85|406:115,1,95.9999970703126,4|2,3:2|3:2,0:0:0:0:
351,318,73673,1,0,3:2:0:0:
140,185,73884,1,8,3:2:0:0:
341,240,74095,1,0,3:2:0:0:
129,270,74307,1,2,3:2:0:0:
331,162,74518,1,0,3:2:0:0:
118,355,74729,1,8,3:2:0:0:
321,84,74940,1,2,3:2:0:0:
345,68,75046,1,2,0:0:0:0:
374,66,75152,6,0,P|446:122|432:212,1,191.999994140625,6|8,0:0|0:0,0:0:0:0:
299,292,75786,1,0,0:0:0:0:
229,178,75997,2,0,B|268:157|268:157|368:163,1,143.999995605469,2|0,3:2|0:0,0:0:0:0:
431,213,76419,2,0,P|447:167|437:123,1,95.99999707031,8|0,0:0|0:0,0:0:0:0:
140,85,76842,6,0,L|152:275,1,191.9999941406,2|8,0:0|0:0,0:0:0:0:
226,129,77476,1,0,0:0:0:0:
60,138,77687,1,2,3:2:0:0:
232,225,77898,1,0,0:0:0:0:
140,85,78109,1,8,0:0:0:0:
66,234,78321,1,0,0:0:0:0:
60,257,78426,1,0,0:0:0:0:
57,281,78532,6,0,B|108:308|108:308|242:300,1,191.999994140625,2|8,0:0|0:0,0:0:0:0:
344,199,79166,1,0,0:0:0:0:
259,32,79377,2,0,P|207:78|204:148,1,143.999995605469,2|0,3:2|0:0,0:0:0:0:
232,225,79800,2,0,L|136:230,1,95.99999707031,8|0,0:0|0:0,0:0:0:0:
395,96,80222,6,0,P|445:176|435:270,1,191.9999941406,2|8,0:0|0:0,0:0:0:0:
248,315,80856,1,0,0:0:0:0:
293,89,81067,1,2,3:2:0:0:
332,250,81278,1,0,0:0:0:0:
190,69,81490,1,8,0:0:0:0:
377,24,81701,1,0,0:0:0:0:
208,195,81912,6,0,P|138:186|84:139,1,143.999995605469,2|0,3:2|0:0,0:0:0:0:
89,43,82335,2,0,L|84:139,1,95.9999970703126,8|0,0:0|0:0,0:0:0:0:
190,69,82757,1,2,3:2:0:0:
12,144,82969,1,0,0:0:0:0:
208,195,83180,1,8,0:0:0:0:
89,43,83391,1,0,0:0:0:0:
193,280,83602,6,0,P|260:263|293:201,1,143.999995605469,2|0,3:2|0:0,0:0:0:0:
255,118,84025,2,0,L|351:123,1,95.99999707031,8|0,0:0|0:0,0:0:0:0:
208,195,84447,1,2,3:2:0:0:
217,41,84659,1,0,0:0:0:0:
351,123,84870,1,8,0:0:0:0:
159,112,85081,1,0,0:0:0:0:
409,52,85293,6,0,P|439:116|420:184,1,143.999995605469,2|0,3:2|0:0,0:0:0:0:
362,250,85715,2,0,L|367:346,1,95.9999970703126,8|0,0:0|0:0,0:0:0:0:
420,184,86138,1,2,3:2:0:0:
271,279,86349,1,0,0:0:0:0:
455,273,86560,1,8,0:0:0:0:
300,188,86771,1,0,0:0:0:0:
242,370,86983,6,0,L|305:374,1,64,4|0,3:2|0:0,0:0:0:0:
495,186,87616,1,0,0:0:0:0:
399,195,87828,1,0,3:2:0:0:
455,273,88039,1,0,0:0:0:0:
438,107,88250,2,0,P|407:98|375:101,1,64,0|0,3:2|0:0,0:0:0:0:
265,222,88673,6,0,L|328:226,1,64,4|0,3:2|0:0,0:0:0:0:
134,80,89307,1,0,0:0:0:0:
185,217,89518,1,0,3:2:0:0:
214,85,89729,1,0,0:0:0:0:
105,212,89940,2,0,P|99:243|101:275,1,64,0|0,3:2|0:0,0:0:0:0:
385,229,90363,6,0,L|266:222,1,120,14|0,3:2|0:0,0:0:0:0:
185,217,90786,1,8,0:0:0:0:
225,42,90997,1,0,0:0:0:0:
225,42,91102,1,0,0:0:0:0:
225,42,91208,2,0,P|250:95|230:151,1,120,2|0,3:2|0:0,0:0:0:0:
185,217,91631,2,0,L|265:222,1,80,8|0,0:0|0:0,0:0:0:0:
126,268,92053,6,0,P|107:214|133:159,1,120,2|0,3:2|0:0,0:0:0:0:
185,217,92476,1,8,0:0:0:0:
318,280,92687,1,0,0:0:0:0:
318,280,92793,1,0,0:0:0:0:
318,280,92898,2,0,P|342:227|323:171,1,120,2|0,3:2|0:0,0:0:0:0:
265,222,93321,1,8,0:0:0:0:
405,58,93532,1,2,0:0:0:0:
405,58,93638,1,2,0:0:0:0:
405,58,93743,6,0,L|286:51,1,120,2|0,3:2|0:0,0:0:0:0:
206,46,94166,1,8,0:0:0:0:
265,222,94377,1,0,0:0:0:0:
265,222,94483,1,0,0:0:0:0:
265,222,94588,1,2,0:0:0:0:
130,150,94800,2,0,L|128:190,1,40,0|0,3:2|0:0,0:0:0:0:
123,270,95011,1,8,3:2:0:0:
265,222,95222,1,0,3:2:0:0:
135,70,95433,6,0,L|130:150,1,80,2|0,0:0|0:0,0:0:0:0:
265,222,95856,1,8,0:0:0:0:
206,46,96067,1,0,0:0:0:0:
206,46,96173,1,0,0:0:0:0:
206,46,96278,2,0,L|201:126,1,80,2|0,0:0|0:0,0:0:0:0:
337,196,96701,1,8,3:2:0:0:
277,22,96912,1,2,0:0:0:0:
277,22,97018,1,2,0:0:0:0:
277,22,97124,6,0,L|270:141,1,120,10|0,3:2|0:0,0:0:0:0:
265,222,97546,1,8,0:0:0:0:
102,335,97757,1,0,0:0:0:0:
102,335,97863,1,0,0:0:0:0:
102,335,97969,2,0,L|109:216,1,120,2|0,3:2|0:0,0:0:0:0:
186,239,98391,2,0,L|181:319,1,80,8|0,0:0|0:0,0:0:0:0:
166,156,98814,6,0,B|206:158|206:158|240:177|240:177|280:179,1,120,2|0,3:2|0:0,0:0:0:0:
261,96,99236,1,8,0:0:0:0:
186,239,99447,1,0,0:0:0:0:
186,239,99553,1,0,0:0:0:0:
186,239,99659,2,0,B|146:237|146:237|112:218|112:218|72:216,1,120,2|0,3:2|0:0,0:0:0:0:
91,299,100081,1,8,0:0:0:0:
261,96,100293,1,2,0:0:0:0:
261,96,100398,1,2,0:0:0:0:
261,96,100504,6,0,L|142:103,1,120,2|0,3:2|0:0,0:0:0:0:
61,108,100926,1,8,0:0:0:0:
186,239,101138,1,0,0:0:0:0:
186,239,101243,1,0,0:0:0:0:
186,239,101349,1,2,0:0:0:0:
261,96,101560,2,0,L|221:98,1,40,0|0,3:2|0:0,0:0:0:0:
141,103,101771,1,8,3:2:0:0:
281,179,101983,1,0,3:2:0:0:
174,34,102194,6,0,P|148:66|141:104,1,80,2|0,0:0|0:0,0:0:0:0:
186,239,102616,1,8,0:0:0:0:
297,108,102828,1,0,0:0:0:0:
297,108,102933,1,0,0:0:0:0:
297,108,103039,2,0,P|258:93|220:98,1,80,2|0,0:0|0:0,0:0:0:0:
105,182,103462,1,8,3:2:0:0:
267,296,103673,1,2,3:2:0:0:
267,296,103778,1,2,0:0:0:0:
267,296,103884,5,2,0:0:0:0:
250,169,104095,1,0,0:0:0:0:
322,224,104307,1,8,3:2:0:0:
195,241,104518,1,0,3:2:0:0:
377,152,104729,1,2,3:2:0:0:
339,351,104940,1,0,3:2:0:0:
339,351,105046,1,0,0:0:0:0:
339,351,105152,2,0,L|259:346,1,80,8|0,3:2|3:2,0:0:0:0:
377,152,105574,6,0,P|392:188|390:228,1,80,2|0,3:2|0:0,0:0:0:0:
250,169,105997,1,8,0:0:0:0:
369,69,106208,2,0,P|407:74|441:95,1,80,0|2,3:2|3:2,0:0:0:0:
250,169,106631,1,0,3:2:0:0:
302,19,106842,1,8,3:2:0:0:
326,243,107053,2,0,L|286:241,1,40,2|2,3:2|0:0,0:0:0:0:
206,236,107264,5,2,3:2:0:0:
406,248,107476,1,0,0:0:0:0:
250,169,107687,1,8,3:2:0:0:
301,321,107898,1,0,3:2:0:0:
294,102,108109,1,2,3:2:0:0:
126,231,108321,1,0,3:2:0:0:
126,231,108426,1,0,0:0:0:0:
126,231,108532,2,0,L|206:236,1,80,8|0,3:2|3:2,0:0:0:0:
374,107,108955,6,0,L|294:102,1,80,2|0,3:2|0:0,0:0:0:0:
126,231,109377,1,8,0:0:0:0:
332,201,109588,1,0,0:0:0:0:
133,126,109800,1,2,3:2:0:0:
243,306,110011,1,2,0:0:0:0:
201,36,110222,1,8,3:2:0:0:
201,36,110328,1,2,0:0:0:0:
201,36,110433,1,2,0:0:0:0:
112,264,110645,5,10,3:2:0:0:
294,102,110856,1,2,0:0:0:0:
133,126,111067,1,8,3:2:0:0:
355,226,111278,1,6,3:2:0:0:
256,192,111384,12,0,120786,0:0:0:0:
