osu file format v14

[General]
AudioFilename: audio.mp3
AudioLeadIn: 0
PreviewTime: 7000
Countdown: 0
SampleSet: Normal
StackLeniency: 0.7
Mode: 1
LetterboxInBreaks: 0
WidescreenStoryboard: 1

[Editor]
Bookmarks: 6906,26593,33906,50500,53406,66906,79000,85000,86406,87906,108906,120906,161500,167500,168906
DistanceSpacing: 0.8
BeatDivisor: 4
GridSize: 8
TimelineZoom: 1.8

[Metadata]
Title:Sambalado
TitleUnicode:Sambalado
Artist:Ayu Ting Ting
ArtistUnicode:Ayu Ting Ting
Creator:Volta
Version:Oni
Source:
Tags:sambal balado pedas panas bergetar bergoyang dangdut indonesia
BeatmapID:1149865
BeatmapSetID:542425

[Difficulty]
HPDrainRate:5
CircleSize:5
OverallDifficulty:5
ApproachRate:5
SliderMultiplier:1.4
SliderTickRate:1

[Events]
//Background and Video events
0,0,"balado.png",0,0
//Break Periods
//Storyboard Layer 0 (Background)
//Storyboard Layer 1 (Fail)
//Storyboard Layer 2 (Pass)
//Storyboard Layer 3 (Foreground)
//Storyboard Sound Samples

[TimingPoints]
1000,375,4,1,0,90,1,0
1000,-75.7575757575758,4,1,0,90,0,0
7093,-76.9230769230769,4,1,0,90,0,0
7187,-78.125,4,1,0,90,0,0
7281,-79.3650793650794,4,1,0,90,0,0
7375,-80.6451612903226,4,1,0,90,0,0
7562,-83.3333333333333,4,1,0,90,0,0
7656,-84.7457627118644,4,1,0,90,0,0
7750,-86.2068965517241,4,1,0,90,0,0
7843,-87.719298245614,4,1,0,90,0,0
7937,-89.2857142857143,4,1,0,90,0,0
8125,-92.5925925925926,4,1,0,90,0,0
8218,-94.3396226415094,4,1,0,90,0,0
8312,-96.1538461538461,4,1,0,90,0,0
8406,-98.0392156862745,4,1,0,90,0,0
8500,-100,4,1,0,90,0,0
34000,-100,4,1,0,90,0,1
50500,-100,4,1,0,90,0,0
52000,-71.4285714285714,4,1,0,90,0,0
53687,-74.0740740740741,4,1,0,90,0,0
53875,-76.9230769230769,4,1,0,90,0,0
53968,-78.4313725490196,4,1,0,90,0,0
54062,-80,4,1,0,90,0,0
54250,-83.3333333333333,4,1,0,90,0,0
54437,-86.9565217391304,4,1,0,90,0,0
54625,-90.9090909090909,4,1,0,90,0,0
54812,-95.2380952380952,4,1,0,90,0,0
55000,-100,4,1,0,90,0,0
65500,-71.4285714285714,4,1,0,90,0,0
67187,-74.0740740740741,4,1,0,90,0,0
67375,-76.9230769230769,4,1,0,90,0,0
67468,-78.4313725490196,4,1,0,90,0,0
67562,-80,4,1,0,90,0,0
67750,-83.3333333333333,4,1,0,90,0,0
67937,-86.9565217391304,4,1,0,90,0,0
68125,-90.9090909090909,4,1,0,90,0,0
68312,-95.2380952380952,4,1,0,90,0,0
68500,-100,4,1,0,90,0,0
119500,-71.4285714285714,4,1,0,90,0,0
121187,-74.0740740740741,4,1,0,90,0,0
121375,-76.9230769230769,4,1,0,90,0,0
121468,-78.4313725490196,4,1,0,90,0,0
121562,-80,4,1,0,90,0,0
121750,-83.3333333333333,4,1,0,90,0,0
121937,-86.9565217391304,4,1,0,90,0,0
122125,-90.9090909090909,4,1,0,90,0,0
122312,-95.2380952380952,4,1,0,90,0,0
122500,-100,4,1,0,90,0,0
133000,-71.4285714285714,4,1,0,90,0,0
134687,-74.0740740740741,4,1,0,90,0,0
134875,-76.9230769230769,4,1,0,90,0,0
134968,-78.4313725490196,4,1,0,90,0,0
135062,-80,4,1,0,90,0,0
135250,-83.3333333333333,4,1,0,90,0,0
135437,-86.9565217391304,4,1,0,90,0,0
135625,-90.9090909090909,4,1,0,90,0,0
135812,-95.2380952380952,4,1,0,90,0,0
136000,-100,4,1,0,90,0,0
161500,-75.7575757575758,4,1,0,90,0,0
167593,-76.9230769230769,4,1,0,90,0,0
167687,-78.125,4,1,0,90,0,0
167781,-79.3650793650794,4,1,0,90,0,0
167875,-80.6451612903226,4,1,0,90,0,0
168062,-83.3333333333333,4,1,0,90,0,0
168156,-84.7457627118644,4,1,0,90,0,0
168250,-86.2068965517241,4,1,0,90,0,0
168343,-87.719298245614,4,1,0,90,0,0
168437,-89.2857142857143,4,1,0,90,0,0
168625,-92.5925925925926,4,1,0,90,0,0
168718,-94.3396226415094,4,1,0,90,0,0
168812,-96.1538461538461,4,1,0,90,0,0
168906,-98.0392156862745,4,1,0,90,0,0
169000,-100,4,1,0,90,0,0
194500,-100,4,1,0,90,0,1
211000,-100,4,1,0,90,0,0
212500,-71.4285714285714,4,1,0,90,0,0
214187,-76.9230769230769,4,1,0,90,0,0
214375,-83.3333333333333,4,1,0,90,0,0
214562,-90.9090909090909,4,1,0,90,0,0
214750,-100,4,1,0,90,0,0

[HitObjects]
256,144,1000,5,0,0:0:0:0:
224,144,1187,1,8,0:0:0:0:
224,144,1375,1,0,0:0:0:0:
224,144,1562,1,8,0:0:0:0:
256,144,1750,1,0,0:0:0:0:
224,144,1937,1,8,0:0:0:0:
224,144,2125,1,0,0:0:0:0:
224,144,2312,1,8,0:0:0:0:
256,144,2500,1,0,0:0:0:0:
224,144,2687,1,8,0:0:0:0:
224,144,2875,1,0,0:0:0:0:
224,144,3062,1,8,0:0:0:0:
256,144,3250,1,0,0:0:0:0:
224,144,3437,1,8,0:0:0:0:
224,144,3625,1,0,0:0:0:0:
224,144,3812,1,8,0:0:0:0:
256,144,4000,1,0,0:0:0:0:
224,144,4187,1,8,0:0:0:0:
224,144,4375,1,0,0:0:0:0:
224,144,4562,1,8,0:0:0:0:
256,144,4750,1,0,0:0:0:0:
224,144,4937,1,8,0:0:0:0:
224,144,5125,1,0,0:0:0:0:
224,144,5312,1,8,0:0:0:0:
256,144,5500,1,0,0:0:0:0:
224,144,5687,1,8,0:0:0:0:
224,144,5875,1,0,0:0:0:0:
224,144,6062,1,8,0:0:0:0:
256,144,6250,1,0,0:0:0:0:
224,144,6437,1,8,0:0:0:0:
224,144,6625,1,0,0:0:0:0:
224,144,6812,1,8,0:0:0:0:
264,272,7000,1,0,0:0:0:0:
232,168,7093,1,0,0:0:0:0:
232,168,7187,1,8,0:0:0:0:
232,168,7281,1,0,0:0:0:0:
232,168,7375,1,8,0:0:0:0:
248,112,7562,1,8,0:0:0:0:
248,112,7656,1,0,0:0:0:0:
248,104,7750,1,8,0:0:0:0:
240,128,7843,1,0,0:0:0:0:
240,128,7937,1,0,0:0:0:0:
240,128,8125,1,8,0:0:0:0:
240,128,8218,1,0,0:0:0:0:
240,128,8312,1,0,0:0:0:0:
240,128,8406,1,0,0:0:0:0:
232,176,8500,1,8,0:0:0:0:
176,224,8875,1,8,0:0:0:0:
336,256,9062,1,0,0:0:0:0:
240,184,9250,1,8,0:0:0:0:
280,176,9437,1,0,0:0:0:0:
280,176,9531,1,0,0:0:0:0:
280,176,9625,1,0,0:0:0:0:
280,176,9812,1,0,0:0:0:0:
240,184,10000,1,0,0:0:0:0:
280,176,10375,1,8,0:0:0:0:
280,176,10562,1,0,0:0:0:0:
240,184,10750,1,8,0:0:0:0:
264,120,10937,1,0,0:0:0:0:
264,120,11031,1,0,0:0:0:0:
272,128,11125,1,0,0:0:0:0:
120,176,11312,1,0,0:0:0:0:
240,184,11500,1,8,0:0:0:0:
192,176,11875,1,8,0:0:0:0:
192,192,12062,1,0,0:0:0:0:
240,184,12250,1,8,0:0:0:0:
168,208,12437,1,0,0:0:0:0:
160,208,12531,1,0,0:0:0:0:
160,208,12625,1,0,0:0:0:0:
160,208,12812,1,0,0:0:0:0:
160,216,13000,1,8,0:0:0:0:
192,112,13187,1,0,0:0:0:0:
176,224,13375,1,0,0:0:0:0:
336,256,13562,1,8,0:0:0:0:
240,184,13750,1,0,0:0:0:0:
280,176,13937,1,0,0:0:0:0:
280,176,14031,1,0,0:0:0:0:
280,176,14125,1,0,0:0:0:0:
280,176,14312,1,0,0:0:0:0:
240,184,14500,1,8,0:0:0:0:
280,176,14875,1,8,0:0:0:0:
280,176,15062,1,0,0:0:0:0:
240,184,15250,1,8,0:0:0:0:
264,120,15437,1,0,0:0:0:0:
264,120,15531,1,0,0:0:0:0:
272,128,15625,1,0,0:0:0:0:
120,176,15812,1,0,0:0:0:0:
240,184,16000,1,0,0:0:0:0:
192,176,16375,1,8,0:0:0:0:
192,192,16562,1,0,0:0:0:0:
240,184,16750,1,8,0:0:0:0:
168,208,16937,1,0,0:0:0:0:
160,208,17031,1,0,0:0:0:0:
160,208,17125,1,0,0:0:0:0:
160,208,17312,1,0,0:0:0:0:
160,216,17500,1,0,0:0:0:0:
272,248,17593,1,8,0:0:0:0:
232,200,17781,1,8,0:0:0:0:
232,200,17875,1,8,0:0:0:0:
232,200,18062,1,0,0:0:0:0:
232,200,18156,1,0,0:0:0:0:
232,200,18343,1,0,0:0:0:0:
224,208,18437,1,8,0:0:0:0:
224,208,18531,1,0,0:0:0:0:
224,208,18625,1,0,0:0:0:0:
232,176,18812,1,0,0:0:0:0:
232,200,19000,1,4,0:0:0:0:
312,200,19750,1,12,0:0:0:0:
272,192,20125,1,8,0:0:0:0:
256,216,20312,1,8,0:0:0:0:
248,224,20500,1,0,0:0:0:0:
232,160,20687,1,8,0:0:0:0:
232,160,20875,1,0,0:0:0:0:
224,168,21062,1,8,0:0:0:0:
240,160,21250,1,0,0:0:0:0:
144,144,21343,1,0,0:0:0:0:
240,160,21437,1,0,0:0:0:0:
200,136,21625,1,0,0:0:0:0:
144,160,21812,1,8,0:0:0:0:
248,112,22000,1,4,0:0:0:0:
120,144,22750,1,12,0:0:0:0:
136,144,23125,1,8,0:0:0:0:
136,144,23312,1,8,0:0:0:0:
112,160,23500,1,0,0:0:0:0:
120,160,23687,1,8,0:0:0:0:
112,160,23875,1,0,0:0:0:0:
112,168,24062,1,8,0:0:0:0:
208,152,24250,1,0,0:0:0:0:
208,168,24343,1,0,0:0:0:0:
208,168,24437,1,0,0:0:0:0:
208,168,24625,1,0,0:0:0:0:
152,216,24812,1,8,0:0:0:0:
192,184,25000,1,4,0:0:0:0:
192,184,25750,1,12,0:0:0:0:
192,184,26125,1,8,0:0:0:0:
192,184,26312,1,8,0:0:0:0:
112,160,26500,1,0,0:0:0:0:
120,160,26687,1,8,0:0:0:0:
112,160,26875,1,0,0:0:0:0:
112,168,27062,1,8,0:0:0:0:
208,152,27250,1,0,0:0:0:0:
208,168,27343,1,0,0:0:0:0:
208,168,27437,1,0,0:0:0:0:
208,168,27625,1,0,0:0:0:0:
176,176,27812,1,8,0:0:0:0:
192,152,28000,1,0,0:0:0:0:
200,152,28375,1,8,0:0:0:0:
168,144,28562,1,0,0:0:0:0:
168,144,28656,1,0,0:0:0:0:
160,152,28750,1,8,0:0:0:0:
168,152,28937,1,0,0:0:0:0:
168,152,29125,1,0,0:0:0:0:
88,168,29312,1,8,0:0:0:0:
136,192,29500,1,0,0:0:0:0:
200,136,29875,1,8,0:0:0:0:
192,144,30062,1,0,0:0:0:0:
192,144,30250,1,8,0:0:0:0:
192,144,30437,1,8,0:0:0:0:
192,144,30531,1,8,0:0:0:0:
192,152,30625,1,0,0:0:0:0:
192,152,30812,1,0,0:0:0:0:
192,152,31000,1,4,0:0:0:0:
112,160,31750,1,4,0:0:0:0:
144,184,32500,1,4,0:0:0:0:
208,144,32687,1,0,0:0:0:0:
208,144,32781,1,0,0:0:0:0:
208,144,32875,1,8,0:0:0:0:
256,168,33062,1,8,0:0:0:0:
264,168,33156,1,0,0:0:0:0:
264,168,33250,1,8,0:0:0:0:
272,168,33437,1,0,0:0:0:0:
272,168,33531,1,0,0:0:0:0:
272,168,33625,1,8,0:0:0:0:
272,168,33718,1,0,0:0:0:0:
272,168,33812,1,8,0:0:0:0:
272,168,33906,1,8,0:0:0:0:
272,168,34000,1,0,0:0:0:0:
256,200,34375,1,8,0:0:0:0:
304,256,34562,1,0,0:0:0:0:
304,256,34656,1,0,0:0:0:0:
304,256,34750,1,8,0:0:0:0:
288,256,34937,1,0,0:0:0:0:
288,256,35125,1,8,0:0:0:0:
288,256,35312,1,0,0:0:0:0:
288,256,35500,1,0,0:0:0:0:
288,256,35875,1,8,0:0:0:0:
288,256,36062,1,0,0:0:0:0:
288,256,36156,1,0,0:0:0:0:
288,256,36250,1,8,0:0:0:0:
288,256,36437,1,0,0:0:0:0:
288,256,36625,1,0,0:0:0:0:
256,112,36718,1,0,0:0:0:0:
352,64,36812,1,0,0:0:0:0:
64,184,37000,1,0,0:0:0:0:
304,256,37375,1,8,0:0:0:0:
248,248,37562,1,0,0:0:0:0:
248,248,37656,1,0,0:0:0:0:
248,248,37750,1,8,0:0:0:0:
248,248,37937,1,0,0:0:0:0:
248,248,38125,1,8,0:0:0:0:
248,248,38312,1,0,0:0:0:0:
224,240,38500,1,0,0:0:0:0:
144,136,38875,1,8,0:0:0:0:
144,136,39062,1,0,0:0:0:0:
144,136,39156,1,0,0:0:0:0:
144,136,39250,1,8,0:0:0:0:
144,136,39437,1,0,0:0:0:0:
144,144,39625,1,0,0:0:0:0:
144,144,39812,1,8,0:0:0:0:
152,168,40000,1,0,0:0:0:0:
248,144,40375,1,8,0:0:0:0:
192,192,40562,1,0,0:0:0:0:
192,200,40656,1,0,0:0:0:0:
192,192,40750,1,8,0:0:0:0:
192,192,40937,1,0,0:0:0:0:
192,192,41125,1,8,0:0:0:0:
192,192,41312,1,0,0:0:0:0:
192,192,41500,1,0,0:0:0:0:
200,184,41875,1,8,0:0:0:0:
200,184,42062,1,0,0:0:0:0:
200,184,42156,1,0,0:0:0:0:
200,184,42250,1,8,0:0:0:0:
200,184,42437,1,0,0:0:0:0:
200,184,42625,1,8,0:0:0:0:
200,184,42812,1,8,0:0:0:0:
200,184,43000,1,0,0:0:0:0:
144,128,43375,1,8,0:0:0:0:
128,144,43562,1,0,0:0:0:0:
128,144,43656,1,0,0:0:0:0:
128,144,43750,1,8,0:0:0:0:
160,104,43937,1,0,0:0:0:0:
160,112,44125,1,0,0:0:0:0:
160,104,44218,1,0,0:0:0:0:
152,112,44312,1,0,0:0:0:0:
152,120,44500,1,0,0:0:0:0:
272,144,44875,1,8,0:0:0:0:
264,160,45062,1,0,0:0:0:0:
256,168,45156,1,0,0:0:0:0:
256,168,45250,1,8,0:0:0:0:
184,176,45437,1,0,0:0:0:0:
176,192,45625,1,8,0:0:0:0:
112,160,45812,1,0,0:0:0:0:
168,192,46000,1,0,0:0:0:0:
248,144,46375,1,8,0:0:0:0:
272,240,46562,1,0,0:0:0:0:
272,240,46656,1,0,0:0:0:0:
272,240,46750,1,8,0:0:0:0:
184,256,46937,1,0,0:0:0:0:
184,264,47125,1,0,0:0:0:0:
184,264,47312,1,8,0:0:0:0:
184,264,47500,1,0,0:0:0:0:
184,264,47875,5,0,0:0:0:0:
184,264,48062,1,8,0:0:0:0:
184,264,48156,1,8,0:0:0:0:
184,264,48250,1,0,0:0:0:0:
184,264,48437,1,0,0:0:0:0:
184,264,48625,1,8,0:0:0:0:
184,264,48812,1,0,0:0:0:0:
240,192,49000,5,12,0:0:0:0:
216,256,49187,1,0,0:0:0:0:
216,256,49281,1,0,0:0:0:0:
216,264,49375,1,0,0:0:0:0:
240,192,49562,1,12,0:0:0:0:
304,200,49750,1,0,0:0:0:0:
312,192,49843,1,0,0:0:0:0:
312,200,49937,1,8,0:0:0:0:
264,288,50125,1,8,0:0:0:0:
152,200,50312,1,0,0:0:0:0:
264,288,50500,1,4,0:0:0:0:
168,184,50875,1,8,0:0:0:0:
160,192,51062,1,0,0:0:0:0:
160,192,51250,1,8,0:0:0:0:
152,168,51437,1,0,0:0:0:0:
152,168,51531,1,0,0:0:0:0:
152,168,51625,1,0,0:0:0:0:
112,160,51812,1,0,0:0:0:0:
304,160,52000,5,4,0:0:0:0:
304,168,52281,1,4,0:0:0:0:
288,160,52562,1,12,0:0:0:0:
288,160,52750,1,12,0:0:0:0:
112,176,53031,1,4,0:0:0:0:
192,128,53312,1,12,0:0:0:0:
192,128,53500,1,12,0:0:0:0:
280,128,53687,1,0,0:0:0:0:
288,152,53875,1,8,0:0:0:0:
232,216,53968,1,8,0:0:0:0:
240,224,54062,1,0,0:0:0:0:
248,232,54250,1,8,0:0:0:0:
200,208,54437,1,0,0:0:0:0:
200,208,54625,1,8,0:0:0:0:
208,208,54812,1,8,0:0:0:0:
208,208,55000,1,0,0:0:0:0:
288,208,55375,1,8,0:0:0:0:
296,208,55562,1,0,0:0:0:0:
296,208,55750,1,8,0:0:0:0:
288,208,55843,1,8,0:0:0:0:
288,216,55937,1,0,0:0:0:0:
296,216,56125,1,8,0:0:0:0:
296,216,56312,1,0,0:0:0:0:
216,200,56500,1,0,0:0:0:0:
216,176,56875,1,8,0:0:0:0:
192,152,57062,1,0,0:0:0:0:
192,160,57250,1,8,0:0:0:0:
200,176,57343,1,8,0:0:0:0:
200,184,57437,1,0,0:0:0:0:
200,184,57625,1,0,0:0:0:0:
200,184,57812,1,8,0:0:0:0:
200,192,58000,1,0,0:0:0:0:
176,136,58375,1,8,0:0:0:0:
176,144,58562,1,0,0:0:0:0:
176,144,58750,1,8,0:0:0:0:
176,144,58937,1,0,0:0:0:0:
176,144,59031,1,0,0:0:0:0:
176,144,59125,1,0,0:0:0:0:
176,144,59312,1,8,0:0:0:0:
176,144,59500,1,0,0:0:0:0:
248,120,59875,1,8,0:0:0:0:
248,128,60062,1,0,0:0:0:0:
248,120,60156,1,0,0:0:0:0:
248,128,60250,1,8,0:0:0:0:
208,144,60437,1,0,0:0:0:0:
144,96,60625,1,0,0:0:0:0:
144,104,60812,1,8,0:0:0:0:
208,152,61000,1,0,0:0:0:0:
144,176,61375,1,8,0:0:0:0:
248,128,61562,1,0,0:0:0:0:
248,120,61656,1,0,0:0:0:0:
248,128,61750,1,8,0:0:0:0:
208,144,61937,1,0,0:0:0:0:
144,96,62125,1,0,0:0:0:0:
144,104,62312,1,8,0:0:0:0:
208,152,62500,1,0,0:0:0:0:
208,112,62875,1,8,0:0:0:0:
248,128,63062,1,0,0:0:0:0:
248,120,63156,1,0,0:0:0:0:
248,128,63250,1,8,0:0:0:0:
208,144,63437,1,0,0:0:0:0:
144,96,63625,1,8,0:0:0:0:
144,104,63812,1,8,0:0:0:0:
208,152,64000,1,0,0:0:0:0:
144,152,64375,1,8,0:0:0:0:
144,152,64562,1,0,0:0:0:0:
144,144,64750,1,8,0:0:0:0:
144,152,64937,1,0,0:0:0:0:
144,152,65031,1,0,0:0:0:0:
144,160,65125,1,0,0:0:0:0:
144,160,65312,1,8,0:0:0:0:
304,160,65500,5,4,0:0:0:0:
304,168,65781,1,4,0:0:0:0:
288,160,66062,1,12,0:0:0:0:
288,160,66250,1,12,0:0:0:0:
112,176,66531,1,4,0:0:0:0:
192,128,66812,1,12,0:0:0:0:
192,128,67000,1,12,0:0:0:0:
280,128,67187,1,0,0:0:0:0:
288,152,67375,1,8,0:0:0:0:
232,216,67468,1,8,0:0:0:0:
240,224,67562,1,0,0:0:0:0:
248,232,67750,1,8,0:0:0:0:
200,208,67937,1,0,0:0:0:0:
200,208,68125,1,8,0:0:0:0:
208,208,68312,1,8,0:0:0:0:
208,208,68500,1,0,0:0:0:0:
288,208,68875,1,8,0:0:0:0:
296,208,69062,1,0,0:0:0:0:
296,208,69250,1,8,0:0:0:0:
288,208,69343,1,8,0:0:0:0:
288,216,69437,1,0,0:0:0:0:
296,216,69625,1,8,0:0:0:0:
296,216,69812,1,0,0:0:0:0:
216,200,70000,1,0,0:0:0:0:
216,176,70375,1,8,0:0:0:0:
192,152,70562,1,0,0:0:0:0:
192,160,70750,1,8,0:0:0:0:
200,176,70843,1,8,0:0:0:0:
200,184,70937,1,0,0:0:0:0:
200,184,71125,1,0,0:0:0:0:
200,184,71312,1,8,0:0:0:0:
200,192,71500,1,0,0:0:0:0:
176,136,71875,1,8,0:0:0:0:
176,144,72062,1,0,0:0:0:0:
176,144,72250,1,8,0:0:0:0:
176,144,72437,1,0,0:0:0:0:
176,144,72531,1,0,0:0:0:0:
176,144,72625,1,0,0:0:0:0:
176,144,72812,1,8,0:0:0:0:
176,144,73000,1,0,0:0:0:0:
248,120,73375,1,8,0:0:0:0:
248,128,73562,1,0,0:0:0:0:
248,120,73656,1,0,0:0:0:0:
248,128,73750,1,8,0:0:0:0:
208,144,73937,1,0,0:0:0:0:
144,96,74125,1,0,0:0:0:0:
144,104,74312,1,8,0:0:0:0:
208,152,74500,1,0,0:0:0:0:
144,176,74875,1,8,0:0:0:0:
248,128,75062,1,0,0:0:0:0:
248,120,75156,1,0,0:0:0:0:
248,128,75250,1,8,0:0:0:0:
208,144,75437,1,0,0:0:0:0:
144,96,75625,1,0,0:0:0:0:
144,104,75812,1,8,0:0:0:0:
208,152,76000,1,0,0:0:0:0:
208,112,76375,1,8,0:0:0:0:
248,128,76562,1,0,0:0:0:0:
248,120,76656,1,0,0:0:0:0:
248,128,76750,1,8,0:0:0:0:
208,144,76937,1,0,0:0:0:0:
144,96,77125,1,8,0:0:0:0:
144,104,77312,1,8,0:0:0:0:
208,152,77500,1,0,0:0:0:0:
224,152,77875,1,8,0:0:0:0:
224,168,78062,1,0,0:0:0:0:
224,168,78250,1,8,0:0:0:0:
200,160,78343,1,8,0:0:0:0:
200,152,78437,1,0,0:0:0:0:
208,160,78625,1,0,0:0:0:0:
200,176,78812,1,8,0:0:0:0:
200,168,79000,1,0,0:0:0:0:
160,200,79093,1,0,0:0:0:0:
128,128,79187,1,0,0:0:0:0:
208,136,79375,1,8,0:0:0:0:
128,128,79562,1,8,0:0:0:0:
248,144,79750,1,0,0:0:0:0:
216,120,79937,1,12,0:0:0:0:
208,128,80312,1,12,0:0:0:0:
136,80,80500,1,0,0:0:0:0:
72,152,80593,1,0,0:0:0:0:
136,80,80687,1,0,0:0:0:0:
136,88,80875,1,8,0:0:0:0:
144,88,81062,1,0,0:0:0:0:
192,184,81250,1,0,0:0:0:0:
216,120,81437,1,12,0:0:0:0:
216,120,81812,1,12,0:0:0:0:
168,160,82000,1,0,0:0:0:0:
168,168,82093,1,0,0:0:0:0:
168,160,82187,1,0,0:0:0:0:
168,168,82375,1,8,0:0:0:0:
168,168,82562,1,0,0:0:0:0:
168,176,82750,1,8,0:0:0:0:
168,176,82937,1,8,0:0:0:0:
168,176,83031,1,8,0:0:0:0:
176,168,83125,1,0,0:0:0:0:
176,168,83312,1,8,0:0:0:0:
176,168,83500,1,0,0:0:0:0:
216,136,83875,1,8,0:0:0:0:
224,152,84062,1,0,0:0:0:0:
224,152,84250,1,8,0:0:0:0:
216,152,84437,1,0,0:0:0:0:
216,152,84531,1,0,0:0:0:0:
216,152,84625,1,0,0:0:0:0:
224,152,84812,1,0,0:0:0:0:
224,152,85000,1,8,0:0:0:0:
216,136,85375,1,8,0:0:0:0:
224,152,85562,1,0,0:0:0:0:
224,152,85750,1,8,0:0:0:0:
216,152,85937,1,0,0:0:0:0:
216,152,86031,1,0,0:0:0:0:
216,152,86125,1,0,0:0:0:0:
224,152,86312,1,0,0:0:0:0:
224,152,86500,1,0,0:0:0:0:
216,136,86875,1,8,0:0:0:0:
224,152,87062,1,0,0:0:0:0:
224,152,87250,1,8,0:0:0:0:
216,152,87437,1,0,0:0:0:0:
216,152,87531,1,0,0:0:0:0:
216,152,87625,1,0,0:0:0:0:
224,152,87812,1,8,0:0:0:0:
224,152,88000,1,4,0:0:0:0:
144,168,88187,1,0,0:0:0:0:
144,176,88375,1,8,0:0:0:0:
144,176,88562,1,0,0:0:0:0:
144,104,88750,1,8,0:0:0:0:
168,128,88937,1,0,0:0:0:0:
168,128,89031,1,0,0:0:0:0:
176,136,89125,1,0,0:0:0:0:
208,96,89500,1,8,0:0:0:0:
216,120,89687,1,0,0:0:0:0:
216,128,89875,1,8,0:0:0:0:
216,128,90062,1,8,0:0:0:0:
216,136,90250,1,0,0:0:0:0:
216,112,90437,1,0,0:0:0:0:
216,128,90531,1,0,0:0:0:0:
216,120,90625,1,0,0:0:0:0:
208,152,91000,1,0,0:0:0:0:
216,136,91187,1,0,0:0:0:0:
216,136,91375,1,8,0:0:0:0:
216,136,91562,1,0,0:0:0:0:
216,144,91750,1,8,0:0:0:0:
216,144,91937,1,0,0:0:0:0:
216,144,92031,1,0,0:0:0:0:
216,136,92125,1,0,0:0:0:0:
208,152,92500,1,8,0:0:0:0:
216,136,92687,1,0,0:0:0:0:
216,136,92875,1,8,0:0:0:0:
216,136,93062,1,8,0:0:0:0:
216,144,93250,1,0,0:0:0:0:
216,144,93437,1,0,0:0:0:0:
216,144,93531,1,0,0:0:0:0:
216,136,93625,1,0,0:0:0:0:
400,144,94000,1,0,0:0:0:0:
240,96,94187,1,0,0:0:0:0:
240,112,94281,1,0,0:0:0:0:
240,112,94375,1,8,0:0:0:0:
384,88,94562,1,0,0:0:0:0:
360,120,94750,1,8,0:0:0:0:
360,136,94843,1,8,0:0:0:0:
360,136,94937,1,0,0:0:0:0:
352,136,95031,1,0,0:0:0:0:
352,136,95125,1,8,0:0:0:0:
232,144,95312,1,0,0:0:0:0:
232,152,95500,1,0,0:0:0:0:
128,128,95875,1,8,0:0:0:0:
136,144,96062,1,0,0:0:0:0:
136,144,96250,1,8,0:0:0:0:
144,152,96437,1,0,0:0:0:0:
144,152,96531,1,0,0:0:0:0:
144,152,96625,1,8,0:0:0:0:
144,160,96812,1,8,0:0:0:0:
144,160,97000,1,4,0:0:0:0:
224,168,97375,1,8,0:0:0:0:
224,168,97562,1,8,0:0:0:0:
96,120,97656,1,0,0:0:0:0:
96,128,97750,1,8,0:0:0:0:
96,128,97937,1,0,0:0:0:0:
128,160,98125,1,0,0:0:0:0:
128,160,98218,1,0,0:0:0:0:
136,160,98312,1,0,0:0:0:0:
136,168,98500,1,0,0:0:0:0:
224,168,98875,1,8,0:0:0:0:
224,168,99062,1,8,0:0:0:0:
96,120,99156,1,0,0:0:0:0:
96,128,99250,1,8,0:0:0:0:
96,128,99437,1,0,0:0:0:0:
128,160,99625,1,8,0:0:0:0:
128,160,99718,1,0,0:0:0:0:
136,160,99812,1,0,0:0:0:0:
136,168,100000,1,0,0:0:0:0:
224,168,100375,1,8,0:0:0:0:
224,168,100562,1,8,0:0:0:0:
96,120,100656,1,0,0:0:0:0:
96,128,100750,1,8,0:0:0:0:
96,128,100937,1,0,0:0:0:0:
128,160,101125,1,0,0:0:0:0:
128,160,101218,1,0,0:0:0:0:
136,160,101312,1,8,0:0:0:0:
136,168,101500,1,0,0:0:0:0:
224,168,101875,1,8,0:0:0:0:
224,168,102062,1,8,0:0:0:0:
96,120,102156,1,0,0:0:0:0:
96,128,102250,1,8,0:0:0:0:
96,128,102437,1,0,0:0:0:0:
128,160,102625,1,8,0:0:0:0:
128,160,102718,1,8,0:0:0:0:
136,160,102812,1,0,0:0:0:0:
136,168,103000,1,0,0:0:0:0:
224,168,103375,1,8,0:0:0:0:
224,168,103562,1,8,0:0:0:0:
96,120,103656,1,0,0:0:0:0:
96,128,103750,1,8,0:0:0:0:
96,128,103937,1,0,0:0:0:0:
128,160,104125,1,0,0:0:0:0:
128,160,104218,1,0,0:0:0:0:
136,160,104312,1,0,0:0:0:0:
136,168,104500,1,0,0:0:0:0:
224,168,104875,1,8,0:0:0:0:
224,168,105062,1,8,0:0:0:0:
96,120,105156,1,0,0:0:0:0:
96,128,105250,1,8,0:0:0:0:
96,128,105437,1,0,0:0:0:0:
128,160,105625,1,8,0:0:0:0:
128,160,105718,1,0,0:0:0:0:
136,160,105812,1,0,0:0:0:0:
136,168,106000,1,0,0:0:0:0:
224,168,106375,1,8,0:0:0:0:
224,168,106562,1,8,0:0:0:0:
96,120,106656,1,0,0:0:0:0:
96,128,106750,1,8,0:0:0:0:
96,128,106937,1,0,0:0:0:0:
128,160,107125,1,0,0:0:0:0:
128,160,107218,1,0,0:0:0:0:
136,160,107312,1,8,0:0:0:0:
136,168,107500,1,0,0:0:0:0:
240,144,107687,1,0,0:0:0:0:
144,120,107781,1,0,0:0:0:0:
248,128,107875,1,8,0:0:0:0:
248,144,108062,1,8,0:0:0:0:
152,152,108156,1,0,0:0:0:0:
72,152,108250,1,8,0:0:0:0:
128,144,108343,1,8,0:0:0:0:
232,184,108437,1,0,0:0:0:0:
128,152,108531,1,0,0:0:0:0:
232,184,108625,1,8,0:0:0:0:
232,192,108812,1,8,0:0:0:0:
232,192,109000,1,4,0:0:0:0:
248,144,109187,1,8,0:0:0:0:
248,160,109375,1,8,0:0:0:0:
248,152,109562,1,8,0:0:0:0:
224,152,109750,1,0,0:0:0:0:
224,152,109843,1,0,0:0:0:0:
224,144,109937,1,0,0:0:0:0:
224,152,110125,1,8,0:0:0:0:
224,160,110312,1,0,0:0:0:0:
288,176,110500,1,0,0:0:0:0:
248,152,110875,1,8,0:0:0:0:
248,152,111062,1,0,0:0:0:0:
248,152,111156,1,0,0:0:0:0:
248,152,111250,1,8,0:0:0:0:
256,224,111437,1,0,0:0:0:0:
224,184,111625,1,8,0:0:0:0:
224,184,111812,1,8,0:0:0:0:
224,184,112000,1,0,0:0:0:0:
144,152,112375,1,8,0:0:0:0:
144,152,112562,1,0,0:0:0:0:
144,152,112656,1,0,0:0:0:0:
144,152,112750,1,8,0:0:0:0:
144,152,112937,1,8,0:0:0:0:
144,152,113125,1,0,0:0:0:0:
144,152,113312,1,8,0:0:0:0:
144,152,113500,1,0,0:0:0:0:
248,152,113875,1,8,0:0:0:0:
248,152,114062,1,0,0:0:0:0:
248,152,114156,1,0,0:0:0:0:
248,152,114250,1,8,0:0:0:0:
256,224,114437,1,0,0:0:0:0:
224,184,114625,1,0,0:0:0:0:
224,184,114812,1,8,0:0:0:0:
224,184,115000,1,0,0:0:0:0:
248,152,115375,1,8,0:0:0:0:
248,152,115562,1,0,0:0:0:0:
248,152,115656,1,0,0:0:0:0:
248,152,115750,1,8,0:0:0:0:
256,224,115937,1,0,0:0:0:0:
224,184,116125,1,8,0:0:0:0:
224,184,116312,1,8,0:0:0:0:
224,184,116500,1,0,0:0:0:0:
248,152,116875,1,8,0:0:0:0:
248,152,117062,1,0,0:0:0:0:
248,152,117156,1,0,0:0:0:0:
248,152,117250,1,8,0:0:0:0:
256,224,117437,1,8,0:0:0:0:
224,184,117625,1,0,0:0:0:0:
224,184,117812,1,8,0:0:0:0:
224,184,118000,1,0,0:0:0:0:
248,152,118375,1,8,0:0:0:0:
248,152,118562,1,0,0:0:0:0:
248,152,118656,1,0,0:0:0:0:
248,152,118750,1,8,0:0:0:0:
256,224,118937,1,8,0:0:0:0:
224,184,119125,1,0,0:0:0:0:
224,184,119312,1,0,0:0:0:0:
224,184,119500,1,4,0:0:0:0:
304,168,119781,1,4,0:0:0:0:
288,160,120062,1,12,0:0:0:0:
288,160,120250,1,12,0:0:0:0:
112,176,120531,1,4,0:0:0:0:
192,128,120812,1,12,0:0:0:0:
192,128,121000,1,12,0:0:0:0:
280,128,121187,1,0,0:0:0:0:
288,152,121375,1,8,0:0:0:0:
232,216,121468,1,8,0:0:0:0:
240,224,121562,1,0,0:0:0:0:
248,232,121750,1,8,0:0:0:0:
200,208,121937,1,0,0:0:0:0:
200,208,122125,1,8,0:0:0:0:
208,208,122312,1,8,0:0:0:0:
208,208,122500,1,0,0:0:0:0:
288,208,122875,1,8,0:0:0:0:
296,208,123062,1,0,0:0:0:0:
296,208,123250,1,8,0:0:0:0:
288,208,123343,1,8,0:0:0:0:
288,216,123437,1,0,0:0:0:0:
296,216,123625,1,8,0:0:0:0:
296,216,123812,1,0,0:0:0:0:
216,200,124000,1,0,0:0:0:0:
216,176,124375,1,8,0:0:0:0:
192,152,124562,1,0,0:0:0:0:
192,160,124750,1,8,0:0:0:0:
200,176,124843,1,8,0:0:0:0:
200,184,124937,1,0,0:0:0:0:
200,184,125125,1,0,0:0:0:0:
200,184,125312,1,8,0:0:0:0:
200,192,125500,1,0,0:0:0:0:
176,136,125875,1,8,0:0:0:0:
176,144,126062,1,0,0:0:0:0:
176,144,126250,1,8,0:0:0:0:
176,144,126437,1,0,0:0:0:0:
176,144,126531,1,0,0:0:0:0:
176,144,126625,1,0,0:0:0:0:
176,144,126812,1,8,0:0:0:0:
176,144,127000,1,0,0:0:0:0:
248,120,127375,1,8,0:0:0:0:
248,128,127562,1,0,0:0:0:0:
248,120,127656,1,0,0:0:0:0:
248,128,127750,1,8,0:0:0:0:
208,144,127937,1,0,0:0:0:0:
144,96,128125,1,0,0:0:0:0:
144,104,128312,1,8,0:0:0:0:
208,152,128500,1,0,0:0:0:0:
144,176,128875,1,8,0:0:0:0:
248,128,129062,1,0,0:0:0:0:
248,120,129156,1,0,0:0:0:0:
248,128,129250,1,8,0:0:0:0:
208,144,129437,1,0,0:0:0:0:
144,96,129625,1,0,0:0:0:0:
144,104,129812,1,8,0:0:0:0:
208,152,130000,1,0,0:0:0:0:
208,112,130375,1,8,0:0:0:0:
248,128,130562,1,0,0:0:0:0:
248,120,130656,1,0,0:0:0:0:
248,128,130750,1,8,0:0:0:0:
208,144,130937,1,0,0:0:0:0:
144,96,131125,1,8,0:0:0:0:
144,104,131312,1,8,0:0:0:0:
208,152,131500,1,0,0:0:0:0:
144,152,131875,5,8,0:0:0:0:
144,152,132062,1,0,0:0:0:0:
144,144,132250,1,8,0:0:0:0:
144,152,132437,1,0,0:0:0:0:
144,152,132531,1,0,0:0:0:0:
144,160,132625,1,0,0:0:0:0:
144,160,132812,1,8,0:0:0:0:
304,160,133000,5,4,0:0:0:0:
304,168,133281,1,4,0:0:0:0:
288,160,133562,1,12,0:0:0:0:
288,160,133750,1,12,0:0:0:0:
112,176,134031,1,4,0:0:0:0:
192,128,134312,1,12,0:0:0:0:
192,128,134500,1,12,0:0:0:0:
280,128,134687,1,0,0:0:0:0:
288,152,134875,1,8,0:0:0:0:
232,216,134968,1,8,0:0:0:0:
240,224,135062,1,0,0:0:0:0:
248,232,135250,1,8,0:0:0:0:
200,208,135437,1,0,0:0:0:0:
200,208,135625,1,8,0:0:0:0:
208,208,135812,1,8,0:0:0:0:
208,208,136000,1,0,0:0:0:0:
288,208,136375,1,8,0:0:0:0:
296,208,136562,1,0,0:0:0:0:
296,208,136750,1,8,0:0:0:0:
288,208,136843,1,8,0:0:0:0:
288,216,136937,1,0,0:0:0:0:
296,216,137125,1,8,0:0:0:0:
296,216,137312,1,0,0:0:0:0:
216,200,137500,1,0,0:0:0:0:
216,176,137875,1,8,0:0:0:0:
192,152,138062,1,0,0:0:0:0:
192,160,138250,1,8,0:0:0:0:
200,176,138343,1,8,0:0:0:0:
200,184,138437,1,0,0:0:0:0:
200,184,138625,1,0,0:0:0:0:
200,184,138812,1,8,0:0:0:0:
200,192,139000,1,0,0:0:0:0:
176,136,139375,1,8,0:0:0:0:
176,144,139562,1,0,0:0:0:0:
176,144,139750,1,8,0:0:0:0:
176,144,139937,1,0,0:0:0:0:
176,144,140031,1,0,0:0:0:0:
176,144,140125,1,0,0:0:0:0:
176,144,140312,1,8,0:0:0:0:
176,144,140500,1,0,0:0:0:0:
248,120,140875,1,8,0:0:0:0:
248,128,141062,1,0,0:0:0:0:
248,120,141156,1,0,0:0:0:0:
248,128,141250,1,8,0:0:0:0:
208,144,141437,1,0,0:0:0:0:
144,96,141625,1,0,0:0:0:0:
144,104,141812,1,8,0:0:0:0:
208,152,142000,1,0,0:0:0:0:
144,176,142375,1,8,0:0:0:0:
248,128,142562,1,0,0:0:0:0:
248,120,142656,1,0,0:0:0:0:
248,128,142750,1,8,0:0:0:0:
208,144,142937,1,0,0:0:0:0:
144,96,143125,1,0,0:0:0:0:
144,104,143312,1,8,0:0:0:0:
208,152,143500,1,0,0:0:0:0:
208,112,143875,1,8,0:0:0:0:
248,128,144062,1,0,0:0:0:0:
248,120,144156,1,0,0:0:0:0:
248,128,144250,1,8,0:0:0:0:
208,144,144437,1,0,0:0:0:0:
144,96,144625,1,8,0:0:0:0:
144,104,144812,1,8,0:0:0:0:
208,152,145000,1,0,0:0:0:0:
144,152,145375,1,8,0:0:0:0:
144,152,145562,1,0,0:0:0:0:
144,144,145750,1,8,0:0:0:0:
144,152,145843,1,8,0:0:0:0:
144,152,145937,1,0,0:0:0:0:
144,160,146125,1,0,0:0:0:0:
144,160,146312,1,8,0:0:0:0:
168,200,146500,1,0,0:0:0:0:
160,144,146593,1,0,0:0:0:0:
104,208,146687,1,0,0:0:0:0:
104,208,146875,1,8,0:0:0:0:
104,208,147062,1,8,0:0:0:0:
112,128,147250,1,0,0:0:0:0:
104,208,147437,1,12,0:0:0:0:
120,192,147812,1,12,0:0:0:0:
208,160,148000,1,0,0:0:0:0:
160,144,148093,1,0,0:0:0:0:
208,160,148187,1,0,0:0:0:0:
208,160,148375,1,8,0:0:0:0:
208,160,148562,1,0,0:0:0:0:
136,120,148750,1,0,0:0:0:0:
208,160,148937,1,12,0:0:0:0:
208,160,149312,1,12,0:0:0:0:
168,160,149500,1,0,0:0:0:0:
168,168,149593,1,0,0:0:0:0:
168,160,149687,1,0,0:0:0:0:
168,168,149875,1,8,0:0:0:0:
168,168,150062,1,0,0:0:0:0:
168,176,150250,1,8,0:0:0:0:
168,176,150437,1,8,0:0:0:0:
168,176,150531,1,8,0:0:0:0:
176,168,150625,1,0,0:0:0:0:
176,168,150812,1,8,0:0:0:0:
176,168,151000,1,0,0:0:0:0:
216,136,151375,1,8,0:0:0:0:
224,152,151562,1,0,0:0:0:0:
224,152,151750,1,8,0:0:0:0:
216,152,151937,1,0,0:0:0:0:
216,152,152031,1,0,0:0:0:0:
216,152,152125,1,0,0:0:0:0:
224,152,152312,1,0,0:0:0:0:
224,152,152500,1,8,0:0:0:0:
216,136,152875,1,8,0:0:0:0:
224,152,153062,1,0,0:0:0:0:
224,152,153250,1,8,0:0:0:0:
216,152,153437,1,0,0:0:0:0:
216,152,153531,1,0,0:0:0:0:
216,152,153625,1,0,0:0:0:0:
224,152,153812,1,0,0:0:0:0:
224,152,154000,1,0,0:0:0:0:
216,136,154375,1,8,0:0:0:0:
224,152,154562,1,0,0:0:0:0:
224,152,154750,1,8,0:0:0:0:
216,152,154937,1,0,0:0:0:0:
216,152,155031,1,0,0:0:0:0:
216,152,155125,1,0,0:0:0:0:
224,152,155312,1,0,0:0:0:0:
224,152,155500,1,4,0:0:0:0:
144,168,155687,1,0,0:0:0:0:
144,176,155875,1,8,0:0:0:0:
144,176,156062,1,0,0:0:0:0:
144,104,156250,1,8,0:0:0:0:
168,128,156437,1,0,0:0:0:0:
168,128,156531,1,0,0:0:0:0:
176,136,156625,1,0,0:0:0:0:
208,96,157000,1,8,0:0:0:0:
216,120,157187,1,0,0:0:0:0:
216,128,157375,1,8,0:0:0:0:
216,128,157562,1,8,0:0:0:0:
216,136,157750,1,0,0:0:0:0:
216,112,157937,1,0,0:0:0:0:
216,128,158031,1,0,0:0:0:0:
216,120,158125,1,0,0:0:0:0:
400,144,158500,1,0,0:0:0:0:
240,96,158687,1,0,0:0:0:0:
240,112,158781,1,0,0:0:0:0:
240,112,158875,1,8,0:0:0:0:
384,88,159062,1,0,0:0:0:0:
360,120,159250,1,8,0:0:0:0:
360,136,159343,1,8,0:0:0:0:
360,136,159437,1,0,0:0:0:0:
352,136,159531,1,0,0:0:0:0:
352,136,159625,1,8,0:0:0:0:
232,144,159812,1,0,0:0:0:0:
232,152,160000,1,0,0:0:0:0:
128,128,160375,1,8,0:0:0:0:
136,144,160562,1,0,0:0:0:0:
136,144,160750,1,8,0:0:0:0:
144,152,160937,1,0,0:0:0:0:
144,152,161031,1,0,0:0:0:0:
144,152,161125,1,0,0:0:0:0:
184,144,161312,1,0,0:0:0:0:
144,160,161500,1,0,0:0:0:0:
224,144,161687,1,8,0:0:0:0:
224,144,161875,1,0,0:0:0:0:
224,144,162062,1,8,0:0:0:0:
256,144,162250,1,0,0:0:0:0:
224,144,162437,1,8,0:0:0:0:
224,144,162625,1,0,0:0:0:0:
224,144,162812,1,8,0:0:0:0:
256,144,163000,1,0,0:0:0:0:
224,144,163187,1,8,0:0:0:0:
224,144,163375,1,0,0:0:0:0:
224,144,163562,1,8,0:0:0:0:
256,144,163750,1,0,0:0:0:0:
224,144,163937,1,8,0:0:0:0:
224,144,164125,1,0,0:0:0:0:
224,144,164312,1,8,0:0:0:0:
256,144,164500,1,0,0:0:0:0:
224,144,164687,1,8,0:0:0:0:
224,144,164875,1,0,0:0:0:0:
224,144,165062,1,8,0:0:0:0:
256,144,165250,1,0,0:0:0:0:
224,144,165437,1,8,0:0:0:0:
224,144,165625,1,0,0:0:0:0:
224,144,165812,1,8,0:0:0:0:
256,144,166000,1,0,0:0:0:0:
224,144,166187,1,8,0:0:0:0:
224,144,166375,1,0,0:0:0:0:
224,144,166562,1,8,0:0:0:0:
256,144,166750,1,0,0:0:0:0:
224,144,166937,1,8,0:0:0:0:
224,144,167125,1,0,0:0:0:0:
224,144,167312,1,8,0:0:0:0:
264,272,167500,1,0,0:0:0:0:
232,168,167593,1,0,0:0:0:0:
232,168,167687,1,8,0:0:0:0:
232,168,167781,1,0,0:0:0:0:
232,168,167875,1,8,0:0:0:0:
248,112,168062,1,8,0:0:0:0:
248,112,168156,1,0,0:0:0:0:
248,104,168250,1,8,0:0:0:0:
240,128,168343,1,0,0:0:0:0:
240,128,168437,1,0,0:0:0:0:
240,128,168625,1,8,0:0:0:0:
240,128,168718,1,0,0:0:0:0:
240,128,168812,1,0,0:0:0:0:
240,128,168906,1,0,0:0:0:0:
232,176,169000,1,8,0:0:0:0:
176,224,169375,1,8,0:0:0:0:
336,256,169562,1,0,0:0:0:0:
240,184,169750,1,8,0:0:0:0:
280,176,169937,1,0,0:0:0:0:
280,176,170031,1,0,0:0:0:0:
280,176,170125,1,0,0:0:0:0:
280,176,170312,1,0,0:0:0:0:
240,184,170500,1,0,0:0:0:0:
280,176,170875,1,8,0:0:0:0:
280,176,171062,1,0,0:0:0:0:
240,184,171250,1,8,0:0:0:0:
264,120,171437,1,0,0:0:0:0:
264,120,171531,1,0,0:0:0:0:
272,128,171625,1,0,0:0:0:0:
120,176,171812,1,0,0:0:0:0:
240,184,172000,1,8,0:0:0:0:
192,176,172375,1,8,0:0:0:0:
192,192,172562,1,0,0:0:0:0:
240,184,172750,1,8,0:0:0:0:
168,208,172937,1,0,0:0:0:0:
160,208,173031,1,0,0:0:0:0:
160,208,173125,1,0,0:0:0:0:
160,208,173312,1,0,0:0:0:0:
176,120,173500,1,8,0:0:0:0:
176,120,173687,1,0,0:0:0:0:
176,224,173875,1,0,0:0:0:0:
336,256,174062,1,8,0:0:0:0:
240,184,174250,1,0,0:0:0:0:
280,176,174437,1,0,0:0:0:0:
280,176,174531,1,0,0:0:0:0:
280,176,174625,1,0,0:0:0:0:
280,176,174812,1,0,0:0:0:0:
240,184,175000,1,8,0:0:0:0:
280,176,175375,1,8,0:0:0:0:
280,176,175562,1,0,0:0:0:0:
240,184,175750,1,8,0:0:0:0:
264,120,175937,1,0,0:0:0:0:
264,120,176031,1,0,0:0:0:0:
272,128,176125,1,0,0:0:0:0:
120,176,176312,1,0,0:0:0:0:
240,184,176500,1,0,0:0:0:0:
192,176,176875,1,8,0:0:0:0:
192,192,177062,1,0,0:0:0:0:
240,184,177250,1,8,0:0:0:0:
168,208,177437,1,0,0:0:0:0:
160,208,177531,1,0,0:0:0:0:
160,208,177625,1,0,0:0:0:0:
160,208,177812,1,0,0:0:0:0:
160,216,178000,1,0,0:0:0:0:
272,248,178093,1,8,0:0:0:0:
232,200,178281,1,8,0:0:0:0:
232,200,178375,1,8,0:0:0:0:
232,200,178562,1,0,0:0:0:0:
232,200,178656,1,0,0:0:0:0:
232,200,178843,1,0,0:0:0:0:
224,208,178937,1,8,0:0:0:0:
224,208,179031,1,0,0:0:0:0:
224,208,179125,1,0,0:0:0:0:
232,176,179312,1,0,0:0:0:0:
232,200,179500,1,4,0:0:0:0:
312,200,180250,1,12,0:0:0:0:
272,192,180625,1,8,0:0:0:0:
256,216,180812,1,8,0:0:0:0:
248,224,181000,1,0,0:0:0:0:
232,160,181187,1,8,0:0:0:0:
232,160,181375,1,0,0:0:0:0:
224,168,181562,1,8,0:0:0:0:
240,160,181750,1,0,0:0:0:0:
144,144,181843,1,0,0:0:0:0:
240,160,181937,1,0,0:0:0:0:
200,136,182125,1,0,0:0:0:0:
144,160,182312,1,8,0:0:0:0:
248,112,182500,1,4,0:0:0:0:
120,144,183250,1,12,0:0:0:0:
136,144,183625,1,8,0:0:0:0:
136,144,183812,1,8,0:0:0:0:
112,160,184000,1,0,0:0:0:0:
120,160,184187,1,8,0:0:0:0:
112,160,184375,1,0,0:0:0:0:
112,168,184562,1,8,0:0:0:0:
208,152,184750,1,0,0:0:0:0:
208,168,184843,1,0,0:0:0:0:
208,168,184937,1,0,0:0:0:0:
208,168,185125,1,0,0:0:0:0:
152,216,185312,1,8,0:0:0:0:
192,184,185500,1,4,0:0:0:0:
192,184,186250,1,12,0:0:0:0:
192,184,186625,1,8,0:0:0:0:
192,184,186812,1,8,0:0:0:0:
112,160,187000,1,0,0:0:0:0:
120,160,187187,1,8,0:0:0:0:
112,160,187375,1,0,0:0:0:0:
112,168,187562,1,8,0:0:0:0:
208,152,187750,1,0,0:0:0:0:
208,168,187843,1,0,0:0:0:0:
208,168,187937,1,0,0:0:0:0:
208,168,188125,1,0,0:0:0:0:
176,176,188312,1,8,0:0:0:0:
192,152,188500,1,0,0:0:0:0:
200,152,188875,1,8,0:0:0:0:
168,144,189062,1,0,0:0:0:0:
168,144,189156,1,0,0:0:0:0:
160,152,189250,1,8,0:0:0:0:
168,152,189437,1,0,0:0:0:0:
168,152,189625,1,0,0:0:0:0:
88,168,189812,1,8,0:0:0:0:
136,192,190000,1,0,0:0:0:0:
200,136,190375,1,8,0:0:0:0:
192,144,190562,1,0,0:0:0:0:
192,144,190750,1,8,0:0:0:0:
192,144,190937,1,8,0:0:0:0:
192,144,191031,1,8,0:0:0:0:
192,152,191125,1,0,0:0:0:0:
192,152,191312,1,0,0:0:0:0:
192,152,191500,1,4,0:0:0:0:
112,160,192250,1,4,0:0:0:0:
144,184,193000,1,4,0:0:0:0:
208,144,193187,1,0,0:0:0:0:
208,144,193281,1,0,0:0:0:0:
208,144,193375,1,8,0:0:0:0:
256,168,193562,1,8,0:0:0:0:
264,168,193656,1,0,0:0:0:0:
264,168,193750,1,8,0:0:0:0:
272,168,193937,1,0,0:0:0:0:
272,168,194031,1,0,0:0:0:0:
272,168,194125,1,8,0:0:0:0:
272,168,194218,1,0,0:0:0:0:
272,168,194312,1,8,0:0:0:0:
272,168,194406,1,8,0:0:0:0:
272,168,194500,1,0,0:0:0:0:
256,200,194875,1,8,0:0:0:0:
304,256,195062,1,0,0:0:0:0:
304,256,195156,1,0,0:0:0:0:
304,256,195250,1,8,0:0:0:0:
288,256,195437,1,0,0:0:0:0:
288,256,195625,1,8,0:0:0:0:
288,256,195812,1,0,0:0:0:0:
288,256,196000,1,0,0:0:0:0:
288,256,196375,1,8,0:0:0:0:
288,256,196562,1,0,0:0:0:0:
288,256,196656,1,0,0:0:0:0:
288,256,196750,1,8,0:0:0:0:
288,256,196937,1,0,0:0:0:0:
288,256,197125,1,0,0:0:0:0:
256,112,197218,1,0,0:0:0:0:
352,64,197312,1,0,0:0:0:0:
64,184,197500,1,0,0:0:0:0:
304,256,197875,1,8,0:0:0:0:
248,248,198062,1,0,0:0:0:0:
248,248,198156,1,0,0:0:0:0:
248,248,198250,1,8,0:0:0:0:
248,248,198437,1,0,0:0:0:0:
248,248,198625,1,8,0:0:0:0:
248,248,198812,1,0,0:0:0:0:
224,240,199000,1,0,0:0:0:0:
144,136,199375,1,8,0:0:0:0:
144,136,199562,1,0,0:0:0:0:
144,136,199656,1,0,0:0:0:0:
144,136,199750,1,8,0:0:0:0:
144,136,199937,1,0,0:0:0:0:
144,144,200125,1,0,0:0:0:0:
144,144,200312,1,8,0:0:0:0:
152,168,200500,1,0,0:0:0:0:
248,144,200875,1,8,0:0:0:0:
192,192,201062,1,0,0:0:0:0:
192,200,201156,1,0,0:0:0:0:
192,192,201250,1,8,0:0:0:0:
192,192,201437,1,0,0:0:0:0:
192,192,201625,1,8,0:0:0:0:
192,192,201812,1,0,0:0:0:0:
192,192,202000,1,0,0:0:0:0:
200,184,202375,1,8,0:0:0:0:
200,184,202562,1,0,0:0:0:0:
200,184,202656,1,0,0:0:0:0:
200,184,202750,1,8,0:0:0:0:
200,184,202937,1,0,0:0:0:0:
200,184,203125,1,8,0:0:0:0:
200,184,203312,1,8,0:0:0:0:
200,184,203500,1,0,0:0:0:0:
144,128,203875,1,8,0:0:0:0:
128,144,204062,1,0,0:0:0:0:
128,144,204156,1,0,0:0:0:0:
128,144,204250,1,8,0:0:0:0:
160,104,204437,1,0,0:0:0:0:
160,112,204625,1,0,0:0:0:0:
160,104,204718,1,0,0:0:0:0:
152,112,204812,1,0,0:0:0:0:
152,120,205000,1,0,0:0:0:0:
272,144,205375,1,8,0:0:0:0:
264,160,205562,1,0,0:0:0:0:
256,168,205656,1,0,0:0:0:0:
256,168,205750,1,8,0:0:0:0:
184,176,205937,1,0,0:0:0:0:
176,192,206125,1,8,0:0:0:0:
112,160,206312,1,0,0:0:0:0:
168,192,206500,1,0,0:0:0:0:
248,144,206875,1,8,0:0:0:0:
272,240,207062,1,0,0:0:0:0:
272,240,207156,1,0,0:0:0:0:
272,240,207250,1,8,0:0:0:0:
184,256,207437,1,0,0:0:0:0:
184,264,207625,1,0,0:0:0:0:
184,264,207812,1,8,0:0:0:0:
184,264,208000,1,0,0:0:0:0:
184,264,208375,5,0,0:0:0:0:
184,264,208562,1,8,0:0:0:0:
184,264,208656,1,8,0:0:0:0:
184,264,208750,1,0,0:0:0:0:
184,264,208937,1,0,0:0:0:0:
184,264,209125,1,8,0:0:0:0:
184,264,209312,1,0,0:0:0:0:
240,192,209500,5,12,0:0:0:0:
216,256,209687,1,0,0:0:0:0:
216,256,209781,1,0,0:0:0:0:
216,264,209875,1,0,0:0:0:0:
240,192,210062,1,12,0:0:0:0:
304,200,210250,1,0,0:0:0:0:
312,192,210343,1,0,0:0:0:0:
312,200,210437,1,8,0:0:0:0:
264,288,210625,1,8,0:0:0:0:
272,152,210812,1,0,0:0:0:0:
264,288,211000,1,4,0:0:0:0:
168,184,211375,1,8,0:0:0:0:
160,192,211562,1,0,0:0:0:0:
160,192,211750,1,8,0:0:0:0:
152,168,211937,1,0,0:0:0:0:
152,168,212031,1,0,0:0:0:0:
152,168,212125,1,0,0:0:0:0:
112,160,212312,1,0,0:0:0:0:
304,160,212500,5,4,0:0:0:0:
304,168,212781,1,4,0:0:0:0:
288,160,213062,1,12,0:0:0:0:
288,160,213250,1,12,0:0:0:0:
112,176,213531,1,4,0:0:0:0:
192,128,213812,1,12,0:0:0:0:
296,208,214000,1,12,0:0:0:0:
328,208,214187,1,8,0:0:0:0:
328,208,214375,1,8,0:0:0:0:
328,216,214562,1,8,0:0:0:0:
328,216,214750,1,8,0:0:0:0:
