osu file format v14

[General]
AudioFilename: audio.mp3
AudioLeadIn: 0
PreviewTime: 7000
Countdown: 0
SampleSet: Normal
StackLeniency: 0.7
Mode: 1
LetterboxInBreaks: 0
WidescreenStoryboard: 1

[Editor]
Bookmarks: 6906,26593,33906,50500,53406,66906,79000,85000,86406,87906,108906,120906,161500,167500,168906
DistanceSpacing: 0.8
BeatDivisor: 2
GridSize: 8
TimelineZoom: 0.4999997

[Metadata]
Title:Sambalado
TitleUnicode:Sambalado
Artist:Ayu Ting Ting
ArtistUnicode:Ayu Ting Ting
Creator:Volta
Version:Kantan
Source:
Tags:sambal balado pedas panas bergetar bergoyang dangdut indonesia
BeatmapID:1633078
BeatmapSetID:542425

[Difficulty]
HPDrainRate:7
CircleSize:5
OverallDifficulty:3
ApproachRate:5
SliderMultiplier:1.4
SliderTickRate:1

[Events]
//Background and Video events
0,0,"balado.png",0,0
//Break Periods
//Storyboard Layer 0 (Background)
//Storyboard Layer 1 (Fail)
//Storyboard Layer 2 (Pass)
//Storyboard Layer 3 (Foreground)
//Storyboard Sound Samples

[TimingPoints]
1000,375,4,1,0,90,1,0
34000,-100,4,1,0,90,0,1
50500,-100,4,1,0,90,0,0
194500,-100,4,1,0,90,0,1
211000,-100,4,1,0,90,0,0

[HitObjects]
176,144,1000,5,0,0:0:0:0:
176,144,1750,1,8,0:0:0:0:
176,144,2500,1,8,0:0:0:0:
176,144,3250,1,8,0:0:0:0:
176,144,3625,1,8,0:0:0:0:
176,144,4000,1,0,0:0:0:0:
176,144,4750,1,8,0:0:0:0:
232,96,5500,1,8,0:0:0:0:
232,96,6250,1,8,0:0:0:0:
232,96,6625,1,8,0:0:0:0:
208,112,7000,1,0,0:0:0:0:
208,112,7562,1,0,0:0:0:0:
208,112,8125,1,0,0:0:0:0:
208,112,8500,1,8,0:0:0:0:
208,112,10000,1,0,0:0:0:0:
224,152,10750,1,0,0:0:0:0:
208,112,11125,1,0,0:0:0:0:
208,112,11500,1,8,0:0:0:0:
184,160,12250,5,0,0:0:0:0:
208,112,13000,1,8,0:0:0:0:
208,112,13562,1,8,0:0:0:0:
208,112,14125,1,0,0:0:0:0:
208,112,14500,1,8,0:0:0:0:
128,136,16000,1,0,0:0:0:0:
104,144,16750,1,8,0:0:0:0:
128,136,17125,1,8,0:0:0:0:
128,136,17500,1,0,0:0:0:0:
128,136,18062,1,0,0:0:0:0:
64,160,18625,1,0,0:0:0:0:
64,160,19000,1,4,0:0:0:0:
128,136,19750,1,12,0:0:0:0:
224,72,20500,1,4,0:0:0:0:
256,120,22000,1,4,0:0:0:0:
256,120,22750,1,12,0:0:0:0:
256,120,23500,1,4,0:0:0:0:
224,128,25000,1,4,0:0:0:0:
224,128,25750,1,12,0:0:0:0:
224,128,26500,1,4,0:0:0:0:
136,136,28000,1,0,0:0:0:0:
128,136,28750,1,8,0:0:0:0:
128,136,29500,1,0,0:0:0:0:
160,136,30250,1,8,0:0:0:0:
160,136,30625,1,0,0:0:0:0:
128,136,31000,1,4,0:0:0:0:
256,104,31750,1,4,0:0:0:0:
256,104,32500,1,4,0:0:0:0:
208,168,32875,1,4,0:0:0:0:
208,168,33250,1,4,0:0:0:0:
256,104,34000,5,12,0:0:0:0:
224,104,35125,1,8,0:0:0:0:
224,104,35500,1,0,0:0:0:0:
224,104,36250,1,8,0:0:0:0:
224,104,37000,1,0,0:0:0:0:
168,128,37750,1,0,0:0:0:0:
200,128,38125,1,8,0:0:0:0:
224,104,38500,1,0,0:0:0:0:
224,104,39250,1,8,0:0:0:0:
224,104,40000,1,0,0:0:0:0:
248,144,40750,1,8,0:0:0:0:
224,104,41125,1,8,0:0:0:0:
224,104,41500,1,0,0:0:0:0:
224,104,42250,1,8,0:0:0:0:
224,104,43000,1,0,0:0:0:0:
128,160,44125,1,0,0:0:0:0:
224,120,44500,1,8,0:0:0:0:
224,120,45250,1,8,0:0:0:0:
224,120,45625,1,8,0:0:0:0:
224,120,46000,1,0,0:0:0:0:
224,120,46750,1,0,0:0:0:0:
224,120,47500,1,8,0:0:0:0:
224,120,48250,1,8,0:0:0:0:
224,120,48625,1,0,0:0:0:0:
224,120,49000,1,12,0:0:0:0:
224,120,49562,1,8,0:0:0:0:
224,120,50125,1,8,0:0:0:0:
224,120,50500,1,4,0:0:0:0:
272,104,52000,1,4,0:0:0:0:
272,104,52750,1,12,0:0:0:0:
272,104,53500,1,4,0:0:0:0:
160,128,54250,1,8,0:0:0:0:
224,128,54625,1,0,0:0:0:0:
240,120,55000,1,8,0:0:0:0:
208,152,55750,1,8,0:0:0:0:
208,152,56500,1,0,0:0:0:0:
208,152,57250,1,8,0:0:0:0:
208,152,57625,1,8,0:0:0:0:
184,112,58000,1,0,0:0:0:0:
152,168,59500,1,8,0:0:0:0:
152,168,60250,1,0,0:0:0:0:
192,120,60625,1,0,0:0:0:0:
152,168,61000,1,8,0:0:0:0:
192,112,61750,1,0,0:0:0:0:
152,168,62500,1,8,0:0:0:0:
152,168,63250,1,0,0:0:0:0:
152,168,63625,1,8,0:0:0:0:
152,168,64000,1,0,0:0:0:0:
176,168,65500,1,4,0:0:0:0:
176,168,66250,1,12,0:0:0:0:
168,168,67000,1,4,0:0:0:0:
144,160,67750,1,8,0:0:0:0:
144,160,68125,1,0,0:0:0:0:
144,160,68500,1,8,0:0:0:0:
112,120,69250,1,0,0:0:0:0:
120,128,70000,1,8,0:0:0:0:
120,128,70750,1,8,0:0:0:0:
120,128,71125,1,0,0:0:0:0:
120,128,71500,1,0,0:0:0:0:
112,200,73000,1,8,0:0:0:0:
112,200,73750,1,0,0:0:0:0:
112,200,74125,1,8,0:0:0:0:
112,200,74500,1,8,0:0:0:0:
112,200,75250,1,0,0:0:0:0:
112,200,76000,1,8,0:0:0:0:
112,200,76750,1,0,0:0:0:0:
112,200,77125,1,8,0:0:0:0:
112,200,77500,1,0,0:0:0:0:
200,160,79000,1,0,0:0:0:0:
200,160,79750,1,8,0:0:0:0:
304,112,80125,1,8,0:0:0:0:
200,160,80500,1,0,0:0:0:0:
200,160,81250,1,8,0:0:0:0:
304,112,81625,1,8,0:0:0:0:
200,160,82000,1,0,0:0:0:0:
200,160,82750,1,0,0:0:0:0:
200,160,83500,1,8,0:0:0:0:
224,152,85000,1,8,0:0:0:0:
224,152,85750,1,0,0:0:0:0:
224,152,86500,1,8,0:0:0:0:
240,224,88000,1,4,0:0:0:0:
208,104,88750,1,8,0:0:0:0:
208,104,89500,1,0,0:0:0:0:
144,112,89875,1,0,0:0:0:0:
208,104,90250,1,8,0:0:0:0:
208,104,91000,1,0,0:0:0:0:
208,104,91750,1,8,0:0:0:0:
208,104,92500,1,0,0:0:0:0:
144,112,92875,1,8,0:0:0:0:
208,144,93250,1,8,0:0:0:0:
264,128,94000,1,0,0:0:0:0:
264,128,94750,1,8,0:0:0:0:
216,96,95500,1,0,0:0:0:0:
248,152,97000,1,4,0:0:0:0:
256,152,97750,1,0,0:0:0:0:
256,152,98125,1,8,0:0:0:0:
256,152,98500,1,8,0:0:0:0:
264,144,99250,1,8,0:0:0:0:
264,144,100000,1,0,0:0:0:0:
264,144,100750,1,8,0:0:0:0:
264,144,101125,1,8,0:0:0:0:
264,144,101500,1,0,0:0:0:0:
256,144,103000,1,0,0:0:0:0:
256,144,103750,1,0,0:0:0:0:
256,144,104125,1,8,0:0:0:0:
256,144,104500,1,8,0:0:0:0:
256,144,105250,1,8,0:0:0:0:
256,144,106000,1,0,0:0:0:0:
256,144,106750,1,0,0:0:0:0:
256,144,107125,1,8,0:0:0:0:
256,144,107500,1,0,0:0:0:0:
256,168,109000,1,4,0:0:0:0:
168,232,109750,1,8,0:0:0:0:
112,216,110500,1,8,0:0:0:0:
112,224,111250,1,8,0:0:0:0:
112,224,111625,1,0,0:0:0:0:
112,224,112000,1,8,0:0:0:0:
184,160,113125,1,0,0:0:0:0:
144,168,113500,1,8,0:0:0:0:
240,152,114250,1,0,0:0:0:0:
240,152,115000,1,0,0:0:0:0:
200,144,115750,1,8,0:0:0:0:
200,144,116500,1,8,0:0:0:0:
200,144,117250,1,0,0:0:0:0:
200,144,117625,1,0,0:0:0:0:
200,144,118000,1,8,0:0:0:0:
184,224,119500,1,4,0:0:0:0:
184,200,120250,1,12,0:0:0:0:
184,200,121000,1,4,0:0:0:0:
160,128,121750,1,8,0:0:0:0:
224,128,122125,1,0,0:0:0:0:
240,120,122500,1,8,0:0:0:0:
208,152,123250,1,8,0:0:0:0:
208,152,124000,1,0,0:0:0:0:
208,152,124750,1,8,0:0:0:0:
208,152,125125,1,8,0:0:0:0:
184,112,125500,1,0,0:0:0:0:
152,168,127000,1,8,0:0:0:0:
152,168,127750,1,0,0:0:0:0:
192,120,128125,1,0,0:0:0:0:
152,168,128500,1,8,0:0:0:0:
192,112,129250,1,0,0:0:0:0:
152,168,130000,1,8,0:0:0:0:
152,168,130750,1,0,0:0:0:0:
152,168,131125,1,8,0:0:0:0:
152,168,131500,1,0,0:0:0:0:
40,144,133000,1,4,0:0:0:0:
88,152,133750,1,12,0:0:0:0:
112,160,134500,1,4,0:0:0:0:
144,160,135250,1,8,0:0:0:0:
144,160,135625,1,0,0:0:0:0:
144,160,136000,1,8,0:0:0:0:
112,120,136750,1,0,0:0:0:0:
120,128,137500,1,8,0:0:0:0:
120,128,138250,1,8,0:0:0:0:
120,128,138625,1,0,0:0:0:0:
120,128,139000,1,0,0:0:0:0:
112,200,140500,1,8,0:0:0:0:
112,200,141250,1,0,0:0:0:0:
112,200,141625,1,8,0:0:0:0:
112,200,142000,1,8,0:0:0:0:
112,200,142750,1,0,0:0:0:0:
112,200,143500,1,8,0:0:0:0:
112,200,144250,1,0,0:0:0:0:
112,200,144625,1,8,0:0:0:0:
112,200,145000,1,0,0:0:0:0:
200,160,146500,1,0,0:0:0:0:
200,160,147250,1,8,0:0:0:0:
304,112,147625,1,8,0:0:0:0:
200,160,148000,1,0,0:0:0:0:
200,160,148750,1,8,0:0:0:0:
304,112,149125,1,8,0:0:0:0:
200,160,149500,1,0,0:0:0:0:
200,160,150250,1,0,0:0:0:0:
200,160,151000,1,8,0:0:0:0:
224,152,152500,1,8,0:0:0:0:
224,152,153250,1,0,0:0:0:0:
224,152,154000,1,8,0:0:0:0:
240,224,155500,1,0,0:0:0:0:
208,104,156250,1,8,0:0:0:0:
208,104,157000,1,0,0:0:0:0:
96,184,157375,1,0,0:0:0:0:
208,104,157750,1,8,0:0:0:0:
336,232,158500,1,0,0:0:0:0:
208,104,159250,1,8,0:0:0:0:
208,104,160000,1,0,0:0:0:0:
176,144,161500,5,0,0:0:0:0:
176,144,162250,1,0,0:0:0:0:
176,144,163000,1,8,0:0:0:0:
176,144,163750,1,8,0:0:0:0:
176,144,164125,1,8,0:0:0:0:
176,144,164500,1,0,0:0:0:0:
176,144,165250,1,0,0:0:0:0:
232,96,166000,1,8,0:0:0:0:
232,96,166750,1,8,0:0:0:0:
232,96,167125,1,8,0:0:0:0:
208,112,167500,1,0,0:0:0:0:
208,112,168062,1,0,0:0:0:0:
208,112,168625,1,0,0:0:0:0:
208,112,169000,1,8,0:0:0:0:
208,112,170500,1,0,0:0:0:0:
224,152,171250,1,0,0:0:0:0:
208,112,171625,1,0,0:0:0:0:
208,112,172000,1,8,0:0:0:0:
184,160,172750,5,0,0:0:0:0:
208,112,173500,1,8,0:0:0:0:
208,112,174062,1,8,0:0:0:0:
208,112,174625,1,0,0:0:0:0:
208,112,175000,1,8,0:0:0:0:
128,136,176500,1,0,0:0:0:0:
104,144,177250,1,8,0:0:0:0:
128,136,177625,1,8,0:0:0:0:
128,136,178000,1,0,0:0:0:0:
128,136,178562,1,0,0:0:0:0:
64,160,179125,1,0,0:0:0:0:
64,160,179500,1,4,0:0:0:0:
128,136,180250,1,12,0:0:0:0:
224,72,181000,1,4,0:0:0:0:
256,120,182500,1,4,0:0:0:0:
256,120,183250,1,12,0:0:0:0:
256,120,184000,1,4,0:0:0:0:
224,128,185500,1,4,0:0:0:0:
224,128,186250,1,12,0:0:0:0:
224,128,187000,1,4,0:0:0:0:
136,136,188500,1,0,0:0:0:0:
128,136,189250,1,8,0:0:0:0:
128,136,190000,1,0,0:0:0:0:
160,136,190750,1,8,0:0:0:0:
160,136,191125,1,0,0:0:0:0:
128,136,191500,1,4,0:0:0:0:
256,104,192250,1,4,0:0:0:0:
256,104,193000,1,4,0:0:0:0:
240,128,193375,1,4,0:0:0:0:
240,128,193750,1,4,0:0:0:0:
256,104,194500,1,12,0:0:0:0:
224,104,195625,1,8,0:0:0:0:
224,104,196000,1,0,0:0:0:0:
224,104,196750,1,8,0:0:0:0:
224,104,197500,1,0,0:0:0:0:
136,136,198250,1,0,0:0:0:0:
136,136,198625,1,8,0:0:0:0:
224,104,199000,1,0,0:0:0:0:
224,104,199750,1,8,0:0:0:0:
224,104,200500,1,0,0:0:0:0:
248,88,201250,1,8,0:0:0:0:
224,104,201625,1,8,0:0:0:0:
224,104,202000,1,0,0:0:0:0:
224,104,202750,1,8,0:0:0:0:
224,104,203500,1,0,0:0:0:0:
184,160,204625,1,0,0:0:0:0:
224,120,205000,1,8,0:0:0:0:
224,120,205750,1,8,0:0:0:0:
224,120,206125,1,8,0:0:0:0:
224,120,206500,1,0,0:0:0:0:
224,120,207250,1,0,0:0:0:0:
224,120,208000,1,8,0:0:0:0:
224,120,208750,1,8,0:0:0:0:
224,120,209125,1,0,0:0:0:0:
224,120,209500,1,12,0:0:0:0:
224,120,210062,1,8,0:0:0:0:
224,120,210625,1,8,0:0:0:0:
224,120,211000,1,4,0:0:0:0:
264,160,212500,1,4,0:0:0:0:
264,160,213250,1,12,0:0:0:0:
264,160,214000,1,4,0:0:0:0:
