osu file format v14

[General]
AudioFilename: audio.mp3
AudioLeadIn: 0
PreviewTime: 8030
Countdown: 1
SampleSet: Normal
StackLeniency: 0.7
Mode: 0
LetterboxInBreaks: 0
WidescreenStoryboard: 1

[Editor]
Bookmarks: 102889,178311,205354
DistanceSpacing: 1
BeatDivisor: 6
GridSize: 4
TimelineZoom: 2

[Metadata]
Title:Chaos
TitleUnicode:Chaos
Artist:Ayreon
ArtistUnicode:Ayreon
Creator:Elirac
Version:Primordial
Source:
Tags:heavy progressif rock metal Arjen Anthony Lucassen the universal migrator flight of the migrator
BeatmapID:1563395
BeatmapSetID:741131

[Difficulty]
HPDrainRate:5
CircleSize:4.3
OverallDifficulty:9
ApproachRate:9.5
SliderMultiplier:2.7
SliderTickRate:1

[Events]
//Background and Video events
0,0,"bg.jpg",0,0
//Break Periods
2,27032,29054
2,111329,120322
//Storyboard Layer 0 (Background)
//Storyboard Layer 1 (Fail)
//Storyboard Layer 2 (Pass)
//Storyboard Layer 3 (Foreground)
//Storyboard Sound Samples

[TimingPoints]
1270,422.535211267606,4,1,0,50,1,0
1270,-83.3333333333333,4,1,0,50,0,0
26516,-66.6666666666667,4,1,0,50,0,0
29579,-125,4,1,0,50,0,0
30002,-83.3333333333333,4,1,0,50,0,0
55565,-58.8235294117647,4,1,0,50,0,0
55988,-58.8235294117647,4,1,0,50,0,0
62115,-83.3333333333333,4,1,0,50,0,0
120847,422.535211267606,4,1,0,50,1,0
120847,-83.3333333333333,4,1,0,50,0,0
148734,-166.666666666667,4,1,0,50,0,0
149579,-83.3333333333333,4,1,0,50,0,0
177466,-166.666666666667,4,1,0,50,0,0
178340,422.535211267606,4,1,0,50,1,0
178340,-83.3333333333333,4,1,0,50,0,0
191016,-117.647058823529,4,1,0,50,0,0
191861,-83.3333333333333,4,1,0,50,0,0
212142,-71.4285714285714,4,1,0,50,0,0
230734,-52.6315789473684,4,1,0,50,0,0

[Colours]
Combo1 : 44,58,97
Combo2 : 72,37,90
Combo3 : 241,150,14
Combo4 : 189,32,36

[HitObjects]
124,204,1270,5,0,0:0:0:0:
381,177,1481,1,0,0:0:0:0:
114,294,1692,2,0,P|144:317|192:325,1,80.9999975280763
270,325,1903,2,0,P|309:318|342:294,2,80.9999975280763
227,260,2220,2,0,P|225:221|247:178,3,80.9999975280763
291,105,2643,2,0,P|329:106|372:84,2,80.9999975280763
184,62,2960,6,0,P|101:59|73:133,1,161.999995056153
226,259,3382,2,0,P|190:327|114:320,1,161.999995056153
141,116,3805,1,0,0:0:0:0:
326,26,4016,1,0,0:0:0:0:
367,88,4122,1,0,0:0:0:0:
410,148,4227,2,0,P|365:222|330:146,1,161.999995056153
86,203,4650,5,0,0:0:0:0:
200,334,4861,2,0,P|253:344|307:328,2,80.9999975280763
123,286,5178,1,0,0:0:0:0:
203,244,5284,2,0,P|256:254|310:238,2,80.9999975280763
156,169,5600,1,0,0:0:0:0:
174,83,5705,1,0,0:0:0:0:
240,25,5811,1,0,0:0:0:0:
327,17,5916,1,0,0:0:0:0:
402,62,6022,1,0,0:0:0:0:
436,143,6128,1,0,0:0:0:0:
416,228,6233,1,0,0:0:0:0:
351,309,6340,6,0,P|319:332|253:333,1,80.9999975280763
189,340,6551,1,0,0:0:0:0:
105,312,6656,1,0,0:0:0:0:
51,243,6762,1,0,0:0:0:0:
43,155,6867,1,0,0:0:0:0:
84,78,6973,1,0,0:0:0:0:
161,35,7079,1,0,0:0:0:0:
249,42,7185,2,0,P|274:84|259:136,1,80.9999975280763
239,197,7396,1,0,0:0:0:0:
214,279,7501,1,0,0:0:0:0:
265,349,7607,1,0,0:0:0:0:
351,352,7712,1,0,0:0:0:0:
406,286,7819,1,0,0:0:0:0:
420,201,7924,1,0,0:0:0:0:
420,201,7977,1,0,0:0:0:0:
420,201,8030,6,0,L|339:155,1,80.9999975280763
271,114,8241,1,0,0:0:0:0:
316,270,8453,1,0,0:0:0:0:
265,294,8558,1,0,0:0:0:0:
208,297,8664,1,0,0:0:0:0:
155,281,8769,1,0,0:0:0:0:
111,245,8875,1,0,0:0:0:0:
143,199,8980,1,0,0:0:0:0:
155,144,9086,1,0,0:0:0:0:
143,89,9191,1,0,0:0:0:0:
110,43,9298,1,0,0:0:0:0:
162,64,9403,1,0,0:0:0:0:
219,63,9509,1,0,0:0:0:0:
270,40,9614,1,0,0:0:0:0:
309,0,9720,6,0,P|389:37|469:8,1,161.999995056153
371,242,10143,2,0,P|343:270|292:275,3,80.9999975280763
196,258,10566,1,0,0:0:0:0:
112,200,10671,1,0,0:0:0:0:
105,98,10777,1,0,0:0:0:0:
181,31,10882,1,0,0:0:0:0:
283,29,10988,2,0,P|331:97|249:133,1,161.999995056153
303,277,11410,6,0,L|390:359,1,80.9999975280763
120,277,11727,2,0,L|33:359,1,80.9999975280763
74,74,12044,2,0,L|161:156,1,80.9999975280763
283,139,12255,2,0,L|224:83,1,80.9999975280763
194,277,12572,2,0,L|281:359,1,80.9999975280763
436,294,12889,2,0,L|377:238,1,80.9999975280763
311,179,13100,6,0,P|261:175|229:192,3,80.9999975280763
142,223,13523,2,0,P|92:227|60:210,3,80.9999975280763
48,137,13946,2,0,P|52:87|35:55,3,80.9999975280763
117,18,14368,2,0,P|201:41|281:4,1,161.999995056153
432,124,14791,6,0,L|319:281,1,161.999995056153
183,343,15108,2,0,L|277:211,1,161.999995056153
333,136,15424,2,0,L|242:128,1,80.9999975280763
161,193,15636,2,0,L|70:185,1,80.9999975280763
125,40,15847,2,0,L|205:47,1,80.9999975280763
183,120,16058,2,0,L|103:113,1,80.9999975280763
252,128,16270,2,0,L|333:136,1,80.9999975280763
454,224,16481,6,0,L|287:269,1,161.999995056153
108,250,16798,2,0,L|264:207,1,161.999995056153
399,167,17115,2,0,L|426:76,1,80.9999975280763
317,147,17326,2,0,L|344:56,1,80.9999975280763
235,127,17537,2,0,L|262:36,1,80.9999975280763
154,94,17748,2,0,L|107:249,1,161.999995056153
131,331,18065,1,0,0:0:0:0:
210,370,18171,6,0,L|384:332,1,161.999995056153
500,218,18488,2,0,L|341:252,1,161.999995056153
241,272,18805,2,0,L|260:186,1,80.9999975280763
200,105,19016,2,0,L|182:184,1,80.9999975280763
93,224,19227,2,0,L|112:138,1,80.9999975280763
129,68,19439,1,0,0:0:0:0:
193,24,19544,1,0,0:0:0:0:
264,55,19650,2,0,L|339:106,1,80.9999975280763
428,175,19861,6,0,L|289:300,1,161.999995056153
285,155,20178,2,0,L|146:280,1,161.999995056153
73,265,20495,2,0,L|26:176,1,80.9999975280763
147,177,20706,2,0,L|194:88,1,80.9999975280763
285,155,20917,2,0,L|380:112,1,80.9999975280763
433,26,21129,2,0,P|332:45|267:4,1,161.999995056153
85,39,21551,6,0,L|28:212,1,161.999995056153
67,352,21868,2,0,L|117:198,1,161.999995056153
193,285,22185,2,0,L|268:223,1,80.9999975280763
354,287,22396,2,0,L|429:225,1,80.9999975280763
408,106,22608,2,0,L|333:168,1,80.9999975280763
247,104,22819,2,0,L|172:166,1,80.9999975280763
193,285,23030,2,0,L|268:223,1,80.9999975280763
345,157,23241,6,0,L|375:-22,1,161.999995056153
481,136,23558,2,0,L|454:295,1,161.999995056153
333,348,23875,2,0,L|314:233,1,80.9999975280763
221,319,24086,2,0,L|202:204,1,80.9999975280763
109,290,24298,2,0,L|90:175,1,80.9999975280763
79,88,24509,2,0,L|248:131,1,161.999995056153
320,154,24826,1,0,0:0:0:0:
423,85,24931,6,0,L|396:244,1,161.999995056153
283,381,25248,2,0,L|309:221,1,161.999995056153
213,265,25565,2,0,L|183:175,1,80.9999975280763
249,157,25777,2,0,L|279:67,1,80.9999975280763
165,45,25988,2,0,L|190:121,1,80.9999975280763
128,151,26199,2,0,L|102:227,1,80.9999975280763
131,326,26410,1,0,0:0:0:0:
213,265,26516,6,0,B|239:346|239:346|277:284|277:284|333:257|391:289|398:350|398:350,1,303.750011587143
94,91,29579,6,0,P|136:112|199:92,1,108
354,65,30002,6,0,P|390:90|400:146,1,80.9999975280763
407,215,30213,1,0,0:0:0:0:
392,301,30318,1,0,0:0:0:0:
315,342,30424,1,0,0:0:0:0:
236,305,30529,1,0,0:0:0:0:
217,219,30635,1,0,0:0:0:0:
233,130,30741,1,0,0:0:0:0:
218,40,30847,2,0,P|181:29|124:45,1,80.9999975280763
68,92,31058,1,0,0:0:0:0:
45,178,31163,1,0,0:0:0:0:
68,265,31269,1,0,0:0:0:0:
131,329,31374,1,0,0:0:0:0:
217,354,31480,1,0,0:0:0:0:
304,332,31586,1,0,0:0:0:0:
374,253,31692,6,0,P|384:202|363:153,1,80.9999975280763
272,204,31903,2,0,P|261:153|283:104,1,80.9999975280763
320,23,32115,1,0,0:0:0:0:
402,52,32220,1,0,0:0:0:0:
459,120,32326,1,0,0:0:0:0:
472,207,32431,1,0,0:0:0:0:
440,289,32537,2,0,P|412:320|365:329,1,80.9999975280763
276,322,32748,1,0,0:0:0:0:
177,319,32854,1,0,0:0:0:0:
79,339,32960,2,0,P|117:254|70:176,1,161.999995056153
162,68,33382,6,0,P|157:118|184:166,1,80.9999975280763
217,222,33593,1,0,0:0:0:0:
294,261,33698,1,0,0:0:0:0:
367,216,33804,1,0,0:0:0:0:
366,129,33910,1,0,0:0:0:0:
293,82,34015,1,0,0:0:0:0:
202,80,34121,1,0,0:0:0:0:
120,45,34227,2,0,P|125:95|98:143,1,80.9999975280763
76,210,34439,1,0,0:0:0:0:
110,291,34544,1,0,0:0:0:0:
176,349,34650,1,0,0:0:0:0:
262,372,34755,1,0,0:0:0:0:
348,354,34861,1,0,0:0:0:0:
418,301,34967,1,0,0:0:0:0:
458,222,35072,6,0,P|464:170|434:125,1,80.9999975280763
418,63,35284,1,0,0:0:0:0:
375,131,35389,1,0,0:0:0:0:
307,173,35495,1,0,0:0:0:0:
227,182,35600,1,0,0:0:0:0:
151,156,35706,1,0,0:0:0:0:
95,99,35812,1,0,0:0:0:0:
68,23,35917,2,0,P|117:4|168:29,1,80.9999975280763
220,38,36129,1,0,0:0:0:0:
264,108,36234,1,0,0:0:0:0:
227,182,36340,2,0,P|178:232|95:214,1,161.999995056153
271,337,36762,6,0,P|330:313|434:367,1,161.999995056153
227,182,37185,2,0,P|269:195|326:169,1,80.9999975280763
388,155,37396,1,0,0:0:0:0:
422,85,37501,1,0,0:0:0:0:
383,17,37607,1,0,0:0:0:0:
305,13,37712,1,0,0:0:0:0:
258,74,37819,1,0,0:0:0:0:
189,114,37924,1,0,0:0:0:0:
109,110,38030,1,0,0:0:0:0:
162,169,38135,1,0,0:0:0:0:
170,248,38241,1,0,0:0:0:0:
131,318,38346,1,0,0:0:0:0:
59,351,38453,6,0,P|42:312|57:262,3,80.9999975280763
84,172,38875,2,0,P|125:160|185:187,1,80.9999975280763
242,213,39086,1,0,0:0:0:0:
327,236,39191,1,0,0:0:0:0:
413,220,39298,2,0,P|427:181|418:123,1,80.9999975280763
334,43,39509,2,0,P|320:82|329:140,1,80.9999975280763
327,236,39720,2,0,P|285:323|211:318,1,161.999995056153
50,206,40143,6,0,L|158:216,1,80.9999975280763
197,176,40354,1,0,0:0:0:0:
242,104,40460,2,0,L|332:123,1,80.9999975280763
401,141,40671,1,0,0:0:0:0:
475,220,40777,2,0,L|359:233,1,80.9999975280763
349,322,40988,2,0,L|233:335,1,80.9999975280763
176,295,41199,1,0,0:0:0:0:
130,213,41305,2,0,L|109:118,1,80.9999975280763
127,39,41516,1,0,0:0:0:0:
224,24,41622,2,0,L|241:103,1,80.9999975280763
261,191,41833,6,0,P|300:199|338:187,3,80.9999975280763
419,149,42255,2,0,P|415:199|432:231,3,80.9999975280763
481,301,42678,2,0,P|447:338|412:348,3,80.9999975280763
328,330,43100,2,0,P|229:304|166:336,1,161.999995056153
39,156,43523,6,0,L|236:203,1,161.999995056153
393,168,43840,2,0,L|235:130,1,161.999995056153
319,15,44157,2,0,L|420:39,1,80.9999975280763
497,121,44368,2,0,L|418:102,1,80.9999975280763
314,149,44579,2,0,L|415:173,1,80.9999975280763
473,258,44791,2,0,L|394:239,1,80.9999975280763
324,316,45002,2,0,L|245:297,1,80.9999975280763
94,357,45213,6,0,L|11:198,1,161.999995056153
52,13,45530,2,0,L|126:156,1,161.999995056153
182,247,45847,2,0,L|273:218,1,80.9999975280763
405,247,46058,2,0,L|327:222,1,80.9999975280763
293,361,46270,2,0,L|293:260,1,80.9999975280763
293,118,46481,2,0,L|293:286,1,161.999995056153
373,343,46798,1,0,0:0:0:0:
470,332,46903,6,0,L|512:149,1,161.999995056153
418,1,47220,2,0,L|381:158,1,161.999995056153
293,280,47537,2,0,L|207:261,1,80.9999975280763
130,155,47748,2,0,L|209:172,1,80.9999975280763
303,103,47960,2,0,L|217:84,1,80.9999975280763
128,64,48171,1,0,0:0:0:0:
41,108,48277,1,0,0:0:0:0:
60,211,48382,2,0,L|41:312,1,80.9999975280763
196,317,48593,6,0,L|364:254,1,161.999995056153
209,172,48910,2,0,L|377:109,1,161.999995056153
239,67,49227,2,0,L|156:40,1,80.9999975280763
126,152,49439,2,0,L|63:91,1,80.9999975280763
54,256,49650,2,0,L|24:173,1,80.9999975280763
148,263,49861,2,0,P|218:309|298:267,1,161.999995056153
455,46,50284,6,0,L|418:235,1,161.999995056153
285,283,50600,2,0,L|316:124,1,161.999995056153
207,39,50917,2,0,L|100:44,1,80.9999975280763
48,125,51129,2,0,L|128:128,1,80.9999975280763
227,198,51340,2,0,L|120:203,1,80.9999975280763
68,284,51551,2,0,L|148:287,1,80.9999975280763
247,350,51762,2,0,L|327:353,1,80.9999975280763
442,244,51974,6,0,L|262:288,1,161.999995056153
146,201,52291,2,0,L|303:162,1,161.999995056153
409,59,52608,2,0,L|380:149,1,80.9999975280763
296,39,52819,2,0,L|236:112,1,80.9999975280763
170,23,53030,2,0,L|88:70,1,80.9999975280763
40,160,53241,2,0,L|104:319,1,161.999995056153
198,331,53558,1,0,0:0:0:0:
284,282,53664,6,0,L|320:91,1,161.999995056153
464,34,53981,2,0,L|434:193,1,161.999995056153
410,335,54298,2,0,L|321:350,1,80.9999975280763
198,331,54509,2,0,L|109:346,1,80.9999975280763
31,235,54720,2,0,L|120:250,1,80.9999975280763
243,231,54931,2,0,L|332:246,1,80.9999975280763
198,331,55143,2,0,L|109:346,1,80.9999975280763
125,262,55354,5,0,0:0:0:0:
125,262,55424,1,0,0:0:0:0:
125,262,55495,1,0,0:0:0:0:
125,262,55565,2,0,L|199:134,1,114.750002188683
182,162,57255,6,0,L|311:189,1,114.750002188683
459,82,57467,2,0,L|313:92,1,114.750002188683
344,89,58946,6,0,L|376:199,1,114.750002188683
262,295,59157,2,0,L|294:185,1,114.750002188683
178,79,59368,2,0,L|210:189,1,114.750002188683
105,329,60424,6,0,L|94:188,1,114.750002188683
285,70,60847,2,0,L|293:184,1,114.750002188683
453,334,61270,2,0,L|442:193,1,114.750002188683
294,289,61586,1,0,0:0:0:0:
294,289,61692,1,0,0:0:0:0:
374,169,61903,1,0,0:0:0:0:
285,70,62115,2,0,P|172:82|202:214,1,242.999992584229
294,289,62748,5,0,0:0:0:0:
444,219,62960,1,0,0:0:0:0:
400,56,63171,2,0,P|289:64|301:174,1,242.999992584229
399,307,63805,1,0,0:0:0:0:
242,348,64016,1,0,0:0:0:0:
104,271,64227,2,0,P|105:165|226:191,1,242.999992584229
332,364,64861,5,0,0:0:0:0:
356,216,65072,1,0,0:0:0:0:
192,267,65284,1,0,0:0:0:0:
414,303,65495,1,0,0:0:0:0:
452,187,65706,1,0,0:0:0:0:
418,64,65917,1,0,0:0:0:0:
242,0,66129,2,0,P|208:94|331:146,1,242.999992584229
110,138,66762,5,0,0:0:0:0:
60,306,66974,1,0,0:0:0:0:
239,294,67185,1,0,0:0:0:0:
64,310,67396,1,0,0:0:0:0:
64,310,67502,1,0,0:0:0:0:
205,184,67819,1,0,0:0:0:0:
343,273,68030,1,0,0:0:0:0:
462,170,68241,2,0,P|456:73|317:43,1,242.999992584229
274,228,68875,5,0,0:0:0:0:
134,281,69086,1,0,0:0:0:0:
68,113,69298,1,0,0:0:0:0:
131,78,69403,1,0,0:0:0:0:
204,90,69509,1,0,0:0:0:0:
274,228,69720,1,0,0:0:0:0:
344,366,69931,1,0,0:0:0:0:
417,378,70037,1,0,0:0:0:0:
480,343,70143,2,0,P|492:244|362:126,1,242.999992584229
274,228,70777,5,0,0:0:0:0:
111,264,70988,1,0,0:0:0:0:
68,113,71199,2,0,P|125:37|187:157,1,242.999992584229
211,318,71833,1,0,0:0:0:0:
361,348,72044,1,0,0:0:0:0:
302,186,72255,2,0,P|357:115|486:195,1,242.999992584229
316,271,72889,5,0,0:0:0:0:
154,207,73100,1,0,0:0:0:0:
292,77,73312,1,0,0:0:0:0:
196,321,73523,1,0,0:0:0:0:
53,285,73734,1,0,0:0:0:0:
221,248,73946,1,0,0:0:0:0:
51,146,74157,2,0,P|105:79|223:145,1,242.999992584229
300,331,74791,5,0,0:0:0:0:
302,186,75002,1,0,0:0:0:0:
457,95,75213,2,0,P|451:193|305:253,1,242.999992584229
130,274,75847,1,0,0:0:0:0:
51,146,76058,1,0,0:0:0:0:
183,36,76270,2,0,P|262:126|234:257,1,242.999992584229
115,88,76903,5,0,0:0:0:0:
326,47,77115,1,0,0:0:0:0:
455,147,77326,1,0,0:0:0:0:
474,227,77431,1,0,0:0:0:0:
445,305,77537,1,0,0:0:0:0:
245,240,77748,1,0,0:0:0:0:
45,175,77959,1,0,0:0:0:0:
16,253,78065,1,0,0:0:0:0:
35,333,78171,2,0,P|143:373|253:306,1,242.999992584229
328,50,78805,5,0,0:0:0:0:
45,175,79016,1,0,0:0:0:0:
336,291,79227,2,0,P|379:210|252:136,1,242.999992584229
77,268,79861,1,0,0:0:0:0:
291,350,80072,1,0,0:0:0:0:
180,104,80284,2,0,P|93:138|195:190,1,242.999992584229
453,128,80917,5,0,0:0:0:0:
246,270,81129,1,0,0:0:0:0:
207,36,81340,1,0,0:0:0:0:
291,6,81446,1,0,0:0:0:0:
375,33,81551,1,0,0:0:0:0:
289,191,81762,1,0,0:0:0:0:
203,349,81974,1,0,0:0:0:0:
287,376,82079,1,0,0:0:0:0:
371,346,82185,2,0,P|406:237|324:104,1,242.999992584229
87,78,82819,5,0,0:0:0:0:
203,349,83030,1,0,0:0:0:0:
296,83,83241,2,0,P|181:132|221:258,1,242.999992584229
450,347,83875,1,0,0:0:0:0:
429,74,84086,1,0,0:0:0:0:
266,296,84298,2,0,P|358:292|264:204,1,242.999992584229
77,99,84931,5,0,0:0:0:0:
113,313,85143,1,0,0:0:0:0:
226,78,85354,1,0,0:0:0:0:
238,201,85495,1,0,0:0:0:0:
207,212,85565,1,0,0:0:0:0:
175,217,85635,1,0,0:0:0:0:
143,215,85706,1,0,0:0:0:0:
112,206,85776,1,0,0:0:0:0:
268,309,85918,1,0,0:0:0:0:
218,328,85988,1,0,0:0:0:0:
164,330,86058,1,0,0:0:0:0:
113,313,86129,1,0,0:0:0:0:
71,279,86199,2,0,P|31:186|150:131,1,242.999992584229
422,238,86833,5,0,0:0:0:0:
484,39,87044,1,0,0:0:0:0:
234,43,87255,2,0,P|242:129|403:153,1,242.999992584229
175,217,87889,1,0,0:0:0:0:
153,34,88100,1,0,0:0:0:0:
356,39,88312,2,0,P|376:170|308:273,1,242.999992584229
57,248,88946,5,0,0:0:0:0:
234,196,89157,1,0,0:0:0:0:
187,361,89368,1,0,0:0:0:0:
113,108,89579,1,0,0:0:0:0:
234,196,89791,1,0,0:0:0:0:
309,209,89896,1,0,0:0:0:0:
376,171,90002,1,0,0:0:0:0:
216,39,90213,2,0,P|169:168|177:282,1,242.999992584229
418,277,90847,5,0,0:0:0:0:
294,131,91058,1,0,0:0:0:0:
244,306,91270,2,0,P|170:357|27:274,1,242.999992584229
114,49,91903,1,0,0:0:0:0:
365,45,92115,1,0,0:0:0:0:
241,228,92326,2,0,P|148:189|244:132,1,242.999992584229
375,164,92854,5,0,0:0:0:0:
375,164,92907,1,0,0:0:0:0:
375,164,92960,1,0,0:0:0:0:
251,312,93171,1,0,0:0:0:0:
47,205,93382,1,0,0:0:0:0:
73,112,93488,2,0,L|32:82,2,40.4999987640381
146,50,93699,1,0,0:0:0:0:
241,39,93805,1,0,0:0:0:0:
327,82,93910,2,0,L|356:39,2,40.4999987640381
374,166,94122,2,0,L|443:160,2,40.4999987640381
47,205,94650,5,0,0:0:0:0:
167,255,94861,2,0,L|135:309,3,53.9999983520508
264,339,95284,1,0,0:0:0:0:
302,214,95495,1,0,0:0:0:0:
276,78,95706,1,0,0:0:0:0:
197,206,95917,6,0,P|243:221|310:210,1,107.999996704102
341,196,96129,1,0,0:0:0:0:
370,165,96199,1,0,0:0:0:0:
383,124,96270,1,0,0:0:0:0:
379,81,96340,1,0,0:0:0:0:
197,206,96551,6,0,P|205:266|168:319,1,107.999996704102
140,322,96762,1,0,0:0:0:0:
94,319,96832,1,0,0:0:0:0:
57,293,96903,1,0,0:0:0:0:
37,252,96974,2,0,L|36:190,2,53.9999983520508
114,215,97185,5,0,0:0:0:0:
114,215,97255,1,0,0:0:0:0:
114,215,97326,2,0,L|113:153,2,53.9999983520508
191,178,97537,2,0,L|190:116,2,53.9999983520508
268,141,97748,2,0,L|267:79,4,53.9999983520508
323,214,98100,2,0,L|323:267,4,53.9999983520508
268,141,98453,6,0,P|244:203|201:247,1,107.999996704102
177,259,98664,1,0,0:0:0:0:
132,274,98734,1,0,0:0:0:0:
84,274,98805,1,0,0:0:0:0:
40,259,98875,1,0,0:0:0:0:
93,72,99086,5,0,0:0:0:0:
267,87,99298,1,0,0:0:0:0:
311,94,99368,1,0,0:0:0:0:
349,119,99438,1,0,0:0:0:0:
374,158,99509,1,0,0:0:0:0:
358,330,99720,6,0,P|310:350|243:334,1,107.999996704102
214,323,99931,1,0,0:0:0:0:
168,317,100001,1,0,0:0:0:0:
123,322,100072,1,0,0:0:0:0:
80,338,100143,2,0,L|36:299,2,53.9999983520508
98,254,100354,2,0,L|54:215,2,53.9999983520508
116,170,100565,2,0,L|72:131,2,53.9999983520508
134,86,100777,2,0,L|90:47,2,53.9999983520508
206,124,100988,5,0,0:0:0:0:
236,82,101058,1,0,0:0:0:0:
287,89,101128,1,0,0:0:0:0:
304,137,101199,1,0,0:0:0:0:
269,277,101410,1,0,0:0:0:0:
358,91,101622,5,0,0:0:0:0:
409,69,101692,1,0,0:0:0:0:
448,109,101762,1,0,0:0:0:0:
424,159,101833,1,0,0:0:0:0:
269,277,102044,1,0,0:0:0:0:
452,241,102255,5,0,0:0:0:0:
458,300,102325,1,0,0:0:0:0:
404,327,102395,1,0,0:0:0:0:
360,287,102466,1,0,0:0:0:0:
304,137,102678,1,0,0:0:0:0:
309,361,102889,5,0,0:0:0:0:
458,300,103100,1,0,0:0:0:0:
401,158,103312,1,0,0:0:0:0:
234,297,103523,2,0,P|166:289|183:134,1,242.999992584229
401,158,104157,5,0,0:0:0:0:
326,319,104368,1,0,0:0:0:0:
296,124,104579,2,0,P|200:58|70:87,1,242.999992584229
223,301,105213,1,0,0:0:0:0:
328,49,105424,1,0,0:0:0:0:
476,255,105636,2,0,P|403:302|268:227,1,242.999992584229
208,58,106270,5,0,0:0:0:0:
113,223,106481,1,0,0:0:0:0:
21,60,106692,1,0,0:0:0:0:
217,173,106903,1,0,0:0:0:0:
151,350,107115,1,0,0:0:0:0:
67,141,107326,1,0,0:0:0:0:
332,12,107537,2,0,P|387:90|364:245,1,242.999992584229
55,281,108171,5,0,0:0:0:0:
188,104,108382,1,0,0:0:0:0:
249,354,108593,2,0,P|292:261|184:193,1,242.999992584229
388,59,109227,1,0,0:0:0:0:
405,313,109439,1,0,0:0:0:0:
182,279,109650,2,0,P|115:340|118:235,1,242.999992584229
269,34,110284,5,0,0:0:0:0:
273,347,110495,1,0,0:0:0:0:
345,156,110706,2,0,P|269:138|185:158,1,161.999995056153
188,156,111023,1,0,0:0:0:0:
188,156,111129,1,0,0:0:0:0:
203,297,120847,6,0,P|246:304|293:292,1,80.9999975280763
347,190,121058,2,0,P|304:183|257:195,1,80.9999975280763
282,296,121270,2,0,P|325:303|372:291,1,80.9999975280763
465,251,121481,2,0,P|472:208|460:161,1,80.9999975280763
346,110,121692,2,0,P|339:153|351:200,1,80.9999975280763
464,171,121903,2,0,P|471:128|459:81,1,80.9999975280763
385,11,122115,2,0,P|342:4|295:16,3,80.9999975280763
218,63,122537,5,0,0:0:0:0:
181,156,122642,1,0,0:0:0:0:
196,255,122748,1,0,0:0:0:0:
259,333,122854,1,0,0:0:0:0:
298,243,122959,1,0,0:0:0:0:
391,210,123065,1,0,0:0:0:0:
479,254,123170,1,0,0:0:0:0:
506,349,123277,1,0,0:0:0:0:
407,356,123382,5,0,0:0:0:0:
325,300,123488,1,0,0:0:0:0:
294,205,123593,1,0,0:0:0:0:
267,110,123698,1,0,0:0:0:0:
185,54,123804,1,0,0:0:0:0:
86,63,123909,1,0,0:0:0:0:
19,136,124016,1,0,0:0:0:0:
18,235,124122,1,0,0:0:0:0:
83,309,124227,6,0,P|126:323|183:305,1,80.9999975280763
245,275,124439,1,0,0:0:0:0:
157,200,124544,2,0,L|344:205,1,161.999995056153
421,206,124861,2,0,P|432:164|419:113,1,80.9999975280763
301,40,125072,2,0,P|290:82|303:133,1,80.9999975280763
318,203,125284,2,0,P|324:243|314:282,1,80.9999975280763
205,273,125495,2,0,P|186:308|155:334,1,80.9999975280763
96,250,125706,2,0,P|59:268|19:270,1,80.9999975280763
35,171,125917,5,0,0:0:0:0:
72,78,126022,1,0,0:0:0:0:
155,23,126128,1,0,0:0:0:0:
255,23,126233,1,0,0:0:0:0:
337,79,126339,1,0,0:0:0:0:
375,171,126445,1,0,0:0:0:0:
354,269,126550,1,0,0:0:0:0:
282,338,126657,1,0,0:0:0:0:
186,360,126762,5,0,0:0:0:0:
104,305,126868,1,0,0:0:0:0:
89,207,126973,1,0,0:0:0:0:
150,130,127079,1,0,0:0:0:0:
239,175,127185,1,0,0:0:0:0:
339,167,127291,1,0,0:0:0:0:
420,109,127396,1,0,0:0:0:0:
458,16,127502,1,0,0:0:0:0:
336,14,127608,6,0,P|334:63|359:108,1,80.9999975280763
240,14,127819,2,0,P|242:63|217:108,1,80.9999975280763
288,170,128030,2,0,P|286:219|311:264,1,80.9999975280763
349,335,128241,2,0,P|300:333|255:358,1,80.9999975280763
206,283,128453,2,0,P|159:268|109:280,1,80.9999975280763
81,195,128664,2,0,P|39:168|-11:167,1,80.9999975280763
51,290,128875,2,0,P|99:286|142:257,1,80.9999975280763
155,162,129086,2,0,P|201:146|234:106,1,80.9999975280763
283,38,129298,5,0,0:0:0:0:
399,46,129403,1,0,0:0:0:0:
485,135,129509,2,0,L|460:241,1,80.9999975280763
326,300,129720,2,0,L|344:221,1,80.9999975280763
366,124,129931,1,0,0:0:0:0:
466,213,130037,1,0,0:0:0:0:
397,338,130143,2,0,L|313:293,1,80.9999975280763
198,308,130354,2,0,L|126:269,1,80.9999975280763
29,213,130565,1,0,0:0:0:0:
13,98,130671,1,0,0:0:0:0:
126,85,130777,1,0,0:0:0:0:
140,197,130882,1,0,0:0:0:0:
247,244,130988,6,0,P|272:203|264:151,1,80.9999975280763
341,51,131199,2,0,P|343:90|365:123,1,80.9999975280763
440,217,131410,2,0,P|462:249|464:289,1,80.9999975280763
388,359,131622,1,0,0:0:0:0:
286,352,131727,1,0,0:0:0:0:
171,327,131833,2,0,P|125:321|79:341,1,80.9999975280763
35,236,132044,2,0,P|73:247|113:240,1,80.9999975280763
199,196,132255,1,0,0:0:0:0:
289,152,132360,1,0,0:0:0:0:
389,152,132466,1,0,0:0:0:0:
478,198,132571,1,0,0:0:0:0:
380,285,132678,6,0,L|281:141,1,161.999995056153
160,101,132995,2,0,L|251:234,1,161.999995056153
313,331,133312,2,0,L|408:265,1,80.9999975280763
385,143,133523,2,0,L|252:234,1,161.999995056153
171,278,133840,1,0,0:0:0:0:
83,317,133946,2,0,L|-7:240,1,80.9999975280763
118,188,134157,2,0,L|61:83,1,80.9999975280763
216,110,134368,6,0,P|247:78|246:29,1,80.9999975280763
360,145,134579,2,0,P|359:100|323:66,1,80.9999975280763
411,258,134791,2,0,P|379:226|330:228,1,80.9999975280763
264,273,135002,2,0,P|232:304|183:303,1,80.9999975280763
170,172,135213,2,0,P|201:204|200:252,1,80.9999975280763
68,267,135424,2,0,P|100:235|148:237,1,80.9999975280763
164,367,135636,2,0,P|132:335|134:286,1,80.9999975280763
264,273,135847,2,0,P|232:304|183:303,1,80.9999975280763
134,232,136058,5,0,0:0:0:0:
99,140,136163,1,0,0:0:0:0:
146,54,136269,1,0,0:0:0:0:
242,35,136374,1,0,0:0:0:0:
269,129,136481,1,0,0:0:0:0:
357,172,136587,1,0,0:0:0:0:
448,133,136692,1,0,0:0:0:0:
478,40,136798,1,0,0:0:0:0:
378,38,136903,5,0,0:0:0:0:
293,92,137009,1,0,0:0:0:0:
252,183,137114,1,0,0:0:0:0:
267,281,137220,1,0,0:0:0:0:
206,204,137326,1,0,0:0:0:0:
108,201,137432,1,0,0:0:0:0:
41,273,137537,1,0,0:0:0:0:
53,370,137643,1,0,0:0:0:0:
162,356,137748,6,0,P|172:311|156:262,1,80.9999975280763
164,147,137960,2,0,P|154:102|170:53,1,80.9999975280763
252,183,138171,2,0,P|270:140|312:110,1,80.9999975280763
302,263,138382,2,0,P|341:239|393:239,1,80.9999975280763
233,314,138593,2,0,P|189:300|154:261,1,80.9999975280763
68,243,138805,2,0,P|73:197|105:156,1,80.9999975280763
109,69,139016,2,0,P|155:66|200:91,1,80.9999975280763
286,79,139227,2,0,P|295:124|279:173,1,80.9999975280763
238,249,139439,5,0,0:0:0:0:
318,306,139544,1,0,0:0:0:0:
417,297,139650,1,0,0:0:0:0:
485,226,139755,1,0,0:0:0:0:
491,127,139861,1,0,0:0:0:0:
430,48,139967,1,0,0:0:0:0:
346,104,140072,1,0,0:0:0:0:
248,125,140178,1,0,0:0:0:0:
149,107,140283,5,0,0:0:0:0:
64,54,140389,1,0,0:0:0:0:
158,22,140495,1,0,0:0:0:0:
253,53,140601,1,0,0:0:0:0:
311,135,140706,1,0,0:0:0:0:
309,234,140812,1,0,0:0:0:0:
248,313,140918,1,0,0:0:0:0:
153,341,141023,1,0,0:0:0:0:
64,296,141129,6,0,P|51:249|62:206,1,80.9999975280763
156,184,141340,2,0,P|143:137|154:94,1,80.9999975280763
231,43,141551,2,0,P|244:90|233:133,1,80.9999975280763
214,236,141762,2,0,P|261:223|304:234,1,80.9999975280763
349,134,141974,2,0,P|392:156|416:193,1,80.9999975280763
459,275,142185,2,0,P|412:288|369:277,1,80.9999975280763
324,377,142397,2,0,P|280:354|256:317,1,80.9999975280763
214,236,142608,2,0,P|227:189|216:146,1,80.9999975280763
184,47,142819,5,0,0:0:0:0:
66,19,142924,1,0,0:0:0:0:
31,143,143030,2,0,L|122:176,1,80.9999975280763
116,284,143241,2,0,L|207:317,1,80.9999975280763
317,304,143453,1,0,0:0:0:0:
214,236,143558,1,0,0:0:0:0:
324,210,143664,2,0,L|422:188,1,80.9999975280763
468,63,143875,2,0,L|388:80,1,80.9999975280763
299,100,144086,1,0,0:0:0:0:
188,125,144192,1,0,0:0:0:0:
214,236,144298,1,0,0:0:0:0:
324,210,144403,1,0,0:0:0:0:
425,278,144509,6,0,P|412:323|367:354,1,80.9999975280763
292,297,144720,2,0,P|256:327|201:329,1,80.9999975280763
108,296,144931,1,0,0:0:0:0:
214,236,145037,1,0,0:0:0:0:
108,175,145143,1,0,0:0:0:0:
214,115,145249,1,0,0:0:0:0:
108,57,145354,2,0,L|223:25,1,80.9999975280763
292,93,145565,2,0,L|213:114,1,80.9999975280763
318,171,145777,2,0,L|397:150,1,80.9999975280763
485,215,145988,1,0,0:0:0:0:
456,320,146093,1,0,0:0:0:0:
309,367,146199,6,0,L|201:218,1,161.999995056153
56,139,146516,2,0,L|155:275,1,161.999995056153
176,162,146833,2,0,L|267:146,1,80.9999975280763
277,40,147044,2,0,L|376:176,1,161.999995056153
351,278,147361,6,0,L|255:147,1,161.999995056153
230,254,147678,2,0,L|151:269,1,80.9999975280763
131,375,147889,2,0,L|35:244,1,161.999995056153
56,139,148206,6,0,L|152:270,1,161.999995056153
176,162,148523,2,0,L|267:146,1,80.9999975280763
372,170,148734,2,0,L|277:40,1,161.999995056153
151,269,149579,6,0,L|239:287,1,80.9999975280763
335,309,149791,1,0,0:0:0:0:
423,235,149896,2,0,L|335:217,1,80.9999975280763
239,195,150108,1,0,0:0:0:0:
184,96,150213,2,0,L|272:114,1,80.9999975280763
409,53,150424,2,0,L|321:35,1,80.9999975280763
263,112,150636,1,0,0:0:0:0:
300,209,150741,1,0,0:0:0:0:
264,301,150847,1,0,0:0:0:0:
175,345,150952,1,0,0:0:0:0:
77,335,151058,1,0,0:0:0:0:
14,259,151164,1,0,0:0:0:0:
24,161,151270,6,0,P|69:150|118:167,1,80.9999975280763
184,229,151481,1,0,0:0:0:0:
263,300,151586,2,0,P|302:308|341:297,1,80.9999975280763
429,246,151798,1,0,0:0:0:0:
393,129,151903,2,0,L|303:66,1,80.9999975280763
163,78,152115,2,0,L|229:124,1,80.9999975280763
336,209,152326,2,0,L|289:275,1,80.9999975280763
137,336,152537,2,0,L|183:269,1,80.9999975280763
161,169,152748,1,0,0:0:0:0:
73,116,152854,1,0,0:0:0:0:
41,232,152960,6,0,P|85:239|131:230,1,80.9999975280763
230,210,153171,1,0,0:0:0:0:
327,192,153276,1,0,0:0:0:0:
411,244,153382,1,0,0:0:0:0:
438,339,153487,1,0,0:0:0:0:
303,334,153593,2,0,P|286:284|293:227,1,80.9999975280763
293,126,153805,2,0,P|290:85|276:48,1,80.9999975280763
181,16,154016,1,0,0:0:0:0:
85,45,154121,1,0,0:0:0:0:
24,123,154227,1,0,0:0:0:0:
18,223,154332,1,0,0:0:0:0:
70,308,154438,1,0,0:0:0:0:
161,348,154544,1,0,0:0:0:0:
262,330,154650,6,0,P|282:298|281:239,1,80.9999975280763
277,156,154861,1,0,0:0:0:0:
308,61,154967,1,0,0:0:0:0:
402,17,155072,2,0,P|422:61|408:120,1,80.9999975280763
388,174,155284,1,0,0:0:0:0:
306,204,155389,1,0,0:0:0:0:
213,211,155495,2,0,P|167:217|128:247,1,80.9999975280763
52,132,155706,2,0,P|58:178|88:217,1,80.9999975280763
4,299,155917,2,0,P|50:293|89:263,1,80.9999975280763
166,380,156129,2,0,P|160:334|130:295,1,80.9999975280763
128,160,156340,6,0,P|132:120|153:86,1,80.9999975280763
236,39,156551,1,0,0:0:0:0:
333,44,156657,1,0,0:0:0:0:
416,94,156762,2,0,P|428:149|413:201,1,80.9999975280763
334,252,156974,2,0,P|322:197|337:145,1,80.9999975280763
424,172,157185,1,0,0:0:0:0:
445,268,157290,1,0,0:0:0:0:
397,354,157396,1,0,0:0:0:0:
303,385,157501,1,0,0:0:0:0:
212,346,157607,1,0,0:0:0:0:
172,255,157713,1,0,0:0:0:0:
146,158,157819,1,0,0:0:0:0:
80,82,157925,1,0,0:0:0:0:
28,213,158030,6,0,L|124:222,1,80.9999975280763
242,233,158241,1,0,0:0:0:0:
146,158,158347,1,0,0:0:0:0:
256,119,158453,2,0,L|352:128,1,80.9999975280763
430,137,158664,1,0,0:0:0:0:
477,221,158770,1,0,0:0:0:0:
471,319,158875,2,0,P|430:337|385:329,1,80.9999975280763
296,304,159086,1,0,0:0:0:0:
192,307,159192,1,0,0:0:0:0:
98,348,159298,2,0,P|73:308|80:255,1,80.9999975280763
85,192,159509,2,0,P|94:145|68:98,1,80.9999975280763
47,27,159720,6,0,P|87:36|138:23,1,80.9999975280763
216,1,159931,1,0,0:0:0:0:
308,32,160037,1,0,0:0:0:0:
347,119,160142,2,0,P|348:162|310:214,1,80.9999975280763
233,228,160354,2,0,P|232:185|270:133,1,80.9999975280763
347,119,160565,1,0,0:0:0:0:
433,130,160670,1,0,0:0:0:0:
485,199,160776,1,0,0:0:0:0:
473,285,160881,1,0,0:0:0:0:
404,337,160987,2,0,P|366:347|316:338,1,80.9999975280763
231,306,161199,1,0,0:0:0:0:
134,317,161304,1,0,0:0:0:0:
34,285,161410,6,0,P|40:240|70:205,1,80.9999975280763
148,178,161621,1,0,0:0:0:0:
237,208,161727,1,0,0:0:0:0:
331,195,161832,2,0,P|348:159|347:119,1,80.9999975280763
278,34,162044,2,0,P|260:70|262:110,1,80.9999975280763
331,195,162255,2,0,P|332:235|315:271,1,80.9999975280763
231,306,162466,1,0,0:0:0:0:
134,317,162572,1,0,0:0:0:0:
33,284,162677,2,0,P|56:251|59:212,1,80.9999975280763
35,114,162889,1,0,0:0:0:0:
48,14,162994,1,0,0:0:0:0:
115,75,163100,6,0,P|155:81|202:68,1,80.9999975280763
283,26,163311,1,0,0:0:0:0:
382,56,163417,2,0,L|383:150,1,80.9999975280763
382,244,163628,1,0,0:0:0:0:
385,359,163734,2,0,P|337:350|292:371,1,80.9999975280763
219,280,163945,2,0,P|257:290|296:280,1,80.9999975280763
245,193,164156,2,0,P|197:184|152:205,1,80.9999975280763
79,114,164368,2,0,P|117:124|156:114,1,80.9999975280763
99,26,164579,2,0,P|51:17|6:38,1,80.9999975280763
3,129,164790,5,0,0:0:0:0:
14,220,164895,1,0,0:0:0:0:
62,300,165001,1,0,0:0:0:0:
137,354,165106,1,0,0:0:0:0:
227,373,165212,1,0,0:0:0:0:
318,355,165318,1,0,0:0:0:0:
394,302,165423,1,0,0:0:0:0:
443,224,165529,1,0,0:0:0:0:
456,132,165635,2,0,P|420:102|373:94,1,80.9999975280763
354,195,165847,2,0,P|317:212|277:211,1,80.9999975280763
210,125,166058,2,0,P|179:151|164:188,1,80.9999975280763
219,295,166269,2,0,P|232:332|227:372,1,80.9999975280763
137,354,166480,5,0,0:0:0:0:
73,284,166585,1,0,0:0:0:0:
52,191,166691,1,0,0:0:0:0:
80,101,166796,1,0,0:0:0:0:
150,37,166902,1,0,0:0:0:0:
242,16,167008,1,0,0:0:0:0:
332,43,167113,1,0,0:0:0:0:
397,112,167219,1,0,0:0:0:0:
419,204,167325,2,0,P|399:237|350:254,1,80.9999975280763
370,380,167537,2,0,P|337:360|320:311,1,80.9999975280763
194,331,167748,2,0,P|214:298|263:281,1,80.9999975280763
243,155,167959,2,0,P|276:175|293:224,1,80.9999975280763
320,322,168170,5,0,0:0:0:0:
411,325,168275,1,0,0:0:0:0:
483,269,168381,1,0,0:0:0:0:
502,180,168486,1,0,0:0:0:0:
459,99,168593,1,0,0:0:0:0:
375,138,168698,1,0,0:0:0:0:
282,142,168804,1,0,0:0:0:0:
196,108,168909,1,0,0:0:0:0:
130,44,169016,2,0,P|178:38|212:5,1,80.9999975280763
118,102,169227,2,0,P|164:115|208:98,1,80.9999975280763
84,150,169438,2,0,P|121:180|169:181,1,80.9999975280763
33,180,169649,2,0,P|55:222|98:242,1,80.9999975280763
188,303,169861,6,0,P|221:325|237:361,1,80.9999975280763
112,309,170072,1,0,0:0:0:0:
207,229,170177,2,0,P|244:215|283:224,1,80.9999975280763
192,149,170389,1,0,0:0:0:0:
219,45,170494,2,0,P|249:19|289:13,1,80.9999975280763
382,24,170706,1,0,0:0:0:0:
434,94,170811,1,0,0:0:0:0:
449,181,170917,1,0,0:0:0:0:
423,266,171022,1,0,0:0:0:0:
362,329,171128,1,0,0:0:0:0:
388,247,171234,1,0,0:0:0:0:
348,170,171340,1,0,0:0:0:0:
265,144,171445,1,0,0:0:0:0:
188,186,171551,6,0,P|177:222|189:273,1,80.9999975280763
267,328,171762,1,0,0:0:0:0:
362,329,171867,1,0,0:0:0:0:
438,271,171973,1,0,0:0:0:0:
463,179,172078,1,0,0:0:0:0:
427,91,172184,1,0,0:0:0:0:
344,44,172290,1,0,0:0:0:0:
249,41,172396,2,0,P|237:78|248:136,1,80.9999975280763
276,210,172607,1,0,0:0:0:0:
268,307,172713,1,0,0:0:0:0:
201,378,172818,2,0,P|152:366|116:325,1,80.9999975280763
86,256,173030,1,0,0:0:0:0:
82,156,173135,1,0,0:0:0:0:
81,39,173241,6,0,P|131:55|168:43,1,80.9999975280763
271,4,173452,1,0,0:0:0:0:
210,131,173558,1,0,0:0:0:0:
347,70,173663,2,0,P|367:102|362:151,1,80.9999975280763
286,232,173875,2,0,P|265:266|267:306,1,80.9999975280763
447,211,174086,2,0,P|415:231|366:226,1,80.9999975280763
285,150,174298,2,0,P|250:129|210:131,1,80.9999975280763
115,186,174508,1,0,0:0:0:0:
60,266,174614,1,0,0:0:0:0:
119,343,174719,1,0,0:0:0:0:
211,309,174825,1,0,0:0:0:0:
207,212,174931,6,0,L|215:22,1,161.999995056153
368,0,175248,2,0,L|361:161,1,161.999995056153
286,229,175565,2,0,L|201:210,1,80.9999975280763
118,112,175776,2,0,L|111:273,1,161.999995056153
200,373,176093,6,0,L|206:211,1,161.999995056153
294,309,176410,2,0,L|373:326,1,80.9999975280763
490,306,176621,2,0,L|496:144,1,161.999995056153
368,0,176938,6,0,L|361:161,1,161.999995056153
410,261,177255,2,0,L|330:243,1,80.9999975280763
209,140,177466,2,0,L|202:301,1,161.999995056153
281,63,178340,5,0,0:0:0:0:
322,220,178480,1,0,0:0:0:0:
303,239,178550,1,0,0:0:0:0:
282,256,178620,1,0,0:0:0:0:
258,268,178691,1,0,0:0:0:0:
232,276,178761,1,0,0:0:0:0:
205,279,178832,1,0,0:0:0:0:
178,278,178902,1,0,0:0:0:0:
152,272,178972,1,0,0:0:0:0:
127,262,179043,1,0,0:0:0:0:
104,247,179113,1,0,0:0:0:0:
49,180,179184,6,0,L|84:124,3,53.9999983520508
118,72,179466,1,0,0:0:0:0:
191,101,179536,2,0,L|219:146,3,53.9999983520508
263,209,179818,1,0,0:0:0:0:
288,220,179889,1,0,0:0:0:0:
315,218,179959,1,0,0:0:0:0:
344,204,180029,5,0,0:0:0:0:
376,204,180099,1,0,0:0:0:0:
404,219,180170,1,0,0:0:0:0:
423,245,180240,1,0,0:0:0:0:
428,277,180311,1,0,0:0:0:0:
419,308,180381,1,0,0:0:0:0:
397,331,180451,1,0,0:0:0:0:
372,321,180522,1,0,0:0:0:0:
346,313,180592,1,0,0:0:0:0:
319,309,180663,1,0,0:0:0:0:
293,308,180733,1,0,0:0:0:0:
266,310,180804,1,0,0:0:0:0:
189,328,180875,6,0,L|126:288,3,53.9999983520508
83,260,181156,1,0,0:0:0:0:
123,188,181227,2,0,L|184:167,3,53.9999983520508
249,142,181508,1,0,0:0:0:0:
271,127,181578,1,0,0:0:0:0:
289,107,181648,1,0,0:0:0:0:
301,83,181719,5,0,0:0:0:0:
296,115,181790,1,0,0:0:0:0:
298,147,181860,1,0,0:0:0:0:
307,178,181931,1,0,0:0:0:0:
323,207,182001,1,0,0:0:0:0:
344,231,182072,1,0,0:0:0:0:
370,250,182142,1,0,0:0:0:0:
386,249,182213,1,0,0:0:0:0:
402,243,182283,1,0,0:0:0:0:
414,233,182354,1,0,0:0:0:0:
423,219,182424,1,0,0:0:0:0:
426,204,182495,1,0,0:0:0:0:
425,188,182565,5,0,0:0:0:0:
403,172,182635,1,0,0:0:0:0:
385,151,182705,1,0,0:0:0:0:
374,127,182776,1,0,0:0:0:0:
369,101,182846,1,0,0:0:0:0:
370,74,182917,1,0,0:0:0:0:
378,48,182987,1,0,0:0:0:0:
405,48,183058,1,0,0:0:0:0:
431,54,183128,1,0,0:0:0:0:
455,68,183199,1,0,0:0:0:0:
473,88,183269,1,0,0:0:0:0:
485,112,183340,1,0,0:0:0:0:
489,139,183410,5,0,0:0:0:0:
468,163,183480,1,0,0:0:0:0:
443,184,183550,1,0,0:0:0:0:
415,200,183621,1,0,0:0:0:0:
384,210,183691,1,0,0:0:0:0:
352,215,183762,1,0,0:0:0:0:
267,224,183832,2,0,L|254:292,3,53.9999983520508
288,148,184114,1,0,0:0:0:0:
285,121,184184,1,0,0:0:0:0:
269,98,184255,5,0,0:0:0:0:
101,49,184466,1,0,0:0:0:0:
142,207,184677,1,0,0:0:0:0:
185,74,184889,1,0,0:0:0:0:
48,164,185100,5,0,0:0:0:0:
33,193,185170,1,0,0:0:0:0:
27,224,185240,1,0,0:0:0:0:
30,256,185311,1,0,0:0:0:0:
42,287,185381,1,0,0:0:0:0:
61,313,185452,1,0,0:0:0:0:
86,333,185522,1,0,0:0:0:0:
112,336,185593,1,0,0:0:0:0:
138,329,185663,1,0,0:0:0:0:
161,315,185734,1,0,0:0:0:0:
177,293,185804,1,0,0:0:0:0:
184,267,185875,1,0,0:0:0:0:
183,180,185945,6,0,L|123:159,3,53.9999983520508
251,206,186227,1,0,0:0:0:0:
324,186,186297,2,0,L|384:165,3,53.9999983520508
452,134,186579,1,0,0:0:0:0:
450,107,186649,1,0,0:0:0:0:
441,81,186719,1,0,0:0:0:0:
426,59,186790,5,0,0:0:0:0:
402,80,186860,1,0,0:0:0:0:
374,96,186930,1,0,0:0:0:0:
343,105,187001,1,0,0:0:0:0:
310,107,187071,1,0,0:0:0:0:
278,102,187142,1,0,0:0:0:0:
249,89,187212,1,0,0:0:0:0:
225,77,187283,1,0,0:0:0:0:
199,68,187353,1,0,0:0:0:0:
172,64,187424,1,0,0:0:0:0:
145,65,187494,1,0,0:0:0:0:
119,70,187565,1,0,0:0:0:0:
41,109,187635,6,0,L|30:185,3,53.9999983520508
19,237,187917,1,0,0:0:0:0:
37,321,187987,2,0,L|109:341,3,53.9999983520508
156,354,188269,1,0,0:0:0:0:
182,358,188339,1,0,0:0:0:0:
209,354,188409,1,0,0:0:0:0:
233,343,188480,5,0,0:0:0:0:
258,364,188550,1,0,0:0:0:0:
287,378,188620,1,0,0:0:0:0:
319,383,188691,1,0,0:0:0:0:
351,378,188761,1,0,0:0:0:0:
380,365,188832,1,0,0:0:0:0:
405,345,188902,1,0,0:0:0:0:
423,318,188972,1,0,0:0:0:0:
433,287,189043,1,0,0:0:0:0:
434,255,189113,1,0,0:0:0:0:
425,224,189184,1,0,0:0:0:0:
409,196,189254,1,0,0:0:0:0:
354,130,189325,6,0,L|283:115,1,53.9999983520508
217,195,189466,2,0,L|269:206,1,53.9999983520508
340,141,189607,2,0,L|269:126,1,53.9999983520508
203,206,189748,2,0,L|255:217,1,53.9999983520508
336,237,189889,1,0,0:0:0:0:
362,242,189959,1,0,0:0:0:0:
389,240,190029,1,0,0:0:0:0:
414,231,190100,1,0,0:0:0:0:
436,215,190170,5,0,0:0:0:0:
287,129,190382,1,0,0:0:0:0:
344,328,190593,1,0,0:0:0:0:
388,124,190804,1,0,0:0:0:0:
219,46,191016,6,0,P|152:77|40:31,1,191.250003647804
45,140,191438,2,0,P|84:224|52:312,1,191.250003647804
141,317,191861,5,0,0:0:0:0:
166,336,191930,1,0,0:0:0:0:
196,349,192000,1,0,0:0:0:0:
227,355,192071,1,0,0:0:0:0:
260,352,192141,1,0,0:0:0:0:
290,341,192212,1,0,0:0:0:0:
317,322,192282,1,0,0:0:0:0:
338,298,192354,1,0,0:0:0:0:
352,269,192423,1,0,0:0:0:0:
359,238,192493,1,0,0:0:0:0:
358,205,192564,1,0,0:0:0:0:
349,174,192634,1,0,0:0:0:0:
304,95,192705,6,0,L|220:80,1,53.9999983520508
186,136,192846,2,0,L|102:121,1,53.9999983520508
68,177,192987,2,0,L|-16:162,1,53.9999983520508
6,86,193128,1,0,0:0:0:0:
14,60,193198,1,0,0:0:0:0:
29,38,193268,1,0,0:0:0:0:
50,21,193339,1,0,0:0:0:0:
75,11,193409,1,0,0:0:0:0:
102,9,193480,1,0,0:0:0:0:
129,15,193551,5,0,0:0:0:0:
152,37,193621,1,0,0:0:0:0:
179,55,193691,1,0,0:0:0:0:
207,70,193762,1,0,0:0:0:0:
238,81,193832,1,0,0:0:0:0:
270,87,193903,1,0,0:0:0:0:
302,89,193973,1,0,0:0:0:0:
334,87,194043,1,0,0:0:0:0:
366,80,194114,1,0,0:0:0:0:
396,68,194184,1,0,0:0:0:0:
425,53,194255,1,0,0:0:0:0:
451,34,194325,1,0,0:0:0:0:
429,34,194396,5,0,0:0:0:0:
408,37,194466,1,0,0:0:0:0:
388,44,194537,1,0,0:0:0:0:
368,54,194607,1,0,0:0:0:0:
351,67,194678,1,0,0:0:0:0:
337,82,194748,1,0,0:0:0:0:
325,100,194818,1,0,0:0:0:0:
316,120,194889,1,0,0:0:0:0:
310,141,194959,1,0,0:0:0:0:
308,162,195030,1,0,0:0:0:0:
324,277,195241,5,0,0:0:0:0:
304,295,195311,1,0,0:0:0:0:
282,310,195381,1,0,0:0:0:0:
257,321,195452,1,0,0:0:0:0:
231,327,195522,1,0,0:0:0:0:
204,329,195593,1,0,0:0:0:0:
177,326,195663,1,0,0:0:0:0:
151,318,195733,1,0,0:0:0:0:
127,305,195804,1,0,0:0:0:0:
106,289,195874,1,0,0:0:0:0:
88,269,195945,1,0,0:0:0:0:
73,247,196015,1,0,0:0:0:0:
60,154,196086,6,0,L|66:78,3,53.9999983520508
138,58,196367,1,0,0:0:0:0:
214,101,196438,2,0,L|218:154,3,53.9999983520508
225,231,196720,1,0,0:0:0:0:
248,243,196790,1,0,0:0:0:0:
275,248,196860,1,0,0:0:0:0:
301,244,196931,5,0,0:0:0:0:
322,219,197001,1,0,0:0:0:0:
350,203,197071,1,0,0:0:0:0:
382,198,197142,1,0,0:0:0:0:
413,205,197212,1,0,0:0:0:0:
441,222,197283,1,0,0:0:0:0:
460,248,197353,1,0,0:0:0:0:
468,279,197423,1,0,0:0:0:0:
466,311,197494,1,0,0:0:0:0:
452,340,197564,1,0,0:0:0:0:
428,362,197635,1,0,0:0:0:0:
399,375,197705,1,0,0:0:0:0:
366,376,197776,5,0,0:0:0:0:
336,366,197846,1,0,0:0:0:0:
311,345,197916,1,0,0:0:0:0:
295,317,197987,1,0,0:0:0:0:
282,288,198058,1,0,0:0:0:0:
278,256,198128,1,0,0:0:0:0:
283,224,198199,1,0,0:0:0:0:
292,193,198269,1,0,0:0:0:0:
327,122,198339,2,0,L|359:74,3,53.9999983520508
309,18,198621,5,0,0:0:0:0:
281,34,198691,1,0,0:0:0:0:
250,44,198761,1,0,0:0:0:0:
218,46,198832,1,0,0:0:0:0:
186,41,198902,1,0,0:0:0:0:
156,29,198973,1,0,0:0:0:0:
130,10,199043,1,0,0:0:0:0:
134,36,199114,1,0,0:0:0:0:
135,63,199184,1,0,0:0:0:0:
131,90,199255,1,0,0:0:0:0:
124,116,199325,1,0,0:0:0:0:
112,140,199396,1,0,0:0:0:0:
69,213,199466,6,0,L|103:263,3,53.9999983520508
151,320,199748,1,0,0:0:0:0:
202,257,199818,2,0,L|233:213,3,53.9999983520508
284,154,200100,1,0,0:0:0:0:
310,148,200170,1,0,0:0:0:0:
337,151,200240,1,0,0:0:0:0:
362,160,200311,5,0,0:0:0:0:
335,178,200382,1,0,0:0:0:0:
316,204,200452,1,0,0:0:0:0:
308,235,200523,1,0,0:0:0:0:
310,267,200593,1,0,0:0:0:0:
324,296,200664,1,0,0:0:0:0:
347,319,200734,1,0,0:0:0:0:
376,332,200804,1,0,0:0:0:0:
408,335,200875,1,0,0:0:0:0:
439,326,200945,1,0,0:0:0:0:
465,306,201016,1,0,0:0:0:0:
483,279,201086,1,0,0:0:0:0:
490,248,201157,5,0,0:0:0:0:
468,232,201227,1,0,0:0:0:0:
450,212,201297,1,0,0:0:0:0:
435,189,201368,1,0,0:0:0:0:
426,163,201438,1,0,0:0:0:0:
422,137,201509,1,0,0:0:0:0:
423,110,201579,1,0,0:0:0:0:
429,84,201649,1,0,0:0:0:0:
440,59,201720,1,0,0:0:0:0:
455,37,201790,1,0,0:0:0:0:
331,23,202001,5,0,0:0:0:0:
301,11,202071,1,0,0:0:0:0:
268,9,202141,1,0,0:0:0:0:
237,18,202212,1,0,0:0:0:0:
211,36,202282,1,0,0:0:0:0:
192,62,202353,1,0,0:0:0:0:
182,93,202423,1,0,0:0:0:0:
182,125,202493,1,0,0:0:0:0:
193,156,202564,1,0,0:0:0:0:
214,181,202634,1,0,0:0:0:0:
241,198,202705,1,0,0:0:0:0:
272,206,202775,1,0,0:0:0:0:
352,198,202846,6,0,L|340:264,3,53.9999983520508
411,288,203128,1,0,0:0:0:0:
477,326,203198,2,0,L|465:392,3,53.9999983520508
392,365,203480,1,0,0:0:0:0:
365,361,203550,1,0,0:0:0:0:
338,358,203620,1,0,0:0:0:0:
311,354,203691,5,0,0:0:0:0:
274,346,203762,1,0,0:0:0:0:
240,331,203832,1,0,0:0:0:0:
210,308,203903,1,0,0:0:0:0:
186,279,203973,1,0,0:0:0:0:
168,246,204044,1,0,0:0:0:0:
159,209,204114,1,0,0:0:0:0:
158,171,204184,1,0,0:0:0:0:
165,134,204255,1,0,0:0:0:0:
180,100,204325,1,0,0:0:0:0:
202,69,204396,1,0,0:0:0:0:
230,45,204466,1,0,0:0:0:0:
264,27,204536,2,0,P|356:89|210:171,1,323.999990112305
98,57,205241,1,0,0:0:0:0:
69,104,205311,1,0,0:0:0:0:
69,160,205382,5,0,0:0:0:0:
191,328,205593,1,0,0:0:0:0:
155,151,205804,1,0,0:0:0:0:
234,189,205909,1,0,0:0:0:0:
325,185,206015,1,0,0:0:0:0:
392,129,206120,1,0,0:0:0:0:
312,97,206227,1,0,0:0:0:0:
325,185,206332,1,0,0:0:0:0:
339,273,206438,1,0,0:0:0:0:
353,361,206543,1,0,0:0:0:0:
418,287,206649,2,0,L|333:271,1,80.9999975280763
245,170,206860,2,0,L|324:184,1,80.9999975280763
431,202,207072,6,0,P|482:130|448:51,1,161.999995056153
256,92,207494,2,0,P|256:145|222:193,1,80.9999975280763
163,247,207705,1,0,0:0:0:0:
265,226,207811,1,0,0:0:0:0:
189,302,207917,2,0,P|189:355|223:403,1,80.9999975280763
304,323,208128,2,0,P|357:323|405:289,1,80.9999975280763
324,184,208339,2,0,P|389:104|480:146,1,161.999995056153
381,311,208762,6,0,P|344:325|304:323,1,80.9999975280763
217,294,208973,1,0,0:0:0:0:
165,221,209078,1,0,0:0:0:0:
168,132,209184,1,0,0:0:0:0:
225,63,209289,1,0,0:0:0:0:
314,152,209396,2,0,P|230:169|160:120,1,161.999995056153
127,58,209713,1,0,0:0:0:0:
49,45,209818,1,0,0:0:0:0:
0,100,209924,1,0,0:0:0:0:
5,177,210029,1,0,0:0:0:0:
74,214,210135,1,0,0:0:0:0:
80,128,210241,1,0,0:0:0:0:
80,128,210294,1,0,0:0:0:0:
80,128,210346,1,0,0:0:0:0:
148,192,210452,6,0,P|123:273|53:290,1,161.999995056153
177,344,210769,2,0,P|229:277|301:317,1,161.999995056153
328,193,211086,2,0,P|250:183|260:118,1,161.999995056153
184,87,211403,2,0,P|187:32|141:84,1,161.999995056153
167,164,211720,1,0,0:0:0:0:
108,259,211825,1,0,0:0:0:0:
12,200,211931,1,0,0:0:0:0:
71,103,212036,1,0,0:0:0:0:
184,87,212142,6,0,P|231:97|286:83,1,94.4999971160889
355,126,212353,2,0,P|402:116|457:130,1,94.4999971160889
405,214,212565,1,0,0:0:0:0:
383,301,212670,1,0,0:0:0:0:
296,328,212776,1,0,0:0:0:0:
228,269,212881,1,0,0:0:0:0:
244,180,212987,1,0,0:0:0:0:
251,92,213093,1,0,0:0:0:0:
199,21,213199,1,0,0:0:0:0:
114,1,213304,1,0,0:0:0:0:
36,41,213410,1,0,0:0:0:0:
3,123,213516,1,0,0:0:0:0:
32,206,213621,1,0,0:0:0:0:
108,250,213727,1,0,0:0:0:0:
171,152,213832,6,0,P|125:141|62:158,1,94.4999971160889
108,250,214044,2,0,P|154:261|217:244,1,94.4999971160889
164,159,214255,2,0,P|118:148|55:165,1,94.4999971160889
22,252,214466,1,0,0:0:0:0:
78,337,214571,1,0,0:0:0:0:
174,370,214677,1,0,0:0:0:0:
271,336,214782,1,0,0:0:0:0:
326,251,214888,1,0,0:0:0:0:
409,195,214994,1,0,0:0:0:0:
498,239,215100,2,0,P|432:317|343:323,1,188.999994232178
197,71,215522,6,0,L|210:165,1,94.4999971160889
303,133,215734,1,0,0:0:0:0:
396,101,215839,2,0,L|408:194,1,94.4999971160889
315,226,216051,1,0,0:0:0:0:
222,258,216156,2,0,L|234:351,1,94.4999971160889
129,290,216367,2,0,L|116:196,1,94.4999971160889
210,165,216579,1,0,0:0:0:0:
303,133,216684,2,0,L|290:39,1,94.4999971160889
197,71,216896,1,0,0:0:0:0:
103,102,217001,2,0,L|115:195,1,94.4999971160889
129,290,217213,6,0,L|249:308,3,94.4999971160889
289,235,217635,2,0,L|409:253,3,94.4999971160889
419,337,218058,2,0,L|539:355,3,94.4999971160889
477,243,218480,2,0,P|424:149|457:67,1,188.999994232178
291,114,218903,6,0,L|87:101,1,188.999994232178
0,230,219220,2,0,L|188:242,1,188.999994232178
305,249,219536,2,0,L|396:303,1,94.4999971160889
410,228,219748,2,0,L|328:179,1,94.4999971160889
241,292,219959,2,0,L|322:340,1,94.4999971160889
474,185,220170,2,0,L|392:136,1,94.4999971160889
305,249,220382,2,0,L|396:303,1,94.4999971160889
327,104,220593,6,0,L|121:161,1,188.999994232178
56,267,220910,2,0,L|238:216,1,188.999994232178
257,330,221227,2,0,L|312:235,1,94.4999971160889
386,297,221438,2,0,L|393:187,1,94.4999971160889
459,47,221649,2,0,L|404:142,1,94.4999971160889
330,80,221860,2,0,L|322:189,1,94.4999971160889
257,330,222072,2,0,L|312:235,1,94.4999971160889
330,80,222283,6,0,L|117:42,1,188.999994232178
1,131,222600,2,0,L|187:164,1,188.999994232178
76,245,222917,2,0,L|170:262,1,94.4999971160889
26,355,223128,2,0,L|42:262,1,94.4999971160889
197,292,223339,2,0,L|180:384,1,94.4999971160889
226,323,223551,1,0,0:0:0:0:
304,352,223656,1,0,0:0:0:0:
386,335,223762,1,0,0:0:0:0:
447,277,223867,1,0,0:0:0:0:
468,196,223973,6,0,L|434:-13,1,188.999994232178
301,94,224290,2,0,L|332:280,1,188.999994232178
384,145,224607,2,0,L|368:49,1,94.4999971160889
231,134,224818,2,0,L|247:228,1,94.4999971160889
399,238,225029,2,0,L|383:142,1,94.4999971160889
247,228,225241,2,0,B|263:321|263:321|165:290,1,188.999994232178
442,379,225663,6,0,L|245:315,1,188.999994232178
172,292,225980,1,0,0:0:0:0:
91,266,226086,1,0,0:0:0:0:
10,240,226191,1,0,0:0:0:0:
149,219,226297,2,0,L|111:109,1,94.4999971160889
241,153,226508,2,0,L|255:37,1,94.4999971160889
352,134,226720,2,0,L|415:36,1,94.4999971160889
422,191,226931,1,0,0:0:0:0:
449,275,227036,1,0,0:0:0:0:
442,379,227142,2,0,L|329:342,1,94.4999971160889
295,205,227353,6,0,L|231:402,1,188.999994232178
192,275,227670,1,0,0:0:0:0:
103,298,227776,1,0,0:0:0:0:
14,275,227882,1,0,0:0:0:0:
103,216,227987,2,0,L|103:112,1,94.4999971160889
181,31,228198,2,0,L|181:125,1,94.4999971160889
295,205,228410,2,0,L|295:101,1,94.4999971160889
373,20,228621,2,0,L|373:114,1,94.4999971160889
238,165,228832,2,0,L|238:61,1,94.4999971160889
219,236,229044,6,0,L|27:202,1,188.999994232178
103,298,229360,1,0,0:0:0:0:
188,337,229466,1,0,0:0:0:0:
280,320,229572,1,0,0:0:0:0:
341,153,229677,2,0,L|335:248,1,94.4999971160889
382,206,229889,2,0,L|375:300,1,94.4999971160889
294,198,230100,2,0,L|287:292,1,94.4999971160889
219,236,230311,1,0,0:0:0:0:
158,155,230417,1,0,0:0:0:0:
180,57,230523,1,0,0:0:0:0:
270,12,230628,1,0,0:0:0:0:
374,62,230734,5,0,0:0:0:0:
374,62,230805,1,0,0:0:0:0:
374,62,230875,1,0,0:0:0:0:
374,62,230945,2,0,L|459:174,1,128.249996575356
199,314,232635,6,0,L|232:174,1,128.249996575356
168,42,232846,2,0,L|138:166,1,128.249996575356
326,319,234325,6,0,L|354:174,1,128.249996575356
293,54,234536,2,0,L|268:179,1,128.249996575356
430,313,234748,2,0,L|454:187,1,128.249996575356
174,323,235804,5,0,0:0:0:0:
74,98,236015,2,0,B|113:221|113:221|62:340,1,256.499993150711
261,119,236438,2,0,B|222:242|222:242|273:361,1,256.499993150711
357,50,236860,2,0,B|396:173|396:173|345:292,1,256.499993150711
74,98,237283,1,0,0:0:0:0:
256,192,237494,12,0,238762,0:0:0:0:
137,272,239185,6,0,B|214:293|214:293|393:216,2,256.499993150711
203,146,239818,2,0,B|71:164|71:164|162:43,1,256.499993150711
360,32,240241,2,0,B|300:182|300:182|204:223,1,256.499993150711
42,44,240663,1,0,0:0:0:0:
442,192,240875,1,0,0:0:0:0:
64,325,241086,1,0,0:0:0:0:
263,68,241297,1,0,0:0:0:0:
305,146,241402,1,0,0:0:0:0:
320,234,241508,1,0,0:0:0:0:
304,322,241613,1,0,0:0:0:0:
243,249,241720,6,0,L|163:128,1,128.249996575356
305,146,241931,2,0,L|385:25,1,128.249996575356
443,270,242354,6,0,L|296:227,1,128.249996575356
304,322,242565,2,0,L|180:358,1,128.249996575356
85,208,242987,6,0,L|52:343,1,128.249996575356
214,263,243199,2,0,L|166:124,1,128.249996575356
47,60,243621,6,0,L|186:27,1,128.249996575356
248,103,243832,2,0,L|387:136,1,128.249996575356
256,192,244255,12,0,249325,0:0:0:0:
