osu file format v14

[General]
AudioFilename: audio.mp3
AudioLeadIn: 0
PreviewTime:298
Countdown: 0
SampleSet: Soft
StackLeniency: 0.6
Mode: 0
LetterboxInBreaks: 0
WidescreenStoryboard: 1

[Editor]
Bookmarks:25998
DistanceSpacing: 0.64
BeatDivisor: 4
GridSize: 32
TimelineZoom: 2.6

[Metadata]
Title:ICONIC
TitleUnicode:ICONIC
Artist:Ayesha Erotica
ArtistUnicode:Ayesha Erotica
Creator:schoolboy
Version:NORMAL
Source:
Tags:horny.4u horny4u komore nicole smith pop electropop experimental hyperpop english ancel ancelysia craezy jas vacation bible school ms cheeseburger theayeshaerotica Qiyana dyl-byl donatachi pop vol 2
BeatmapID:3523063
BeatmapSetID:1709594

[Difficulty]
HPDrainRate:3
CircleSize:3.8
OverallDifficulty:4
ApproachRate:5
SliderMultiplier:1.3
SliderTickRate:1

[Events]
//Background and Video events
0,0,"uss.jpg",0,0
//Break Periods
//Storyboard Layer 0 (Background)
//Storyboard Layer 1 (Fail)
//Storyboard Layer 2 (Pass)
//Storyboard Layer 3 (Foreground)
//Storyboard Layer 4 (Overlay)
//Storyboard Sound Samples

[TimingPoints]
413,400,4,2,1,69,1,0
3299,-100,4,2,1,69,0,0
3399,-100,4,2,1,69,0,0
8549,-100,4,2,1,42,0,0
8599,-100,4,2,1,69,0,0
8699,-100,4,2,1,42,0,0
8749,-100,4,2,1,69,0,0
9349,-100,4,2,1,42,0,0
9399,-100,4,2,1,69,0,0
9499,-100,4,2,1,42,0,0
9549,-100,4,2,1,69,0,0
9699,-100,4,2,1,69,0,0
9799,-100,4,2,1,69,0,0
9899,-100,4,2,1,69,0,0
9999,-100,4,2,1,69,0,0
14399,-100,4,2,2,69,0,0
14799,-100,4,2,1,69,0,0
15999,-100,4,2,2,69,0,0
16399,-100,4,2,1,69,0,0
17599,-100,4,2,2,69,0,0
17999,-100,4,2,1,69,0,0
19199,-100,4,2,2,69,0,0
19299,-100,4,2,1,69,0,0
19599,-100,4,2,1,69,0,0
20799,-100,4,2,2,69,0,0
21199,-100,4,2,1,69,0,0
22399,-100,4,2,2,69,0,0
22613,-100,4,2,1,69,0,0
22799,-100,4,2,1,69,0,0
23999,-100,4,2,2,69,0,0
24399,-100,4,2,1,69,0,0
25613,413.793103448276,4,2,1,69,1,0
25999,-100,4,2,1,69,0,0
26026,400,4,2,1,44,1,0
26199,-100,4,2,1,69,0,0
28034,400,4,2,1,49,1,0
29234,-103.292783505155,4,2,1,49,0,0
29654,400,4,2,1,49,1,0
30054,-95.999999,4,2,1,49,0,0
30444,400,4,2,1,49,1,0
31613,402.684563758389,4,2,1,49,1,0
32217,400,4,2,1,49,1,0
32428,400,4,2,1,49,1,0
45214,-100,4,2,1,69,0,0
45514,-100,4,2,1,69,0,0
45614,-100,4,2,1,69,0,0
51614,-100,4,2,1,69,0,0
56828,-100,4,2,69,69,0,0
63028,-100,4,2,1,69,0,0
64228,400,4,2,1,66,1,0
65428,400,4,2,1,66,1,0

[Colours]
Combo1 : 230,109,239
Combo2 : 64,64,64
Combo3 : 164,164,164
Combo4 : 255,85,170

[HitObjects]
464,75,413,6,0,P|427:75|396:53,1,65,0|2,0:0|3:2,0:0:0:0:
374,31,813,2,0,P|346:30|312:57,1,65
290,83,1213,2,0,P|242:75|185:67,2,97.5,2|0|0,3:2|0:0|0:0,0:0:0:0:
313,117,2013,2,0,L|326:189,1,65,2|2,3:2|3:2,0:0:0:0:
354,209,2413,2,0,L|341:286,1,65,0|2,0:0|3:2,0:0:0:0:
357,312,2813,2,0,P|316:286|256:296,1,97.5
217,379,3613,6,0,P|184:378|154:366,1,65,2|0,3:2|0:0,0:0:0:0:
161,325,4013,2,0,P|124:345|83:338,1,65,2|0,3:2|0:0,0:0:0:0:
84,306,4413,2,0,P|37:272|-17:275,2,97.5
122,289,5213,1,0,0:0:0:0:
188,238,5613,2,0,L|193:162,1,65,2|0,3:0|0:0,0:0:0:0:
221,144,6013,2,0,P|215:91|208:32,2,97.5,0|2|2,3:0|3:2|3:2,0:0:0:0:
244,178,6813,38,0,P|284:188|317:173,1,65,0|2,3:0|3:2,0:0:0:0:
339,205,7213,2,0,P|382:194|397:163,1,65,2|0,0:0|0:0,0:0:0:0:
434,182,7613,2,0,P|456:132|442:67,2,97.5,2|2|0,3:2|0:0|0:0,0:0:0:0:
424,222,8413,2,0,P|469:224|514:263,2,97.5,2|2|0,3:2|0:0|3:0,0:0:0:0:
398,254,9213,2,0,P|429:274|452:350,2,97.5,2|2|0,3:2|0:0|0:0,0:0:0:0:
358,240,10013,5,0,3:0:0:0:
293,292,10413,2,0,L|206:273,1,65,0|2,3:0|0:0,0:0:0:0:
210,241,10813,2,0,P|161:249|99:259,2,97.5,2|2|0,0:0|0:0|0:0,0:0:0:0:
242,215,11613,2,0,P|254:176|246:138,1,65,2|2,3:2|0:0,0:0:0:0:
275,118,12013,2,0,P|254:72|235:60,1,65,2|2,0:0|3:2,0:0:0:0:
221,28,12413,2,0,P|194:44|145:40,1,65,2|0,0:0|3:0,0:0:0:0:
134,77,12813,2,0,P|94:72|66:48,1,65,0|2,0:0|0:0,0:0:0:0:
46,26,13213,37,0,1:0:0:0:
7,99,13613,2,0,L|18:167,1,65,0|2,0:0|1:3,0:0:0:0:
57,172,14013,2,0,L|44:253,1,65,2|2,1:3|0:0,0:0:0:0:
14,262,14413,1,12,0:0:0:0:
75,318,14813,2,0,P|111:327|133:356,1,65,0|2,1:0|0:0,0:0:0:0:
164,369,15213,2,0,P|202:360|225:336,1,65,0|2,0:0|1:3,0:0:0:0:
243,307,15613,2,0,L|228:237,2,65,2|0|12,1:3|0:0|0:0,0:0:0:0:
316,345,16413,6,0,P|354:349|383:374,1,65,0|2,1:0|0:0,0:0:0:0:
414,378,16813,2,0,P|454:364|470:337,1,65,0|0,0:0|1:0,0:0:0:0:
480,307,17213,2,0,L|467:237,1,65,2|2,1:3|1:2,0:0:0:0:
496,213,17613,2,0,L|506:143,1,65,12|0,0:0|0:0,0:0:0:0:
483,112,18013,1,0,1:0:0:0:
414,64,18413,2,0,L|348:75,1,65,2|2,0:0|1:2,0:0:0:0:
327,109,18813,2,0,P|282:106|250:80,1,65,0|2,1:0|0:0,0:0:0:0:
238,63,19213,2,0,P|174:74|110:84,1,130,12|0,0:0|1:0,0:0:0:0:
34,50,20013,38,0,L|27:118,1,65,0|2,0:0|1:3,0:0:0:0:
0,146,20413,2,0,L|15:234,1,65,2|2,1:3|0:0,0:0:0:0:
42,237,20813,1,12,0:0:0:0:
5,311,21213,2,0,B|39:318|53:350|53:350|84:333|116:339,1,130,0|0,1:0|0:0,0:0:0:0:
144,310,21813,1,2,1:3:0:0:
144,310,22013,2,0,P|137:256|129:200,2,97.5,2|2|0,1:3|0:0|0:0,0:0:0:0:
176,336,22813,6,0,B|208:329|239:346|239:346|253:314|287:307,1,130,0|0,1:0|0:0,0:0:0:0:
323,285,23413,1,2,1:3:0:0:
323,285,23613,2,0,L|396:297,2,65,2|2|12,1:3|0:0|0:0,0:0:0:0:
264,225,24413,2,0,P|248:196|250:164,1,65,0|2,1:0|0:0,0:0:0:0:
216,142,24813,2,0,P|221:108|254:77,1,65,0|0,0:0|1:0,0:0:0:0:
241,43,25213,2,0,P|305:53|369:63,1,130,2|0,0:3|0:0,0:0:0:0:
398,93,25819,1,2,3:2:0:0:
435,74,26026,5,4,3:0:0:0:
504,177,26626,2,0,P|498:213|465:252,1,65,0|2,0:0|0:3,0:0:0:0:
508,315,27226,2,0,P|465:266|404:245,1,130,2|2,0:3|0:3,0:0:0:0:
373,166,28034,2,0,P|316:204|253:200,1,130,2|2,0:3|0:3,0:0:0:0:
223,226,28634,2,0,P|185:210|172:178,2,65,2|2|2,0:3|0:3|0:3,0:0:0:0:
245,260,29234,6,0,B|216:153|308:191|272:62,1,195,2|2,0:3|0:3,0:0:0:0:
235,59,30054,2,0,P|310:88|474:0,1,267.799997752533,2|2,0:3|0:3,0:0:0:0:
420,162,31613,2,0,P|472:175|492:232,2,97.5,2|2|2,0:2|0:2|0:2,0:0:0:0:
381,178,32428,37,2,0:2:0:0:
313,73,33028,2,0,P|283:86|233:86,1,65,2|2,0:3|0:3,0:0:0:0:
191,146,33628,2,0,P|131:122|40:127,2,130,2|2|2,0:3|0:3|0:3,0:0:0:0:
260,193,34828,2,0,P|265:242|270:305,2,97.5,2|2|2,0:3|0:3|0:3,0:0:0:0:
329,89,36028,6,0,B|396:83|435:25|435:25|423:96|474:148,1,260,2|0,0:3|0:0,0:0:0:0:
504,172,37028,1,2,0:3:0:0:
462,244,37428,2,0,P|403:246|321:283,1,130,2|2,0:3|0:3,0:0:0:0:
298,257,38028,2,0,P|285:288|289:326,2,65,2|2|2,0:3|0:3|0:3,0:0:0:0:
331,180,38828,38,0,P|323:130|270:97,2,97.5,2|0|0,3:2|3:2|3:2,0:0:0:0:
364,204,39628,2,0,P|393:165|386:109,2,97.5,2|0|0,3:2|0:0|3:2,0:0:0:0:
362,245,40428,2,0,P|402:249|452:311,2,97.5,2|0|0,3:2|3:2|3:2,0:0:0:0:
326,266,41228,2,0,P|347:297|331:382,1,97.5,2|0,3:2|0:0,0:0:0:0:
243,359,42028,6,0,P|226:303|153:301,1,130,2|0,3:2|0:0,0:0:0:0:
125,315,42628,2,0,P|96:293|96:244,1,65,0|2,3:2|3:2,0:0:0:0:
52,247,43028,2,0,P|53:210|80:178,1,65
61,145,43428,2,0,P|88:111|125:105,1,65,0|2,3:2|3:2,0:0:0:0:
186,131,44028,2,0,B|315:110|256:165|385:151,1,195
392,113,44828,2,0,P|422:123|456:127,1,65,0|2,0:0|3:2,0:0:0:0:
478,92,45228,38,0,B|455:211|516:170|496:311,1,195,2|2,3:2|3:2,0:0:0:0:
459,296,46028,2,0,P|509:313|519:378,2,97.5,2|2|2,3:2|3:2|3:2,0:0:0:0:
419,282,46828,2,0,P|440:235|421:170,2,97.5,2|2|2,3:2|3:2|3:2,0:0:0:0:
379,294,47628,1,2,3:2:0:0:
308,249,48028,2,0,P|273:257|232:257,1,65,0|2,0:0|3:2,0:0:0:0:
228,288,48428,6,0,B|114:294|173:203|51:215,1,195,2|2,3:2|3:2,0:0:0:0:
21,232,49228,2,0,P|7:272|35:344,2,97.5,2|2|2,3:2|3:2|3:2,0:0:0:0:
33,192,50028,2,0,P|17:123|-19:101,2,97.5,2|2|2,3:2|3:2|3:2,0:0:0:0:
73,200,50828,2,0,P|151:191|178:142,1,130,2|0,3:2|0:0,0:0:0:0:
132,81,51628,38,0,B|245:74|186:165|308:153,1,195,6|2,3:2|3:2,0:0:0:0:
333,127,52428,2,0,P|325:77|314:10,2,97.5,4|2|2,3:2|3:2|3:2,0:0:0:0:
370,148,53228,2,0,B|430:149|459:110|459:110|441:161|472:202,1,195,6|2,3:2|3:2,0:0:0:0:
498,230,54028,2,0,P|431:235|404:307,1,130,4|0,3:2|0:0,0:0:0:0:
341,341,54828,6,0,P|389:345|433:365,2,97.5,6|2|2,3:2|3:2|3:2,0:0:0:0:
303,322,55628,2,0,P|267:344|195:344,2,97.5,4|2|2,3:2|3:2|3:2,0:0:0:0:
329,289,56428,1,6,3:2:0:0:
277,224,56828,2,0,P|236:225|211:247,1,65,8|2,0:3|3:3,0:0:0:0:
178,254,57228,2,0,P|189:223|180:175,1,65,8|2,0:3|3:3,0:0:0:0:
209,156,57628,2,0,P|201:118|181:97,1,65,8|2,0:3|3:3,0:0:0:0:
162,63,58028,37,10,3:3:0:0:
93,110,58428,2,0,P|51:98|28:73,1,65,8|8,0:3|3:3,0:0:0:0:
6,113,58828,2,0,L|17:196,1,65,8|8,3:3|0:3,0:0:0:0:
48,201,59228,2,0,L|37:284,1,65,8|10,0:3|3:3,0:0:0:0:
17,300,59628,2,0,P|53:308|78:334,1,65,10|8,3:3|0:3,0:0:0:0:
103,354,60028,2,0,P|147:349|178:319,1,65,8|8,0:3|3:3,0:0:0:0:
188,304,60428,2,0,L|259:314,1,65,8|8,3:3|0:3,0:0:0:0:
282,341,60828,1,8,0:3:0:0:
352,295,61228,6,0,P|366:265|361:225,1,65,10|8,3:3|0:3,0:0:0:0:
387,199,61628,2,0,P|367:165|330:149,1,65,8|10,0:3|3:3,0:0:0:0:
306,138,62028,2,0,P|261:159|199:154,2,97.5,8|2|10,3:3|3:3|3:3,0:0:0:0:
357,72,63028,6,0,L|368:-4,1,65,0|0,1:0|1:0,0:0:0:0:
450,18,63628,1,0,1:0:0:0:
470,54,63828,2,0,L|459:130,1,65,0|0,1:0|1:0,0:0:0:0:
