osu file format v14

[General]
AudioFilename: audio.mp3
AudioLeadIn: 0
PreviewTime:298
Countdown: 0
SampleSet: Soft
StackLeniency: 0.6
Mode: 0
LetterboxInBreaks: 0
WidescreenStoryboard: 1

[Editor]
Bookmarks:25998
DistanceSpacing: 0.8
BeatDivisor: 4
GridSize: 32
TimelineZoom: 2.6

[Metadata]
Title:ICONIC
TitleUnicode:ICONIC
Artist:Ayesha Erotica
ArtistUnicode:Ayesha Erotica
Creator:schoolboy
Version:BABY
Source:
Tags:horny.4u horny4u komore nicole smith pop electropop experimental hyperpop english ancel ancelysia craezy jas vacation bible school ms cheeseburger theayeshaerotica Qiyana dyl-byl donatachi pop vol 2
BeatmapID:3539887
BeatmapSetID:1709594

[Difficulty]
HPDrainRate:2
CircleSize:3.3
OverallDifficulty:2
ApproachRate:3
SliderMultiplier:1.1
SliderTickRate:1

[Events]
//Background and Video events
0,0,"uss.jpg",0,0
//Break Periods
//Storyboard Layer 0 (Background)
//Storyboard Layer 1 (Fail)
//Storyboard Layer 2 (Pass)
//Storyboard Layer 3 (Foreground)
//Storyboard Layer 4 (Overlay)
//Storyboard Sound Samples

[TimingPoints]
413,400,4,2,1,69,1,0
3299,-100,4,2,1,69,0,0
3399,-100,4,2,1,69,0,0
8549,-100,4,2,1,42,0,0
8599,-100,4,2,1,69,0,0
8699,-100,4,2,1,42,0,0
8749,-100,4,2,1,69,0,0
9349,-100,4,2,1,42,0,0
9399,-100,4,2,1,69,0,0
9499,-100,4,2,1,42,0,0
9549,-100,4,2,1,69,0,0
9699,-100,4,2,1,69,0,0
9799,-100,4,2,1,69,0,0
9899,-100,4,2,1,69,0,0
9999,-100,4,2,1,69,0,0
14399,-100,4,2,2,69,0,0
14799,-100,4,2,1,69,0,0
15999,-100,4,2,2,69,0,0
16399,-100,4,2,1,69,0,0
17599,-100,4,2,2,69,0,0
17999,-100,4,2,1,69,0,0
19199,-100,4,2,2,69,0,0
19299,-100,4,2,1,69,0,0
19599,-100,4,2,1,69,0,0
20799,-100,4,2,2,69,0,0
21199,-100,4,2,1,69,0,0
22399,-100,4,2,2,69,0,0
22799,-100,4,2,1,69,0,0
23999,-100,4,2,2,69,0,0
24399,-100,4,2,1,69,0,0
25613,413.793103448276,4,2,1,69,1,0
25999,-100,4,2,1,69,0,0
26026,400,4,2,1,44,1,0
26199,-100,4,2,1,69,0,0
28034,400,4,2,1,49,1,0
29234,-102.492783505155,4,2,1,49,0,0
29654,400,4,2,1,49,1,0
30444,400,4,2,1,49,1,0
31613,402.684563758389,4,2,1,49,1,0
31613,-101.399999999,4,2,1,49,0,0
32217,400,4,2,1,49,1,0
32428,400,4,2,1,49,1,0
45214,-100,4,2,1,69,0,0
45514,-100,4,2,1,69,0,0
45614,-100,4,2,1,69,0,0
51614,-100,4,2,1,69,0,0
56828,-100,4,2,69,69,0,0
63028,-100,4,2,1,69,0,0
64228,400,4,2,1,66,1,0
65428,400,4,2,1,66,1,0

[Colours]
Combo1 : 230,109,239
Combo2 : 64,64,64
Combo3 : 164,164,164
Combo4 : 255,85,170

[HitObjects]
358,64,413,6,0,P|437:73|479:160,1,165
512,166,1213,2,0,P|481:187|475:256,1,110,2|0,3:2|0:0,0:0:0:0:
421,324,2013,2,0,P|356:271|278:271,1,165,2|2,3:2|3:2,0:0:0:0:
254,233,2813,2,0,P|220:258|154:245,1,110
96,311,3613,6,0,P|37:260|61:160,1,165,2|0,3:2|0:0,0:0:0:0:
19,142,4413,2,0,P|46:97|104:92,1,110
130,7,5213,2,0,P|184:83|266:82,1,165
285,62,6013,1,0,3:0:0:0:
365,96,6413,1,2,3:0:0:0:
436,45,6813,38,0,P|499:79|497:188,1,165,0|0,3:0|0:0,0:0:0:0:
507,209,7613,2,0,P|457:209|404:245,1,110,2|0,3:2|0:0,0:0:0:0:
379,323,8413,2,0,P|314:317|250:242,1,165,2|0,3:2|3:0,0:0:0:0:
208,258,9213,2,0,P|205:204|233:148,1,110,2|0,3:2|0:0,0:0:0:0:
271,77,10013,6,0,P|241:127|132:120,1,165,0|2,3:0|0:0,0:0:0:0:
106,103,10813,2,0,P|57:124|46:188,1,110,2|0,0:0|0:0,0:0:0:0:
13,258,11613,2,0,P|79:261|164:319,1,165,2|2,3:2|3:2,0:0:0:0:
188,347,12413,1,2,0:0:0:0:
264,303,12813,1,0,0:0:0:0:
341,344,13213,38,0,P|431:322|457:257,1,165,0|2,1:0|1:3,0:0:0:0:
487,229,14013,1,2,1:3:0:0:
416,176,14413,1,12,0:0:0:0:
484,120,14813,2,0,P|461:59|362:39,1,165,0|2,1:0|1:3,0:0:0:0:
333,59,15613,2,0,P|310:98|241:103,1,110,2|12,1:3|0:0,0:0:0:0:
181,52,16413,6,0,P|119:53|79:100,1,110,0|2,1:0|0:0,0:0:0:0:
21,144,17213,2,0,P|64:177|57:240,1,110,2|12,1:3|0:0,0:0:0:0:
11,299,18013,2,0,P|41:327|110:295,1,110,0|2,1:0|0:0,0:0:0:0:
177,355,18813,2,0,P|207:327|276:359,1,110,0|12,1:0|0:0,0:0:0:0:
318,271,19613,38,0,P|373:328|451:313,1,165,0|2,1:0|1:3,0:0:0:0:
464,271,20413,1,2,1:3:0:0:
394,217,20813,1,12,0:0:0:0:
422,133,21213,2,0,P|374:176|276:161,1,165,0|2,1:0|1:3,0:0:0:0:
253,128,22013,2,0,P|194:131|161:182,1,110,2|12,1:3|0:0,0:0:0:0:
145,254,22813,6,0,P|129:177|40:154,1,165,0|2,1:0|1:3,0:0:0:0:
11,159,23613,2,0,P|7:95|53:50,1,110,2|12,1:3|0:0,0:0:0:0:
100,4,24413,2,0,P|145:37|261:35,1,165,0|0,1:0|1:0,0:0:0:0:
287,15,25213,1,2,0:3:0:0:
358,65,25613,2,0,P|412:63|471:113,1,110,0|4,0:0|3:0,0:0:0:0:
490,219,26826,6,0,P|459:264|461:318,2,110,2|2|2,0:3|0:3|0:3,0:0:0:0:
448,142,28034,2,0,P|406:105|339:128,1,110,2|2,0:3|0:3,0:0:0:0:
307,185,28834,1,2,0:3:0:0:
225,160,29234,2,0,P|172:145|85:263,1,220,2|2,0:3|0:3,0:0:0:0:
27,321,30444,2,0,P|49:357|130:361,1,110,2|0,0:3|0:0,0:0:0:0:
252,274,31613,6,0,B|278:157|204:188|252:36,1,220,2|2,0:2|0:2,0:0:0:0:
390,160,33228,2,0,P|436:168|483:218,1,110,2|2,0:3|0:3,0:0:0:0:
425,280,34028,2,0,P|383:285|330:344,1,110,2|2,0:3|0:3,0:0:0:0:
256,370,34828,2,0,P|198:306|99:300,2,165,2|2|2,0:3|0:3|0:3,0:0:0:0:
335,329,36428,38,0,P|351:280|460:233,2,165,2|2|0,0:3|0:3|0:0,0:0:0:0:
256,370,38028,1,2,0:3:0:0:
178,328,38428,1,2,0:3:0:0:
100,369,38828,6,0,P|54:312|82:207,1,165,2|0,3:2|3:2,0:0:0:0:
44,187,39628,1,2,3:2:0:0:
109,128,40028,1,0,0:0:0:0:
171,189,40428,2,0,P|245:179|272:79,1,165,2|0,3:2|3:2,0:0:0:0:
266,60,41228,2,0,P|307:50|360:100,1,110,2|0,3:2|0:0,0:0:0:0:
436,127,42028,38,0,P|436:196|356:227,1,165,2|0,3:2|3:2,0:0:0:0:
315,209,42828,1,2,3:2:0:0:
241,256,43228,1,0,0:0:0:0:
170,203,43628,2,0,P|156:121|234:70,1,165,2|0,3:2|3:2,0:0:0:0:
241,39,44428,2,0,P|268:77|342:82,1,110,2|0,3:2|0:0,0:0:0:0:
405,46,45228,6,0,P|467:74|469:178,1,165,2|2,3:2|3:2,0:0:0:0:
472,206,46028,2,0,P|421:168|364:179,1,110,2|0,3:2|0:0,0:0:0:0:
304,122,46828,2,0,P|237:158|142:142,1,165,2|2,3:2|3:2,0:0:0:0:
116,120,47628,1,2,3:2:0:0:
55,183,48028,1,0,0:0:0:0:
91,265,48428,38,0,P|177:275|239:340,1,165,2|2,3:2|3:2,0:0:0:0:
261,360,49228,2,0,P|355:333|365:253,1,165,2|2,3:2|3:2,0:0:0:0:
414,275,50028,2,0,P|412:208|365:177,1,110,2|0,3:2|0:0,0:0:0:0:
378,94,50828,2,0,P|348:126|281:117,1,110,2|0,3:2|0:0,0:0:0:0:
224,57,51628,5,6,3:2:0:0:
145,98,52028,1,0,0:0:0:0:
59,74,52428,2,0,P|22:93|6:163,1,110,4|0,3:2|0:0,0:0:0:0:
58,224,53228,2,0,P|105:222|156:263,1,110,6|0,3:2|0:0,0:0:0:0:
201,332,54028,2,0,P|269:327|301:285,1,110,4|0,3:2|0:0,0:0:0:0:
322,214,54828,37,6,3:2:0:0:
269,143,55228,1,0,0:0:0:0:
323,74,55628,2,0,P|378:82|415:127,1,110,4|0,3:2|0:0,0:0:0:0:
476,181,56428,1,6,3:2:0:0:
416,245,56828,2,0,P|397:281|386:353,2,110,8|8|8,0:3|0:3|0:3,0:0:0:0:
355,180,58028,6,0,P|312:207|242:191,1,110,10|8,3:3|0:3,0:0:0:0:
204,271,58828,2,0,P|148:229|141:182,1,110,8|8,3:3|0:3,0:0:0:0:
66,145,59628,1,10,3:3:0:0:
128,82,60028,1,8,0:3:0:0:
208,117,60428,2,0,P|265:111|299:64,1,110,8|8,3:3|0:3,0:0:0:0:
367,19,61228,38,0,P|414:54|417:105,1,110,10|8,3:3|0:3,0:0:0:0:
492,149,62028,2,0,P|473:208|368:216,1,165,8|10,3:3|3:3,0:0:0:0:
312,279,63028,22,0,P|269:241|163:238,1,165,0|0,1:0|1:0,0:0:0:0:
134,206,63828,2,0,P|102:221|76:222,1,55,0|0,1:0|1:0,0:0:0:0:
