osu file format v14

[General]
AudioFilename: audio.mp3
AudioLeadIn: 0
PreviewTime: -1
Countdown: 1
SampleSet: None
StackLeniency: 0.7
Mode: 0
LetterboxInBreaks: 0
WidescreenStoryboard: 0

[Editor]
Bookmarks: 1960,42524,56045,74848
DistanceSpacing: 0.6
BeatDivisor: 4
GridSize: 4
TimelineZoom: 0.7800037

[Metadata]
Title:Devil In Disguise
TitleUnicode:Devil In Disguise
Artist:Aycan
ArtistUnicode:Aycan
Creator:Marcuko
Version:Literally Chaos!
Source:
Tags:
BeatmapID:1441472
BeatmapSetID:681721

[Difficulty]
HPDrainRate:5
CircleSize:5
OverallDifficulty:8
ApproachRate:9.5
SliderMultiplier:2.49999990463257
SliderTickRate:2

[Events]
//Background and Video events
0,0,"demon_eye_by_treehousecharms.jpg",0,0
//Break Periods
2,42723,55491
//Storyboard Layer 0 (Background)
//Storyboard Layer 1 (Fail)
//Storyboard Layer 2 (Pass)
//Storyboard Layer 3 (Foreground)
//Storyboard Sound Samples

[TimingPoints]
-152,422.535211267606,4,3,0,100,1,0
1961,-100,4,3,0,100,0,0
2061,-100,4,3,0,100,0,0
5340,-76.9230769230769,4,3,0,100,0,0
7031,-100,4,3,0,100,0,0
13369,-66.6666666666667,4,3,0,100,0,0
16538,-58.8235294117647,4,3,0,100,0,0
27101,-66.6666666666667,4,3,0,100,0,0
29002,-100,4,3,0,100,0,0
30693,-66.6666666666667,4,3,0,100,0,0
31749,-133.333333333333,4,3,0,100,0,0
32383,-100,4,3,0,100,0,0
32805,-66.6666666666667,4,3,0,100,0,0
33228,-50,4,3,0,100,0,0
42101,-133.333333333333,4,3,0,100,0,0
42312,-133.333333333333,4,3,0,100,0,0
56045,-66.6666666666667,4,3,0,100,0,1
59214,-100,4,3,0,100,0,1
65763,-66.6666666666667,4,3,0,100,0,1
66186,-50,4,3,0,100,0,1
69566,-133.333333333333,4,3,0,100,0,1
71256,-133.333333333333,4,3,0,100,0,1
74848,-100,4,3,0,100,0,0

[Colours]
Combo1 : 18,0,244
Combo2 : 213,4,4
Combo3 : 0,166,0

[HitObjects]
95,244,1960,5,0,0:0:0:0:
295,281,2171,1,0,0:0:0:0:
163,157,2383,2,0,P|224:243|351:289,1,187.499992847443
448,317,2805,1,0,0:0:0:0:
234,235,3017,1,0,0:0:0:0:
379,87,3228,2,0,B|267:39|267:39|203:83,1,187.499992847443
379,87,3650,5,0,0:0:0:0:
91,155,3862,1,0,0:0:0:0:
165,297,4073,2,0,P|257:285|349:241,1,187.499992847443
342,245,4495,5,0,0:0:0:0:
416,135,4707,1,0,0:0:0:0:
422,117,4812,1,0,0:0:0:0:
420,98,4918,1,0,0:0:0:0:
336,232,5129,5,0,0:0:0:0:
108,97,5340,2,0,B|44:157|44:157|84:233,1,162.499986362458
418,267,5763,2,0,B|456:200|456:200|396:140,1,162.499986362458
172,250,6186,1,0,0:0:0:0:
413,318,6397,1,0,0:0:0:0:
413,318,6502,1,0,0:0:0:0:
413,318,6608,1,0,0:0:0:0:
472,157,6819,5,0,0:0:0:0:
298,73,7031,2,0,P|218:45|166:53,1,124.999995231629
17,97,7453,1,0,0:0:0:0:
377,165,7664,1,0,0:0:0:0:
142,245,7876,1,0,0:0:0:0:
423,292,8087,1,0,0:0:0:0:
423,292,8193,1,0,0:0:0:0:
423,292,8298,1,0,0:0:0:0:
384,80,8509,1,0,0:0:0:0:
126,42,8721,5,0,0:0:0:0:
30,251,8932,1,0,0:0:0:0:
235,73,9143,1,0,0:0:0:0:
146,286,9355,1,0,0:0:0:0:
350,106,9566,1,0,0:0:0:0:
297,311,9777,1,0,0:0:0:0:
424,163,9988,1,0,0:0:0:0:
297,311,10200,1,0,0:0:0:0:
406,277,10411,5,0,0:0:0:0:
124,308,10622,1,0,0:0:0:0:
84,270,10728,1,0,0:0:0:0:
57,226,10833,1,0,0:0:0:0:
62,61,11045,1,0,0:0:0:0:
261,58,11256,2,0,P|349:54|445:102,1,187.499992847443
462,209,11678,1,0,0:0:0:0:
462,209,11784,1,0,0:0:0:0:
462,209,11890,1,0,0:0:0:0:
268,295,12101,6,0,B|207:316|207:316|144:307,1,124.999995231629
414,151,12524,2,0,B|358:115|358:115|286:147,1,124.999995231629
56,240,12946,1,0,0:0:0:0:
256,192,13157,1,0,0:0:0:0:
256,192,13369,2,0,P|256:80|292:96,1,187.5
256,192,13791,2,0,P|368:192|352:228,1,187.5
256,192,14214,2,0,P|256:304|220:288,1,187.5
136,264,14636,1,0,0:0:0:0:
256,72,14848,1,0,0:0:0:0:
372,272,15059,1,0,0:0:0:0:
256,72,15270,1,0,0:0:0:0:
356,82,15481,5,0,0:0:0:0:
396,117,15587,1,0,0:0:0:0:
428,160,15693,1,0,0:0:0:0:
451,207,15798,1,0,0:0:0:0:
454,258,15904,1,0,0:0:0:0:
313,326,16115,1,0,0:0:0:0:
110,320,16326,1,0,0:0:0:0:
22,193,16538,5,0,0:0:0:0:
112,92,16749,2,0,L|216:68,2,106.249997973442
334,42,17171,1,0,0:0:0:0:
453,160,17383,5,0,0:0:0:0:
400,292,17594,2,0,L|296:316,2,106.249997973442
96,188,18017,1,0,0:0:0:0:
188,312,18228,5,0,0:0:0:0:
360,328,18439,2,0,L|448:260,2,106.249997973442
360,64,18862,1,0,0:0:0:0:
440,184,19073,5,0,0:0:0:0:
376,304,19284,1,0,0:0:0:0:
340,320,19390,1,0,0:0:0:0:
300,328,19495,1,0,0:0:0:0:
152,64,19707,1,0,0:0:0:0:
48,175,19918,5,0,0:0:0:0:
128,296,20129,1,0,0:0:0:0:
164,320,20235,1,0,0:0:0:0:
208,328,20340,1,0,0:0:0:0:
352,272,20552,1,0,0:0:0:0:
400,188,20763,5,0,0:0:0:0:
400,148,20869,1,0,0:0:0:0:
384,108,20974,1,0,0:0:0:0:
308,56,21186,1,0,0:0:0:0:
176,72,21397,5,0,0:0:0:0:
80,156,21608,5,0,0:0:0:0:
64,196,21714,1,0,0:0:0:0:
68,240,21819,1,0,0:0:0:0:
120,312,22031,1,0,0:0:0:0:
352,264,22242,5,0,0:0:0:0:
256,96,22453,1,0,0:0:0:0:
160,264,22664,1,0,0:0:0:0:
416,56,22876,1,0,0:0:0:0:
105,92,23087,1,0,0:0:0:0:
294,341,23298,1,0,0:0:0:0:
288,28,23509,1,0,0:0:0:0:
82,244,23720,1,0,0:0:0:0:
374,311,23931,1,0,0:0:0:0:
116,96,24355,5,0,0:0:0:0:
264,144,24566,1,0,0:0:0:0:
264,144,24671,1,0,0:0:0:0:
192,256,24883,1,0,0:0:0:0:
192,256,24989,1,0,0:0:0:0:
313,337,25200,5,0,0:0:0:0:
416,158,25411,1,0,0:0:0:0:
198,46,25622,1,0,0:0:0:0:
101,245,25833,1,0,0:0:0:0:
198,46,26045,1,0,0:0:0:0:
416,158,26256,1,0,0:0:0:0:
376,280,26467,1,0,0:0:0:0:
180,344,26678,1,0,0:0:0:0:
60,204,26890,1,0,0:0:0:0:
212,80,27101,2,0,L|300:44,2,93.7500000000001
89,140,29002,5,0,0:0:0:0:
205,45,29214,1,0,0:0:0:0:
419,109,29425,2,0,P|427:173|343:201,1,124.999995231629
232,233,29848,1,0,0:0:0:0:
105,145,30059,2,0,B|60:92|60:92|124:12,1,124.999995231629
376,200,30481,2,0,B|416:256|416:256|352:336,1,124.999995231629
140,152,30904,5,0,0:0:0:0:
336,56,31115,1,0,0:0:0:0:
140,152,31326,1,0,0:0:0:0:
336,56,31538,1,0,0:0:0:0:
336,232,31749,2,0,L|292:260,4,46.875
208,292,32383,6,0,P|100:288|80:236,1,124.999995231629
76,204,32805,6,0,P|96:96|164:68,1,187.5
252,68,33228,6,0,P|400:104|440:224,1,249.999990463257
448,260,33650,6,0,P|344:336|216:344,1,249.999990463257
144,292,34073,5,0,0:0:0:0:
92,160,34284,1,0,0:0:0:0:
116,120,34390,1,0,0:0:0:0:
244,64,34601,1,0,0:0:0:0:
290,70,34707,1,0,0:0:0:0:
380,148,34918,1,0,0:0:0:0:
408,184,35024,1,0,0:0:0:0:
408,232,35129,1,0,0:0:0:0:
392,280,35235,1,0,0:0:0:0:
276,324,35446,1,0,0:0:0:0:
236,312,35551,1,0,0:0:0:0:
132,192,35763,5,0,0:0:0:0:
340,88,35974,1,0,0:0:0:0:
132,192,36186,1,0,0:0:0:0:
344,260,36397,1,0,0:0:0:0:
383,268,36608,5,0,0:0:0:0:
105,247,36819,1,0,0:0:0:0:
383,268,37031,1,0,0:0:0:0:
207,67,37242,1,0,0:0:0:0:
402,166,37453,5,0,0:0:0:0:
178,332,37664,1,0,0:0:0:0:
402,166,37876,1,0,0:0:0:0:
137,129,38087,1,0,0:0:0:0:
100,233,38298,5,0,0:0:0:0:
326,33,38509,1,0,0:0:0:0:
100,233,38721,1,0,0:0:0:0:
395,160,38932,1,0,0:0:0:0:
395,160,39143,5,0,0:0:0:0:
424,208,39249,1,0,0:0:0:0:
444,256,39355,1,0,0:0:0:0:
452,308,39460,1,0,0:0:0:0:
408,336,39566,1,0,0:0:0:0:
364,308,39671,1,0,0:0:0:0:
344,260,39777,1,0,0:0:0:0:
376,216,39883,1,0,0:0:0:0:
408,176,39988,1,0,0:0:0:0:
416,124,40094,1,0,0:0:0:0:
372,92,40200,5,0,0:0:0:0:
320,80,40305,1,0,0:0:0:0:
268,72,40411,1,0,0:0:0:0:
216,68,40517,1,0,0:0:0:0:
164,80,40622,1,0,0:0:0:0:
116,100,40728,1,0,0:0:0:0:
84,140,40833,1,0,0:0:0:0:
136,148,40939,1,0,0:0:0:0:
188,152,41045,1,0,0:0:0:0:
236,168,41150,1,0,0:0:0:0:
272,208,41256,5,0,0:0:0:0:
268,256,41362,1,0,0:0:0:0:
232,288,41467,1,0,0:0:0:0:
200,324,41573,1,0,0:0:0:0:
152,340,41678,1,0,0:0:0:0:
104,320,41784,1,0,0:0:0:0:
88,272,41890,1,0,0:0:0:0:
96,220,41995,1,0,0:0:0:0:
130,118,42101,6,0,L|146:70,4,46.875
135,101,56045,5,4,0:0:0:0:
208,104,56150,1,0,0:0:0:0:
279,116,56256,1,0,0:0:0:0:
341,149,56362,1,0,0:0:0:0:
389,199,56467,1,8,0:0:0:0:
446,306,56678,5,0,0:0:0:0:
302,279,56890,5,4,0:0:0:0:
234,262,56995,1,0,0:0:0:0:
174,224,57101,1,0,0:0:0:0:
127,168,57207,1,0,0:0:0:0:
88,106,57312,1,8,0:0:0:0:
172,39,57524,5,0,0:0:0:0:
395,125,57735,5,4,0:0:0:0:
483,163,57946,5,0,0:0:0:0:
444,213,58052,1,0,0:0:0:0:
403,259,58157,1,8,0:0:0:0:
153,318,58369,5,0,0:0:0:0:
395,125,58580,1,4,0:0:0:0:
259,36,58791,1,0,0:0:0:0:
51,93,59002,6,0,B|70:78|70:78|77:101|77:101|93:78|93:78|104:108|104:108|125:78|125:78|134:109|134:109|146:77|146:77|164:112|164:112|175:77|175:77|191:113|191:113|207:79|207:79|213:112,1,375,8|4,0:0|0:0,0:0:0:0:
96,167,59636,5,0,0:0:0:0:
454,239,59848,1,8,0:0:0:0:
87,161,60059,1,0,0:0:0:0:
266,68,60270,1,4,0:0:0:0:
410,291,60481,1,0,0:0:0:0:
167,277,60693,6,0,B|110:269|110:269|74:217|103:214,1,124.999995231629,8|0,0:0|0:0,0:0:0:0:
103,214,61115,1,4,0:0:0:0:
382,162,61326,1,0,0:0:0:0:
382,162,61432,1,0,0:0:0:0:
382,162,61538,1,8,0:0:0:0:
142,60,61749,2,0,B|84:80|83:80|99:129|99:129|74:137|61:179,1,124.999995231629,0|4,0:0|0:0,0:0:0:0:
80,141,62171,1,0,0:0:0:0:
372,104,62383,1,8,0:0:0:0:
438,128,62805,5,4,0:0:0:0:
423,196,62910,1,0,0:0:0:0:
401,262,63016,1,0,0:0:0:0:
358,311,63122,1,0,0:0:0:0:
293,284,63227,1,8,0:0:0:0:
206,171,63439,1,0,0:0:0:0:
117,97,63650,5,4,0:0:0:0:
69,56,63755,1,0,0:0:0:0:
46,116,63861,1,0,0:0:0:0:
33,178,63967,1,0,0:0:0:0:
56,239,64073,1,8,0:0:0:0:
261,295,64284,1,0,0:0:0:0:
437,142,64495,1,4,0:0:0:0:
155,69,64707,1,0,0:0:0:0:
155,69,64812,1,0,0:0:0:0:
155,69,64918,1,8,0:0:0:0:
73,276,65129,1,0,0:0:0:0:
437,142,65340,1,4,0:0:0:0:
59,271,65552,1,0,0:0:0:0:
437,142,65763,2,0,B|431:136|431:136|432:147|432:147|428:136|428:136|429:147|429:147|423:136|423:136|425:147|425:147|426:136|426:136|421:147|421:147|419:136|419:136|418:147|418:147|416:136|416:136|415:147|415:147|413:136|413:136|412:147|412:147|409:136|409:136|409:147|409:147|406:136|406:136|406:147|406:147|397:142,1,187.5,8|0,0:0|0:0,0:0:0:0:
230,91,66186,5,4,0:0:0:0:
281,292,66397,1,0,0:0:0:0:
152,199,66608,1,8,0:0:0:0:
359,184,66819,1,0,0:0:0:0:
80,201,67031,1,4,0:0:0:0:
431,182,67242,1,0,0:0:0:0:
234,366,67453,1,8,0:0:0:0:
122,301,67664,2,0,B|106:229|106:229|70:191|70:191|48:114|48:114|88:56,1,249.999990463257,0|4,0:0|0:0,0:0:0:0:
73,78,68087,1,0,0:0:0:0:
73,78,68193,1,0,0:0:0:0:
73,78,68298,1,8,0:0:0:0:
392,154,68509,1,0,0:0:0:0:
73,78,68721,1,4,0:0:0:0:
412,241,68932,1,0,0:0:0:0:
73,78,69143,1,8,0:0:0:0:
47,161,69566,5,4,0:0:0:0:
87,217,69671,1,0,0:0:0:0:
155,225,69777,1,0,0:0:0:0:
212,188,69883,1,0,0:0:0:0:
261,141,69988,1,8,0:0:0:0:
388,75,70200,1,0,0:0:0:0:
429,181,70411,1,4,0:0:0:0:
384,233,70517,1,0,0:0:0:0:
326,272,70622,1,0,0:0:0:0:
260,292,70728,1,0,0:0:0:0:
190,286,70833,1,8,0:0:0:0:
44,184,71045,1,0,0:0:0:0:
126,97,71256,2,0,B|133:91|133:91|134:101|134:101|139:91|139:91|141:101|141:101|144:91|144:91|147:101|147:101|150:91|150:91|153:101|153:101|156:91|156:91|160:101,1,93.7500000000001,4|0,0:0|0:0,0:0:0:0:
404,133,71678,5,8,0:0:0:0:
336,269,71890,1,0,0:0:0:0:
336,269,71995,1,0,0:0:0:0:
98,298,72312,1,0,0:0:0:0:
425,232,72524,1,4,0:0:0:0:
256,192,72735,12,8,74637,0:0:0:0:
