osu file format v14

[General]
AudioFilename: audio.mp3
AudioLeadIn: 0
PreviewTime: 76259
Countdown: 0
SampleSet: Soft
StackLeniency: 0.7
Mode: 3
LetterboxInBreaks: 0
SpecialStyle: 0
WidescreenStoryboard: 0

[Editor]
Bookmarks: 20149
DistanceSpacing: 0.7
BeatDivisor: 8
GridSize: 8
TimelineZoom: 1.6

[Metadata]
Title:How to be mine
TitleUnicode:내꺼 하는 법
Artist:Ayatsuno Yuni
ArtistUnicode:아야츠노 유니
Creator:DenYi
Version:Love Guide
Source:
Tags:kpop k-pop pop korean stellive 스텔라이브 1st single virtual youtuber vtuber バーチャル
BeatmapID:4248392
BeatmapSetID:2037054

[Difficulty]
HPDrainRate:8.5
CircleSize:4
OverallDifficulty:8
ApproachRate:5
SliderMultiplier:1.4
SliderTickRate:1

[Events]
//Background and Video events
0,0,"yuni.jpg",0,0
Video,60,"video.mp4"
//Break Periods
//Storyboard Layer 0 (Background)
//Storyboard Layer 1 (Fail)
//Storyboard Layer 2 (Pass)
//Storyboard Layer 3 (Foreground)
//Storyboard Layer 4 (Overlay)
//Storyboard Sound Samples

[TimingPoints]
607,652.173913043478,4,2,1,100,1,0
34520,-100,4,2,1,100,0,1
54085,-100,4,2,1,100,0,0
76259,-100,4,2,1,100,0,1
95824,-100,4,2,1,100,0,0
107563,-100,4,2,1,100,0,1
127128,-100,4,2,1,100,0,0

[HitObjects]
448,192,607,128,0,1096:0:0:0:0:
448,192,1259,128,0,1911:0:0:0:0:
320,192,1911,1,0,0:0:0:0:
192,192,2020,1,0,0:0:0:0:
64,192,2128,1,0,0:0:0:0:
448,192,2237,1,0,0:0:0:0:
320,192,2346,1,0,0:0:0:0:
192,192,2454,1,0,0:0:0:0:
448,192,2563,1,0,0:0:0:0:
64,192,2563,128,0,3215:0:0:0:0:
320,192,3215,128,0,3378:0:0:0:0:
448,192,3215,128,0,3378:0:0:0:0:
320,192,3541,128,0,4030:0:0:0:0:
448,192,3541,128,0,4030:0:0:0:0:
192,192,3867,128,0,4356:0:0:0:0:
320,192,4193,128,0,4356:0:0:0:0:
192,192,4520,128,0,4683:0:0:0:0:
64,192,4520,128,0,4683:0:0:0:0:
448,192,4683,128,0,4846:0:0:0:0:
192,192,4846,128,0,5335:0:0:0:0:
64,192,4846,128,0,5335:0:0:0:0:
320,192,5172,128,0,5661:0:0:0:0:
192,192,5498,128,0,5661:0:0:0:0:
448,192,5824,128,0,5987:0:0:0:0:
320,192,5824,128,0,5987:0:0:0:0:
320,192,6150,128,0,6639:0:0:0:0:
448,192,6150,128,0,6639:0:0:0:0:
64,192,6476,128,0,6802:0:0:0:0:
448,192,6802,1,0,0:0:0:0:
192,192,7128,128,0,7617:0:0:0:0:
64,192,7128,1,0,0:0:0:0:
320,192,7454,128,0,7780:0:0:0:0:
448,192,7617,128,0,7943:0:0:0:0:
64,192,7780,128,0,8270:0:0:0:0:
192,192,7780,1,0,0:0:0:0:
448,192,8106,128,0,8270:0:0:0:0:
192,192,8433,128,0,8596:0:0:0:0:
64,192,8433,128,0,8596:0:0:0:0:
192,192,8759,128,0,9248:0:0:0:0:
64,192,8759,128,0,9248:0:0:0:0:
448,192,9085,128,0,9574:0:0:0:0:
64,192,9411,128,0,9574:0:0:0:0:
320,192,9737,128,0,9900:0:0:0:0:
448,192,9737,128,0,9900:0:0:0:0:
320,192,10063,128,0,10552:0:0:0:0:
448,192,10063,128,0,10552:0:0:0:0:
64,192,10389,128,0,10878:0:0:0:0:
448,192,10715,128,0,10878:0:0:0:0:
192,192,11041,128,0,11204:0:0:0:0:
64,192,11041,128,0,11204:0:0:0:0:
64,192,11367,128,0,11693:0:0:0:0:
192,192,11367,128,0,11585:0:0:0:0:
448,192,11476,1,0,0:0:0:0:
320,192,11585,1,0,0:0:0:0:
192,192,11693,1,0,0:0:0:0:
64,192,11802,1,0,0:0:0:0:
320,192,11911,1,0,0:0:0:0:
448,192,12020,1,0,0:0:0:0:
64,192,12128,1,0,0:0:0:0:
192,192,12237,1,0,0:0:0:0:
320,192,12346,1,0,0:0:0:0:
448,192,12346,1,0,0:0:0:0:
192,192,12672,1,0,0:0:0:0:
64,192,12672,1,0,0:0:0:0:
448,192,12998,1,0,0:0:0:0:
320,192,12998,1,0,0:0:0:0:
192,192,13324,1,0,0:0:0:0:
64,192,13324,1,0,0:0:0:0:
320,192,13650,128,0,13813:0:0:0:0:
448,192,13650,128,0,13813:0:0:0:0:
320,192,13976,128,0,14465:0:0:0:0:
448,192,13976,128,0,14465:0:0:0:0:
64,192,14302,128,0,14791:0:0:0:0:
192,192,14343,1,0,0:0:0:0:
448,192,14628,128,0,14791:0:0:0:0:
192,192,14954,128,0,15117:0:0:0:0:
64,192,14954,128,0,15443:0:0:0:0:
448,192,15117,128,0,15280:0:0:0:0:
192,192,15280,128,0,15770:0:0:0:0:
320,192,15280,128,0,15443:0:0:0:0:
320,192,15606,128,0,16096:0:0:0:0:
448,192,15647,1,0,0:0:0:0:
192,192,15933,128,0,16096:0:0:0:0:
448,192,16259,128,0,16748:0:0:0:0:
320,192,16259,128,0,16422:0:0:0:0:
64,192,16422,128,0,16585:0:0:0:0:
320,192,16585,128,0,17074:0:0:0:0:
192,192,16585,128,0,16748:0:0:0:0:
192,192,16911,128,0,17237:0:0:0:0:
64,192,16952,1,0,0:0:0:0:
320,192,17237,1,0,0:0:0:0:
64,192,17563,128,0,18052:0:0:0:0:
448,192,17563,1,0,0:0:0:0:
320,192,17889,128,0,18378:0:0:0:0:
448,192,18052,128,0,18378:0:0:0:0:
64,192,18215,128,0,18704:0:0:0:0:
192,192,18256,1,0,0:0:0:0:
448,192,18541,128,0,18867:0:0:0:0:
192,192,18867,128,0,19030:0:0:0:0:
64,192,18867,128,0,19030:0:0:0:0:
192,192,19193,128,0,19683:0:0:0:0:
64,192,19193,128,0,19683:0:0:0:0:
448,192,19520,128,0,20009:0:0:0:0:
320,192,19560,1,0,0:0:0:0:
64,192,19846,128,0,20009:0:0:0:0:
448,192,20172,128,0,20335:0:0:0:0:
320,192,20172,128,0,20335:0:0:0:0:
448,192,20498,128,0,20987:0:0:0:0:
320,192,20498,128,0,20987:0:0:0:0:
64,192,20824,128,0,21313:0:0:0:0:
192,192,20865,1,0,0:0:0:0:
448,192,21150,128,0,21313:0:0:0:0:
192,192,21476,128,0,21639:0:0:0:0:
64,192,21476,128,0,21639:0:0:0:0:
192,192,21802,128,0,22291:0:0:0:0:
64,192,21802,128,0,22291:0:0:0:0:
320,192,22128,128,0,22454:0:0:0:0:
448,192,22169,1,0,0:0:0:0:
192,192,22454,1,0,0:0:0:0:
448,192,22780,128,0,23270:0:0:0:0:
64,192,22780,1,0,0:0:0:0:
192,192,23106,128,0,23596:0:0:0:0:
64,192,23270,128,0,23596:0:0:0:0:
448,192,23433,128,0,23922:0:0:0:0:
320,192,23473,1,0,0:0:0:0:
64,192,23759,128,0,23922:0:0:0:0:
64,192,24085,128,0,25389:0:0:0:0:
448,192,24085,1,0,0:0:0:0:
320,192,24411,128,0,25226:0:0:0:0:
448,192,24737,128,0,25226:0:0:0:0:
192,192,25063,1,0,0:0:0:0:
448,192,25389,128,0,26693:0:0:0:0:
320,192,25389,128,0,26041:0:0:0:0:
192,192,25715,128,0,26367:0:0:0:0:
64,192,26041,128,0,26367:0:0:0:0:
320,192,26367,128,0,26693:0:0:0:0:
192,192,26693,128,0,27998:0:0:0:0:
64,192,26693,1,0,0:0:0:0:
448,192,27020,128,0,27835:0:0:0:0:
320,192,27346,128,0,27835:0:0:0:0:
64,192,27672,1,0,0:0:0:0:
320,192,27998,128,0,29302:0:0:0:0:
448,192,27998,128,0,28650:0:0:0:0:
192,192,28324,128,0,28976:0:0:0:0:
64,192,28650,128,0,28976:0:0:0:0:
448,192,28976,128,0,29302:0:0:0:0:
64,192,29302,128,0,30606:0:0:0:0:
192,192,29302,1,0,0:0:0:0:
448,192,29628,128,0,30443:0:0:0:0:
320,192,29954,128,0,30443:0:0:0:0:
192,192,30280,1,0,0:0:0:0:
448,192,30606,128,0,31911:0:0:0:0:
320,192,30606,128,0,31259:0:0:0:0:
192,192,30933,128,0,31585:0:0:0:0:
64,192,31259,128,0,31585:0:0:0:0:
320,192,31585,128,0,31911:0:0:0:0:
64,192,31911,128,0,32889:0:0:0:0:
192,192,31911,1,0,0:0:0:0:
448,192,32237,128,0,32889:0:0:0:0:
192,192,32237,1,0,0:0:0:0:
192,192,32563,1,0,0:0:0:0:
320,192,32563,128,0,32889:0:0:0:0:
192,192,32889,1,0,0:0:0:0:
320,192,33215,128,0,33378:0:0:0:0:
448,192,33215,128,0,33378:0:0:0:0:
192,192,33541,128,0,33704:0:0:0:0:
320,192,33541,128,0,33704:0:0:0:0:
448,192,33867,128,0,34356:0:0:0:0:
192,192,33867,128,0,34356:0:0:0:0:
64,192,33867,128,0,34356:0:0:0:0:
448,192,34520,1,0,0:0:0:0:
64,192,34520,128,0,35009:0:0:0:0:
192,192,34520,128,0,35009:0:0:0:0:
320,192,34846,128,0,35335:0:0:0:0:
448,192,34927,128,0,35335:0:0:0:0:
192,192,35172,128,0,35335:0:0:0:0:
64,192,35172,128,0,35335:0:0:0:0:
320,192,35498,128,0,35661:0:0:0:0:
448,192,35498,128,0,35661:0:0:0:0:
448,192,35824,128,0,36313:0:0:0:0:
320,192,35824,128,0,36313:0:0:0:0:
192,192,36150,128,0,36639:0:0:0:0:
64,192,36231,128,0,36639:0:0:0:0:
320,192,36476,128,0,36639:0:0:0:0:
448,192,36476,128,0,36639:0:0:0:0:
320,192,36802,128,0,36965:0:0:0:0:
448,192,36802,128,0,36965:0:0:0:0:
64,192,37128,128,0,37617:0:0:0:0:
192,192,37128,128,0,37617:0:0:0:0:
320,192,37454,128,0,37943:0:0:0:0:
448,192,37536,128,0,37943:0:0:0:0:
192,192,37780,128,0,37943:0:0:0:0:
64,192,37780,128,0,37943:0:0:0:0:
448,192,38106,128,0,38270:0:0:0:0:
320,192,38106,128,0,38270:0:0:0:0:
448,192,38433,128,0,38922:0:0:0:0:
64,192,38433,128,0,38922:0:0:0:0:
192,192,38433,1,0,0:0:0:0:
320,192,38759,128,0,39085:0:0:0:0:
192,192,38922,128,0,39248:0:0:0:0:
64,192,39085,128,0,39574:0:0:0:0:
448,192,39085,1,0,0:0:0:0:
192,192,39411,128,0,39574:0:0:0:0:
64,192,39737,1,0,0:0:0:0:
320,192,39737,128,0,40226:0:0:0:0:
448,192,39737,128,0,40226:0:0:0:0:
192,192,40063,128,0,40552:0:0:0:0:
64,192,40145,128,0,40552:0:0:0:0:
448,192,40389,128,0,40552:0:0:0:0:
320,192,40389,128,0,40552:0:0:0:0:
64,192,40715,128,0,40878:0:0:0:0:
192,192,40715,128,0,40878:0:0:0:0:
192,192,41041,128,0,41530:0:0:0:0:
64,192,41041,128,0,41530:0:0:0:0:
320,192,41367,128,0,41856:0:0:0:0:
448,192,41449,128,0,41856:0:0:0:0:
64,192,41693,128,0,41856:0:0:0:0:
192,192,41693,128,0,41856:0:0:0:0:
64,192,42020,128,0,42183:0:0:0:0:
192,192,42020,128,0,42183:0:0:0:0:
320,192,42346,128,0,42835:0:0:0:0:
448,192,42346,128,0,42835:0:0:0:0:
192,192,42672,128,0,43161:0:0:0:0:
64,192,42753,128,0,43161:0:0:0:0:
448,192,42998,128,0,43161:0:0:0:0:
320,192,42998,128,0,43161:0:0:0:0:
192,192,43324,128,0,43487:0:0:0:0:
64,192,43324,128,0,43487:0:0:0:0:
320,192,43650,1,0,0:0:0:0:
448,192,43650,128,0,44139:0:0:0:0:
64,192,43650,128,0,44139:0:0:0:0:
192,192,43976,128,0,44302:0:0:0:0:
320,192,44139,128,0,44465:0:0:0:0:
64,192,44302,1,0,0:0:0:0:
448,192,44302,128,0,44791:0:0:0:0:
320,192,44628,128,0,44791:0:0:0:0:
448,192,44954,1,0,0:0:0:0:
192,192,44954,128,0,45443:0:0:0:0:
64,192,44954,128,0,45443:0:0:0:0:
320,192,45280,128,0,45443:0:0:0:0:
320,192,45606,128,0,45770:0:0:0:0:
448,192,45606,128,0,46096:0:0:0:0:
64,192,45606,1,0,0:0:0:0:
64,192,45933,128,0,46096:0:0:0:0:
192,192,45933,128,0,46096:0:0:0:0:
320,192,46259,128,0,46748:0:0:0:0:
448,192,46259,128,0,46748:0:0:0:0:
192,192,46585,128,0,46748:0:0:0:0:
64,192,46911,128,0,47400:0:0:0:0:
192,192,46911,128,0,47074:0:0:0:0:
448,192,46911,1,0,0:0:0:0:
320,192,47237,128,0,47400:0:0:0:0:
448,192,47237,128,0,47400:0:0:0:0:
64,192,47563,128,0,48052:0:0:0:0:
192,192,47563,128,0,48052:0:0:0:0:
448,192,47889,128,0,48052:0:0:0:0:
320,192,48215,1,0,0:0:0:0:
64,192,48215,128,0,48378:0:0:0:0:
448,192,48215,128,0,48378:0:0:0:0:
192,192,48541,1,0,0:0:0:0:
320,192,48541,1,0,0:0:0:0:
64,192,48867,128,0,49356:0:0:0:0:
448,192,48867,128,0,49356:0:0:0:0:
320,192,49193,128,0,49520:0:0:0:0:
192,192,49356,128,0,49683:0:0:0:0:
448,192,49520,128,0,50009:0:0:0:0:
64,192,49520,128,0,49683:0:0:0:0:
64,192,49846,128,0,50009:0:0:0:0:
192,192,49846,128,0,50009:0:0:0:0:
64,192,50172,1,0,0:0:0:0:
320,192,50172,128,0,50661:0:0:0:0:
448,192,50172,128,0,50661:0:0:0:0:
192,192,50498,128,0,50661:0:0:0:0:
192,192,50824,128,0,50987:0:0:0:0:
64,192,50824,128,0,51313:0:0:0:0:
448,192,50824,1,0,0:0:0:0:
448,192,51150,128,0,51313:0:0:0:0:
320,192,51150,128,0,51313:0:0:0:0:
192,192,51476,128,0,51965:0:0:0:0:
64,192,51476,128,0,51965:0:0:0:0:
320,192,51802,128,0,51965:0:0:0:0:
448,192,52128,128,0,52617:0:0:0:0:
320,192,52128,128,0,52291:0:0:0:0:
64,192,52128,1,0,0:0:0:0:
192,192,52454,128,0,52617:0:0:0:0:
64,192,52454,128,0,52617:0:0:0:0:
448,192,52780,128,0,53270:0:0:0:0:
320,192,52780,128,0,53270:0:0:0:0:
64,192,53106,128,0,53270:0:0:0:0:
192,192,53433,1,0,0:0:0:0:
448,192,53433,128,0,53596:0:0:0:0:
64,192,53433,128,0,53596:0:0:0:0:
448,192,53759,1,0,0:0:0:0:
64,192,53759,1,0,0:0:0:0:
192,192,53840,1,0,0:0:0:0:
320,192,53922,1,0,0:0:0:0:
448,192,54003,1,0,0:0:0:0:
64,192,54085,5,0,0:0:0:0:
192,192,54085,1,0,0:0:0:0:
320,192,54411,1,0,0:0:0:0:
448,192,54411,1,0,0:0:0:0:
64,192,54737,1,0,0:0:0:0:
192,192,54737,1,0,0:0:0:0:
320,192,55063,1,0,0:0:0:0:
448,192,55063,1,0,0:0:0:0:
64,192,55389,1,0,0:0:0:0:
448,192,55389,128,0,55878:0:0:0:0:
192,192,55715,128,0,55878:0:0:0:0:
320,192,56041,128,0,56367:0:0:0:0:
64,192,56041,1,0,0:0:0:0:
448,192,56367,1,0,0:0:0:0:
64,192,56693,128,0,57183:0:0:0:0:
192,192,56693,128,0,57020:0:0:0:0:
320,192,56856,128,0,57183:0:0:0:0:
448,192,57020,128,0,57672:0:0:0:0:
64,192,57346,128,0,57672:0:0:0:0:
192,192,57346,1,0,0:0:0:0:
320,192,57672,1,0,0:0:0:0:
64,192,57998,1,0,0:0:0:0:
192,192,57998,128,0,58487:0:0:0:0:
448,192,58324,128,0,58976:0:0:0:0:
64,192,58650,128,0,58976:0:0:0:0:
320,192,58650,1,0,0:0:0:0:
192,192,58976,1,0,0:0:0:0:
320,192,59302,1,0,0:0:0:0:
448,192,59302,128,0,59791:0:0:0:0:
192,192,59628,128,0,60117:0:0:0:0:
64,192,59791,128,0,60117:0:0:0:0:
448,192,59954,128,0,60443:0:0:0:0:
320,192,59954,1,0,0:0:0:0:
64,192,60280,128,0,60443:0:0:0:0:
192,192,60606,1,0,0:0:0:0:
320,192,60606,128,0,61096:0:0:0:0:
64,192,60933,128,0,61096:0:0:0:0:
192,192,61259,1,0,0:0:0:0:
448,192,61259,128,0,61911:0:0:0:0:
64,192,61422,128,0,61748:0:0:0:0:
320,192,61585,128,0,61911:0:0:0:0:
192,192,61911,128,0,62563:0:0:0:0:
64,192,61911,1,0,0:0:0:0:
448,192,62237,1,0,0:0:0:0:
320,192,62400,128,0,62563:0:0:0:0:
64,192,62563,128,0,63215:0:0:0:0:
448,192,62563,1,0,0:0:0:0:
320,192,62889,1,0,0:0:0:0:
192,192,63052,128,0,63215:0:0:0:0:
448,192,63215,1,0,0:0:0:0:
448,192,63378,128,0,64356:0:0:0:0:
64,192,63541,1,0,0:0:0:0:
64,192,63704,128,0,64356:0:0:0:0:
320,192,63867,128,0,64030:0:0:0:0:
320,192,64193,128,0,64356:0:0:0:0:
192,192,64520,1,0,0:0:0:0:
64,192,64520,128,0,65009:0:0:0:0:
320,192,64846,128,0,65335:0:0:0:0:
448,192,65009,128,0,65335:0:0:0:0:
64,192,65172,128,0,65661:0:0:0:0:
192,192,65172,1,0,0:0:0:0:
448,192,65498,128,0,65661:0:0:0:0:
64,192,65824,5,0,0:0:0:0:
448,192,65824,128,0,67128:0:0:0:0:
320,192,65824,1,0,0:0:0:0:
192,192,66150,128,0,66965:0:0:0:0:
64,192,66476,128,0,66965:0:0:0:0:
320,192,66802,1,0,0:0:0:0:
64,192,67128,128,0,68433:0:0:0:0:
192,192,67128,128,0,67780:0:0:0:0:
320,192,67454,128,0,68106:0:0:0:0:
448,192,67780,128,0,68106:0:0:0:0:
192,192,68106,128,0,68433:0:0:0:0:
320,192,68433,128,0,69737:0:0:0:0:
448,192,68433,1,0,0:0:0:0:
64,192,68759,128,0,69574:0:0:0:0:
192,192,69085,128,0,69574:0:0:0:0:
448,192,69411,1,0,0:0:0:0:
192,192,69737,128,0,71041:0:0:0:0:
64,192,69737,128,0,70389:0:0:0:0:
320,192,70063,128,0,70715:0:0:0:0:
448,192,70389,128,0,70715:0:0:0:0:
64,192,70715,128,0,71041:0:0:0:0:
448,192,71041,128,0,72346:0:0:0:0:
320,192,71041,1,0,0:0:0:0:
64,192,71367,128,0,72183:0:0:0:0:
192,192,71693,128,0,72183:0:0:0:0:
320,192,72020,1,0,0:0:0:0:
64,192,72346,128,0,73650:0:0:0:0:
192,192,72346,128,0,72998:0:0:0:0:
320,192,72672,128,0,73324:0:0:0:0:
448,192,72998,128,0,73324:0:0:0:0:
192,192,73324,128,0,73650:0:0:0:0:
448,192,73650,128,0,74628:0:0:0:0:
320,192,73650,1,0,0:0:0:0:
320,192,73976,1,0,0:0:0:0:
64,192,73976,128,0,74628:0:0:0:0:
320,192,74302,1,0,0:0:0:0:
192,192,74302,128,0,74628:0:0:0:0:
320,192,74628,1,0,0:0:0:0:
192,192,74954,128,0,75117:0:0:0:0:
64,192,74954,128,0,75117:0:0:0:0:
192,192,75280,128,0,75443:0:0:0:0:
320,192,75280,128,0,75443:0:0:0:0:
64,192,75606,128,0,76096:0:0:0:0:
320,192,75606,128,0,76096:0:0:0:0:
448,192,75606,128,0,76096:0:0:0:0:
64,192,76259,5,0,0:0:0:0:
448,192,76259,128,0,76748:0:0:0:0:
320,192,76259,128,0,76748:0:0:0:0:
192,192,76585,128,0,77074:0:0:0:0:
64,192,76666,128,0,76992:0:0:0:0:
320,192,76911,128,0,77074:0:0:0:0:
448,192,76911,128,0,77074:0:0:0:0:
192,192,77237,128,0,77400:0:0:0:0:
64,192,77237,128,0,77400:0:0:0:0:
64,192,77563,128,0,78052:0:0:0:0:
192,192,77563,128,0,78052:0:0:0:0:
320,192,77889,128,0,78378:0:0:0:0:
448,192,77971,128,0,78297:0:0:0:0:
192,192,78215,128,0,78378:0:0:0:0:
64,192,78215,128,0,78378:0:0:0:0:
192,192,78541,128,0,78704:0:0:0:0:
64,192,78541,128,0,78704:0:0:0:0:
448,192,78867,128,0,79356:0:0:0:0:
320,192,78867,128,0,79356:0:0:0:0:
192,192,79193,128,0,79683:0:0:0:0:
64,192,79275,128,0,79601:0:0:0:0:
320,192,79520,128,0,79683:0:0:0:0:
448,192,79520,128,0,79683:0:0:0:0:
64,192,79846,128,0,80009:0:0:0:0:
192,192,79846,128,0,80009:0:0:0:0:
64,192,80172,128,0,80661:0:0:0:0:
448,192,80172,128,0,80661:0:0:0:0:
320,192,80172,1,0,0:0:0:0:
192,192,80498,128,0,80987:0:0:0:0:
320,192,80661,128,0,80987:0:0:0:0:
448,192,80824,128,0,81313:0:0:0:0:
64,192,80824,1,0,0:0:0:0:
64,192,81150,128,0,81313:0:0:0:0:
320,192,81150,128,0,81313:0:0:0:0:
448,192,81476,1,0,0:0:0:0:
192,192,81476,128,0,81965:0:0:0:0:
64,192,81476,128,0,81965:0:0:0:0:
320,192,81802,128,0,82291:0:0:0:0:
448,192,81884,128,0,82210:0:0:0:0:
64,192,82128,128,0,82291:0:0:0:0:
192,192,82128,128,0,82291:0:0:0:0:
448,192,82454,128,0,82617:0:0:0:0:
320,192,82454,128,0,82617:0:0:0:0:
320,192,82780,128,0,83270:0:0:0:0:
448,192,82780,128,0,83270:0:0:0:0:
192,192,83106,128,0,83596:0:0:0:0:
64,192,83188,128,0,83514:0:0:0:0:
448,192,83433,128,0,83596:0:0:0:0:
320,192,83433,128,0,83596:0:0:0:0:
448,192,83759,128,0,83922:0:0:0:0:
320,192,83759,128,0,83922:0:0:0:0:
192,192,84085,128,0,84574:0:0:0:0:
64,192,84085,128,0,84574:0:0:0:0:
320,192,84411,128,0,84900:0:0:0:0:
448,192,84492,128,0,84818:0:0:0:0:
64,192,84737,128,0,84900:0:0:0:0:
192,192,84737,128,0,84900:0:0:0:0:
320,192,85063,128,0,85226:0:0:0:0:
448,192,85063,128,0,85226:0:0:0:0:
192,192,85389,1,0,0:0:0:0:
64,192,85389,128,0,85878:0:0:0:0:
448,192,85389,128,0,85878:0:0:0:0:
320,192,85715,128,0,86204:0:0:0:0:
192,192,85878,128,0,86204:0:0:0:0:
448,192,86041,1,0,0:0:0:0:
64,192,86041,128,0,86530:0:0:0:0:
192,192,86367,128,0,86530:0:0:0:0:
448,192,86367,128,0,86530:0:0:0:0:
64,192,86693,1,0,0:0:0:0:
448,192,86693,128,0,87183:0:0:0:0:
320,192,86693,128,0,86856:0:0:0:0:
64,192,86856,128,0,87183:0:0:0:0:
320,192,87020,128,0,87183:0:0:0:0:
448,192,87346,128,0,87509:0:0:0:0:
64,192,87346,128,0,87835:0:0:0:0:
192,192,87346,1,0,0:0:0:0:
448,192,87672,128,0,87835:0:0:0:0:
320,192,87672,128,0,87835:0:0:0:0:
64,192,87998,128,0,88487:0:0:0:0:
192,192,87998,128,0,88487:0:0:0:0:
320,192,88324,128,0,88487:0:0:0:0:
448,192,88650,128,0,89139:0:0:0:0:
64,192,88650,128,0,88813:0:0:0:0:
320,192,88650,1,0,0:0:0:0:
192,192,88976,128,0,89139:0:0:0:0:
64,192,88976,128,0,89139:0:0:0:0:
448,192,89302,128,0,89791:0:0:0:0:
320,192,89302,128,0,89791:0:0:0:0:
64,192,89628,128,0,89791:0:0:0:0:
192,192,89954,1,0,0:0:0:0:
448,192,89954,128,0,90117:0:0:0:0:
64,192,89954,128,0,90117:0:0:0:0:
320,192,90280,1,0,0:0:0:0:
192,192,90280,1,0,0:0:0:0:
448,192,90606,128,0,91096:0:0:0:0:
64,192,90606,128,0,91096:0:0:0:0:
192,192,90933,128,0,91259:0:0:0:0:
320,192,91096,128,0,91422:0:0:0:0:
64,192,91259,128,0,91748:0:0:0:0:
448,192,91259,128,0,91422:0:0:0:0:
448,192,91585,128,0,91748:0:0:0:0:
320,192,91585,128,0,91748:0:0:0:0:
448,192,91911,1,0,0:0:0:0:
192,192,91911,128,0,92400:0:0:0:0:
64,192,91911,128,0,92400:0:0:0:0:
320,192,92237,128,0,92400:0:0:0:0:
64,192,92563,128,0,92726:0:0:0:0:
448,192,92563,128,0,93052:0:0:0:0:
320,192,92563,1,0,0:0:0:0:
64,192,92889,128,0,93052:0:0:0:0:
192,192,92889,128,0,93052:0:0:0:0:
320,192,93215,128,0,93704:0:0:0:0:
448,192,93215,128,0,93704:0:0:0:0:
192,192,93541,128,0,93704:0:0:0:0:
64,192,93867,128,0,94356:0:0:0:0:
448,192,93867,128,0,94030:0:0:0:0:
192,192,93867,1,0,0:0:0:0:
320,192,94193,128,0,94356:0:0:0:0:
448,192,94193,128,0,94356:0:0:0:0:
64,192,94520,128,0,95009:0:0:0:0:
192,192,94520,128,0,95009:0:0:0:0:
448,192,94846,128,0,95009:0:0:0:0:
320,192,95172,1,0,0:0:0:0:
64,192,95172,128,0,95335:0:0:0:0:
448,192,95172,128,0,95335:0:0:0:0:
64,192,95498,1,0,0:0:0:0:
448,192,95498,1,0,0:0:0:0:
320,192,95579,1,0,0:0:0:0:
192,192,95661,1,0,0:0:0:0:
64,192,95742,1,0,0:0:0:0:
448,192,95824,1,0,0:0:0:0:
320,192,95824,1,0,0:0:0:0:
64,192,96150,1,0,0:0:0:0:
192,192,96150,1,0,0:0:0:0:
320,192,96476,1,0,0:0:0:0:
448,192,96476,1,0,0:0:0:0:
64,192,96802,1,0,0:0:0:0:
192,192,96802,1,0,0:0:0:0:
64,192,97128,1,0,0:0:0:0:
448,192,97128,128,0,97617:0:0:0:0:
320,192,97128,1,0,0:0:0:0:
192,192,97454,128,0,97617:0:0:0:0:
320,192,97780,1,0,0:0:0:0:
448,192,97780,1,0,0:0:0:0:
64,192,97780,1,0,0:0:0:0:
192,192,98106,128,0,98270:0:0:0:0:
64,192,98433,128,0,98922:0:0:0:0:
448,192,98433,1,0,0:0:0:0:
320,192,98759,128,0,98922:0:0:0:0:
64,192,99085,1,0,0:0:0:0:
448,192,99085,1,0,0:0:0:0:
192,192,99085,1,0,0:0:0:0:
320,192,99411,128,0,99574:0:0:0:0:
64,192,99737,1,0,0:0:0:0:
192,192,99737,128,0,100226:0:0:0:0:
448,192,100063,128,0,100226:0:0:0:0:
64,192,100389,1,0,0:0:0:0:
192,192,100389,1,0,0:0:0:0:
320,192,100389,1,0,0:0:0:0:
448,192,100715,128,0,100878:0:0:0:0:
320,192,101041,128,0,101530:0:0:0:0:
192,192,101041,1,0,0:0:0:0:
64,192,101367,128,0,101530:0:0:0:0:
192,192,101693,128,0,102183:0:0:0:0:
64,192,101693,1,0,0:0:0:0:
320,192,101693,1,0,0:0:0:0:
448,192,102020,128,0,102183:0:0:0:0:
64,192,102346,128,0,102835:0:0:0:0:
192,192,102346,1,0,0:0:0:0:
448,192,102346,1,0,0:0:0:0:
320,192,102672,128,0,102835:0:0:0:0:
64,192,102998,1,0,0:0:0:0:
192,192,102998,1,0,0:0:0:0:
448,192,102998,1,0,0:0:0:0:
320,192,103324,128,0,103487:0:0:0:0:
64,192,103650,1,0,0:0:0:0:
448,192,103650,128,0,104139:0:0:0:0:
192,192,103976,128,0,104139:0:0:0:0:
64,192,104302,1,0,0:0:0:0:
320,192,104302,1,0,0:0:0:0:
448,192,104302,1,0,0:0:0:0:
192,192,104628,128,0,104791:0:0:0:0:
320,192,104954,128,0,106096:0:0:0:0:
448,192,104954,128,0,106096:0:0:0:0:
64,192,104954,1,0,0:0:0:0:
192,192,105280,128,0,106096:0:0:0:0:
64,192,105606,128,0,106096:0:0:0:0:
64,192,106259,128,0,106422:0:0:0:0:
448,192,106422,128,0,106585:0:0:0:0:
64,192,106585,128,0,106748:0:0:0:0:
448,192,106748,128,0,106911:0:0:0:0:
64,192,106911,128,0,107400:0:0:0:0:
192,192,106911,128,0,107400:0:0:0:0:
320,192,106911,1,0,0:0:0:0:
320,192,107237,128,0,107400:0:0:0:0:
448,192,107237,128,0,107400:0:0:0:0:
448,192,107563,1,0,0:0:0:0:
64,192,107563,128,0,108052:0:0:0:0:
192,192,107563,128,0,107889:0:0:0:0:
320,192,107889,128,0,108215:0:0:0:0:
448,192,107889,128,0,108052:0:0:0:0:
192,192,108052,128,0,108378:0:0:0:0:
448,192,108215,128,0,108378:0:0:0:0:
64,192,108215,128,0,108378:0:0:0:0:
64,192,108541,128,0,108867:0:0:0:0:
192,192,108541,128,0,108704:0:0:0:0:
448,192,108867,128,0,109356:0:0:0:0:
320,192,108867,128,0,109193:0:0:0:0:
192,192,109193,128,0,109520:0:0:0:0:
64,192,109193,128,0,109356:0:0:0:0:
320,192,109356,128,0,109683:0:0:0:0:
448,192,109520,128,0,109683:0:0:0:0:
64,192,109520,128,0,109683:0:0:0:0:
320,192,109846,128,0,110009:0:0:0:0:
448,192,109846,128,0,110172:0:0:0:0:
64,192,110172,128,0,110661:0:0:0:0:
192,192,110172,128,0,110498:0:0:0:0:
320,192,110498,128,0,110824:0:0:0:0:
448,192,110498,128,0,110661:0:0:0:0:
192,192,110661,128,0,110987:0:0:0:0:
64,192,110824,128,0,110987:0:0:0:0:
448,192,110824,128,0,110987:0:0:0:0:
192,192,111150,128,0,111313:0:0:0:0:
64,192,111150,128,0,111476:0:0:0:0:
448,192,111476,128,0,111802:0:0:0:0:
320,192,111476,128,0,111802:0:0:0:0:
64,192,111802,128,0,112291:0:0:0:0:
448,192,111965,128,0,112617:0:0:0:0:
320,192,112128,128,0,112617:0:0:0:0:
192,192,112128,1,0,0:0:0:0:
64,192,112454,128,0,112617:0:0:0:0:
192,192,112454,128,0,112617:0:0:0:0:
64,192,112780,1,0,0:0:0:0:
448,192,112780,128,0,113270:0:0:0:0:
320,192,112780,128,0,113106:0:0:0:0:
192,192,113106,128,0,113433:0:0:0:0:
64,192,113106,128,0,113270:0:0:0:0:
320,192,113270,128,0,113596:0:0:0:0:
64,192,113433,128,0,113596:0:0:0:0:
448,192,113433,128,0,113596:0:0:0:0:
448,192,113759,128,0,114085:0:0:0:0:
320,192,113759,128,0,113922:0:0:0:0:
64,192,114085,128,0,114574:0:0:0:0:
192,192,114085,128,0,114411:0:0:0:0:
320,192,114411,128,0,114737:0:0:0:0:
448,192,114411,128,0,114574:0:0:0:0:
192,192,114574,128,0,114900:0:0:0:0:
64,192,114737,128,0,114900:0:0:0:0:
448,192,114737,128,0,114900:0:0:0:0:
192,192,115063,128,0,115226:0:0:0:0:
64,192,115063,128,0,115389:0:0:0:0:
448,192,115389,128,0,115878:0:0:0:0:
320,192,115389,128,0,115715:0:0:0:0:
192,192,115715,128,0,116041:0:0:0:0:
64,192,115715,128,0,115878:0:0:0:0:
320,192,115878,128,0,116204:0:0:0:0:
448,192,116041,128,0,116204:0:0:0:0:
64,192,116041,128,0,116204:0:0:0:0:
320,192,116367,128,0,116530:0:0:0:0:
448,192,116367,128,0,116693:0:0:0:0:
64,192,116693,128,0,117020:0:0:0:0:
192,192,116693,128,0,117020:0:0:0:0:
448,192,117020,128,0,117509:0:0:0:0:
64,192,117183,128,0,117835:0:0:0:0:
192,192,117346,128,0,117835:0:0:0:0:
320,192,117346,1,0,0:0:0:0:
448,192,117672,128,0,117835:0:0:0:0:
320,192,117672,128,0,117835:0:0:0:0:
448,192,117998,128,0,118161:0:0:0:0:
192,192,117998,128,0,118487:0:0:0:0:
64,192,117998,1,0,0:0:0:0:
64,192,118161,128,0,118487:0:0:0:0:
448,192,118324,128,0,118650:0:0:0:0:
64,192,118650,128,0,118813:0:0:0:0:
192,192,118650,128,0,118813:0:0:0:0:
320,192,118650,128,0,119139:0:0:0:0:
192,192,118976,128,0,119302:0:0:0:0:
64,192,118976,128,0,119302:0:0:0:0:
320,192,119302,128,0,119628:0:0:0:0:
448,192,119302,128,0,119791:0:0:0:0:
64,192,119628,128,0,119954:0:0:0:0:
320,192,119954,128,0,120117:0:0:0:0:
448,192,119954,128,0,120117:0:0:0:0:
192,192,119954,128,0,120443:0:0:0:0:
320,192,120280,128,0,120606:0:0:0:0:
448,192,120280,128,0,120606:0:0:0:0:
192,192,120606,128,0,120933:0:0:0:0:
64,192,120606,128,0,121096:0:0:0:0:
448,192,120933,128,0,121259:0:0:0:0:
320,192,121259,1,0,0:0:0:0:
64,192,121259,128,0,121585:0:0:0:0:
192,192,121259,128,0,121585:0:0:0:0:
320,192,121585,1,0,0:0:0:0:
448,192,121911,128,0,122400:0:0:0:0:
64,192,121911,128,0,122400:0:0:0:0:
192,192,122237,128,0,122726:0:0:0:0:
320,192,122400,128,0,123052:0:0:0:0:
448,192,122563,128,0,123052:0:0:0:0:
64,192,122563,128,0,122726:0:0:0:0:
192,192,122889,128,0,123052:0:0:0:0:
64,192,122889,128,0,123052:0:0:0:0:
64,192,123215,1,0,0:0:0:0:
320,192,123215,128,0,123704:0:0:0:0:
448,192,123215,128,0,123541:0:0:0:0:
192,192,123541,128,0,123867:0:0:0:0:
64,192,123867,128,0,124356:0:0:0:0:
320,192,123867,128,0,124030:0:0:0:0:
448,192,123867,128,0,124030:0:0:0:0:
320,192,124193,128,0,124520:0:0:0:0:
448,192,124193,128,0,124520:0:0:0:0:
192,192,124520,128,0,125009:0:0:0:0:
64,192,124520,128,0,124846:0:0:0:0:
320,192,124846,128,0,125172:0:0:0:0:
64,192,125172,128,0,125335:0:0:0:0:
192,192,125172,128,0,125335:0:0:0:0:
448,192,125172,128,0,125661:0:0:0:0:
64,192,125498,128,0,125824:0:0:0:0:
192,192,125498,128,0,125824:0:0:0:0:
448,192,125824,128,0,126313:0:0:0:0:
320,192,125824,128,0,126150:0:0:0:0:
64,192,126150,128,0,126639:0:0:0:0:
192,192,126476,128,0,126639:0:0:0:0:
448,192,126476,128,0,126639:0:0:0:0:
320,192,126476,128,0,126639:0:0:0:0:
64,192,126802,1,0,0:0:0:0:
192,192,126884,1,0,0:0:0:0:
320,192,126965,1,0,0:0:0:0:
448,192,127047,1,0,0:0:0:0:
64,192,127128,5,0,0:0:0:0:
192,192,127128,1,0,0:0:0:0:
320,192,127454,1,0,0:0:0:0:
448,192,127454,1,0,0:0:0:0:
192,192,127780,1,0,0:0:0:0:
64,192,127780,1,0,0:0:0:0:
320,192,128106,1,0,0:0:0:0:
448,192,128106,1,0,0:0:0:0:
192,192,128433,1,0,0:0:0:0:
64,192,128433,128,0,128922:0:0:0:0:
64,192,129085,128,0,129737:0:0:0:0:
448,192,129737,128,0,129900:0:0:0:0:
448,192,130063,128,0,130226:0:0:0:0:
192,192,130226,128,0,130552:0:0:0:0:
320,192,130389,128,0,131041:0:0:0:0:
192,192,130715,128,0,131041:0:0:0:0:
