osu file format v14

[General]
AudioFilename: audio.mp3
AudioLeadIn: 0
PreviewTime: 50795
Countdown: 0
SampleSet: Normal
StackLeniency: 0.7
Mode: 1
LetterboxInBreaks: 0
WidescreenStoryboard: 0

[Editor]
DistanceSpacing: 0.1
BeatDivisor: 4
GridSize: 16
TimelineZoom: 1.8

[Metadata]
Title:100sec Cat Dream
TitleUnicode:100sec Cat Dream
Artist:Ayatsugu_Revolved
ArtistUnicode:Ayatsugu_Revolved
Creator:yuzu__rinrin
Version:Oni
Source:Cytus II
Tags:
BeatmapID:2326487
BeatmapSetID:818876

[Difficulty]
HPDrainRate:6
CircleSize:2
OverallDifficulty:5
ApproachRate:10
SliderMultiplier:1.4
SliderTickRate:1

[Events]
//Background and Video events
0,0,"100sec.jpg",0,0
//Break Periods
//Storyboard Layer 0 (Background)
//Storyboard Layer 1 (Fail)
//Storyboard Layer 2 (Pass)
//Storyboard Layer 3 (Foreground)
//Storyboard Layer 4 (Overlay)
//Storyboard Sound Samples

[TimingPoints]
795,338.983050847458,4,1,0,50,1,0
795,-111.111111111111,4,1,0,50,0,0
5201,-105.263157894737,4,1,0,70,0,0
5879,-100,4,1,0,80,0,0
64523,-100,4,1,0,100,0,1
87574,-100,4,1,0,50,0,0
88252,-102.040816326531,4,1,0,50,0,0
88930,-104.166666666667,4,1,0,50,0,0
89608,-106.382978723404,4,1,0,50,0,0
90964,-108.695652173913,4,1,0,50,0,0
91642,-111.111111111111,4,1,0,50,0,0
92320,-113.636363636364,4,1,0,50,0,0
93676,-116.279069767442,4,1,0,50,0,0
94354,-119.047619047619,4,1,0,50,0,0
95032,-121.951219512195,4,1,0,50,0,0
96388,-125,4,1,0,50,0,0
97066,-128.205128205128,4,1,0,50,0,0
97744,-131.578947368421,4,1,0,50,0,0

[HitObjects]
256,192,1388,5,0,0:0:0:0:
256,192,1472,1,8,0:0:0:0:
256,192,1557,1,8,0:0:0:0:
256,192,1727,1,8,0:0:0:0:
262,192,1896,1,8,0:0:0:0:
265,190,1981,1,8,0:0:0:0:
256,192,2150,1,0,0:0:0:0:
256,192,2489,1,8,0:0:0:0:
256,192,3167,1,8,0:0:0:0:
256,192,3506,1,8,0:0:0:0:
256,192,3676,1,0,0:0:0:0:
256,192,4015,1,8,0:0:0:0:
256,192,4354,1,8,0:0:0:0:
256,192,4523,1,0,0:0:0:0:
256,192,4693,1,0,0:0:0:0:
256,192,4778,1,0,0:0:0:0:
256,192,4862,1,8,0:0:0:0:
256,192,5201,1,0,0:0:0:0:
256,192,5371,1,8,0:0:0:0:
256,192,5456,1,0,0:0:0:0:
256,192,5540,1,8,0:0:0:0:
256,192,5879,1,0,0:0:0:0:
256,192,6049,1,0,0:0:0:0:
256,192,6133,1,0,0:0:0:0:
256,192,6218,1,8,0:0:0:0:
256,192,6388,1,8,0:0:0:0:
256,192,6472,1,0,0:0:0:0:
256,192,6557,1,8,0:0:0:0:
256,192,6727,1,8,0:0:0:0:
256,192,6811,1,8,0:0:0:0:
256,192,6896,1,0,0:0:0:0:
256,192,6981,1,8,0:0:0:0:
256,192,7066,1,0,0:0:0:0:
256,192,7235,1,12,0:0:0:0:
256,192,7574,1,4,0:0:0:0:
256,192,7913,1,8,0:0:0:0:
256,192,8083,1,8,0:0:0:0:
256,192,8252,1,0,0:0:0:0:
256,192,8422,1,8,0:0:0:0:
256,192,8506,1,0,0:0:0:0:
256,192,8591,1,0,0:0:0:0:
256,192,8761,1,8,0:0:0:0:
256,192,8930,1,0,0:0:0:0:
256,192,9269,1,0,0:0:0:0:
256,192,9439,1,8,0:0:0:0:
256,192,9523,1,8,0:0:0:0:
256,192,9608,1,0,0:0:0:0:
256,192,9778,1,0,0:0:0:0:
256,192,9947,1,8,0:0:0:0:
256,192,10032,1,8,0:0:0:0:
256,192,10117,1,8,0:0:0:0:
256,192,10286,1,0,0:0:0:0:
256,192,10625,1,0,0:0:0:0:
256,192,10710,1,8,0:0:0:0:
256,192,10795,1,8,0:0:0:0:
256,192,10964,1,0,0:0:0:0:
256,192,11303,1,0,0:0:0:0:
256,192,11388,1,0,0:0:0:0:
256,192,11472,1,8,0:0:0:0:
256,192,11642,1,0,0:0:0:0:
256,192,11811,1,8,0:0:0:0:
256,192,11896,1,8,0:0:0:0:
256,192,11981,1,0,0:0:0:0:
256,192,12066,1,0,0:0:0:0:
256,192,12150,1,8,0:0:0:0:
256,192,12320,1,8,0:0:0:0:
256,192,12489,1,8,0:0:0:0:
256,192,12574,1,0,0:0:0:0:
256,192,12659,1,8,0:0:0:0:
256,192,12828,1,8,0:0:0:0:
256,192,12998,1,0,0:0:0:0:
256,192,13337,1,8,0:0:0:0:
256,192,13506,1,8,0:0:0:0:
256,192,13676,1,0,0:0:0:0:
256,192,13761,1,8,0:0:0:0:
256,192,13845,1,0,0:0:0:0:
256,192,14015,1,0,0:0:0:0:
256,192,14184,1,8,0:0:0:0:
256,192,14269,1,8,0:0:0:0:
256,192,14354,1,0,0:0:0:0:
256,192,14523,1,0,0:0:0:0:
256,192,14693,1,8,0:0:0:0:
256,192,14862,1,0,0:0:0:0:
256,192,14947,1,8,0:0:0:0:
256,192,15032,1,0,0:0:0:0:
256,192,15371,1,0,0:0:0:0:
256,192,15456,1,8,0:0:0:0:
256,192,15540,1,8,0:0:0:0:
256,192,15710,1,8,0:0:0:0:
256,192,15795,1,8,0:0:0:0:
256,192,15879,1,0,0:0:0:0:
256,192,16049,1,8,0:0:0:0:
256,192,16133,1,8,0:0:0:0:
256,192,16218,1,0,0:0:0:0:
256,192,16388,1,8,0:0:0:0:
256,192,16472,1,0,0:0:0:0:
259,190,16557,1,0,0:0:0:0:
256,192,16727,1,8,0:0:0:0:
256,192,16811,1,8,0:0:0:0:
256,192,16896,1,0,0:0:0:0:
256,192,17066,1,12,0:0:0:0:
256,192,17235,1,12,0:0:0:0:
256,192,17574,1,12,0:0:0:0:
256,192,17744,1,0,0:0:0:0:
256,192,17913,1,0,0:0:0:0:
256,192,17998,1,0,0:0:0:0:
256,192,18083,1,8,0:0:0:0:
256,192,18252,1,0,0:0:0:0:
256,192,18422,1,4,0:0:0:0:
256,192,18761,1,8,0:0:0:0:
256,192,18930,1,8,0:0:0:0:
256,192,19269,1,8,0:0:0:0:
272,192,19608,1,8,0:0:0:0:
272,192,19778,1,0,0:0:0:0:
272,192,19947,1,0,0:0:0:0:
256,192,20286,1,0,0:0:0:0:
272,192,20456,1,8,0:0:0:0:
272,192,20625,1,8,0:0:0:0:
272,192,20795,1,8,0:0:0:0:
272,192,20964,1,0,0:0:0:0:
272,192,21133,1,8,0:0:0:0:
272,192,21472,1,0,0:0:0:0:
272,192,21642,1,8,0:0:0:0:
272,192,21981,1,8,0:0:0:0:
272,192,22320,1,8,0:0:0:0:
272,192,22489,1,4,0:0:0:0:
272,192,22659,1,4,0:0:0:0:
272,192,22828,1,12,0:0:0:0:
272,192,22998,1,4,0:0:0:0:
272,192,23337,1,8,0:0:0:0:
272,192,23676,1,8,0:0:0:0:
272,192,23845,1,4,0:0:0:0:
272,192,24015,1,0,0:0:0:0:
272,192,24184,1,8,0:0:0:0:
272,192,24354,1,8,0:0:0:0:
272,192,24523,1,4,0:0:0:0:
272,192,24862,1,8,0:0:0:0:
272,192,25032,1,8,0:0:0:0:
272,192,25201,1,4,0:0:0:0:
272,192,25371,1,0,0:0:0:0:
272,192,25456,1,0,0:0:0:0:
272,192,25540,1,8,0:0:0:0:
272,192,25710,1,0,0:0:0:0:
272,192,25795,1,0,0:0:0:0:
272,192,25879,1,8,0:0:0:0:
272,192,26049,1,8,0:0:0:0:
272,192,26133,1,8,0:0:0:0:
272,192,26218,1,0,0:0:0:0:
272,192,26388,1,8,0:0:0:0:
272,192,26557,1,0,0:0:0:0:
272,192,26896,1,8,0:0:0:0:
272,192,27066,1,0,0:0:0:0:
272,192,27235,1,8,0:0:0:0:
272,192,27405,1,8,0:0:0:0:
272,192,27489,1,8,0:0:0:0:
272,192,27574,1,0,0:0:0:0:
272,192,27744,1,8,0:0:0:0:
272,192,27913,1,4,0:0:0:0:
272,192,28083,1,4,0:0:0:0:
272,192,28252,1,12,0:0:0:0:
272,192,28422,1,4,0:0:0:0:
272,192,28761,1,8,0:0:0:0:
272,192,28845,1,8,0:0:0:0:
272,192,28930,1,0,0:0:0:0:
256,192,29100,1,8,0:0:0:0:
256,192,29269,1,4,0:0:0:0:
256,192,29608,1,8,0:0:0:0:
256,192,29777,1,8,0:0:0:0:
256,192,30116,1,8,0:0:0:0:
272,192,30455,1,8,0:0:0:0:
256,192,30795,1,8,0:0:0:0:
256,192,30964,1,0,0:0:0:0:
256,192,31133,1,0,0:0:0:0:
272,192,31218,1,0,0:0:0:0:
272,192,31303,1,8,0:0:0:0:
272,192,31472,1,8,0:0:0:0:
272,192,31642,1,0,0:0:0:0:
272,192,31811,1,8,0:0:0:0:
272,192,31981,1,8,0:0:0:0:
256,192,32150,1,8,0:0:0:0:
272,192,32235,1,0,0:0:0:0:
272,192,32320,1,8,0:0:0:0:
272,192,32489,1,8,0:0:0:0:
272,192,32659,1,0,0:0:0:0:
272,192,32744,1,0,0:0:0:0:
272,192,32828,1,8,0:0:0:0:
272,192,33167,1,12,0:0:0:0:
272,192,33506,1,4,0:0:0:0:
272,192,33676,1,8,0:0:0:0:
272,192,33845,1,4,0:0:0:0:
272,192,34015,1,0,0:0:0:0:
272,192,34184,1,4,0:0:0:0:
272,192,34354,1,0,0:0:0:0:
272,192,34439,1,0,0:0:0:0:
272,192,34523,1,8,0:0:0:0:
272,192,34692,1,0,0:0:0:0:
272,192,35031,1,8,0:0:0:0:
272,192,35201,1,8,0:0:0:0:
272,192,35370,1,0,0:0:0:0:
272,192,35540,1,8,0:0:0:0:
272,192,35625,1,0,0:0:0:0:
272,192,35709,1,0,0:0:0:0:
272,192,35879,1,8,0:0:0:0:
272,192,36048,1,4,0:0:0:0:
272,192,36387,1,8,0:0:0:0:
272,192,36557,1,0,0:0:0:0:
272,192,36726,1,8,0:0:0:0:
272,192,36896,1,8,0:0:0:0:
272,192,36981,1,8,0:0:0:0:
272,192,37065,1,0,0:0:0:0:
272,192,37235,1,8,0:0:0:0:
272,192,37404,1,0,0:0:0:0:
272,192,37574,1,0,0:0:0:0:
272,192,37743,1,0,0:0:0:0:
272,192,37913,1,12,0:0:0:0:
272,192,38252,1,12,0:0:0:0:
272,192,38422,1,0,0:0:0:0:
272,192,38591,1,12,0:0:0:0:
272,192,38761,1,0,0:0:0:0:
272,192,38845,1,0,0:0:0:0:
272,192,38930,1,8,0:0:0:0:
272,192,39100,1,0,0:0:0:0:
272,192,39184,1,0,0:0:0:0:
272,192,39269,1,8,0:0:0:0:
272,192,39354,1,8,0:0:0:0:
272,192,39439,1,0,0:0:0:0:
272,192,39608,1,8,0:0:0:0:
272,192,39778,1,8,0:0:0:0:
272,192,39862,1,8,0:0:0:0:
272,192,39947,1,0,0:0:0:0:
272,192,40117,1,4,0:0:0:0:
256,192,40455,1,8,0:0:0:0:
256,192,40624,1,8,0:0:0:0:
256,192,40963,1,8,0:0:0:0:
272,192,41302,1,8,0:0:0:0:
256,192,41642,1,8,0:0:0:0:
256,192,41811,1,0,0:0:0:0:
256,192,41980,1,0,0:0:0:0:
256,192,42066,1,0,0:0:0:0:
272,192,42150,1,8,0:0:0:0:
272,192,42319,1,8,0:0:0:0:
272,192,42489,1,0,0:0:0:0:
272,192,42658,1,8,0:0:0:0:
272,192,42828,1,8,0:0:0:0:
256,192,42997,1,8,0:0:0:0:
272,192,43082,1,0,0:0:0:0:
272,192,43167,1,8,0:0:0:0:
272,192,43336,1,8,0:0:0:0:
272,192,43506,1,0,0:0:0:0:
272,192,43591,1,0,0:0:0:0:
272,192,43675,1,8,0:0:0:0:
272,192,44014,1,12,0:0:0:0:
272,192,44353,1,8,0:0:0:0:
272,192,44523,1,8,0:0:0:0:
272,192,44608,1,8,0:0:0:0:
272,192,44692,1,0,0:0:0:0:
272,192,44862,1,0,0:0:0:0:
272,192,45031,1,4,0:0:0:0:
272,192,45201,1,0,0:0:0:0:
272,192,45286,1,0,0:0:0:0:
272,192,45370,1,8,0:0:0:0:
272,192,45539,1,0,0:0:0:0:
272,192,45878,1,8,0:0:0:0:
272,192,46048,1,8,0:0:0:0:
272,192,46217,1,0,0:0:0:0:
272,192,46303,1,8,0:0:0:0:
272,192,46472,1,8,0:0:0:0:
272,192,46556,1,0,0:0:0:0:
272,192,46727,1,8,0:0:0:0:
272,192,46896,1,4,0:0:0:0:
272,192,47150,1,12,0:0:0:0:
272,192,47405,1,4,0:0:0:0:
272,192,47743,1,8,0:0:0:0:
272,192,47828,1,8,0:0:0:0:
272,192,47912,1,0,0:0:0:0:
272,192,48082,1,8,0:0:0:0:
272,192,48251,1,0,0:0:0:0:
272,192,48421,1,0,0:0:0:0:
272,192,48506,1,0,0:0:0:0:
272,192,48591,1,8,0:0:0:0:
272,192,48761,1,0,0:0:0:0:
272,192,48930,1,8,0:0:0:0:
272,192,49015,1,0,0:0:0:0:
272,192,49100,1,8,0:0:0:0:
272,192,49184,1,8,0:0:0:0:
272,192,49269,1,0,0:0:0:0:
272,192,49438,1,8,0:0:0:0:
272,192,49608,1,4,0:0:0:0:
272,192,49778,1,12,0:0:0:0:
272,192,49947,1,12,0:0:0:0:
272,192,50117,1,4,0:0:0:0:
272,192,50286,1,12,0:0:0:0:
272,192,50964,1,4,0:0:0:0:
272,192,51133,1,0,0:0:0:0:
272,192,51218,1,8,0:0:0:0:
272,192,51303,1,0,0:0:0:0:
272,192,51472,1,0,0:0:0:0:
272,192,51642,1,8,0:0:0:0:
272,192,51727,1,8,0:0:0:0:
272,192,51812,1,0,0:0:0:0:
272,192,52150,1,0,0:0:0:0:
272,192,52235,1,0,0:0:0:0:
272,192,52320,1,8,0:0:0:0:
272,192,52489,1,8,0:0:0:0:
272,192,52659,1,8,0:0:0:0:
272,192,52744,1,8,0:0:0:0:
272,192,52828,1,0,0:0:0:0:
272,192,52998,1,8,0:0:0:0:
272,192,53167,1,0,0:0:0:0:
272,192,53337,1,12,0:0:0:0:
272,192,53676,1,0,0:0:0:0:
272,192,53845,1,0,0:0:0:0:
272,192,53930,1,8,0:0:0:0:
272,192,54015,1,0,0:0:0:0:
272,192,54184,1,0,0:0:0:0:
272,192,54354,1,8,0:0:0:0:
272,192,54439,1,8,0:0:0:0:
272,192,54524,1,0,0:0:0:0:
272,192,54862,1,8,0:0:0:0:
272,192,55032,1,0,0:0:0:0:
272,192,55117,1,0,0:0:0:0:
272,192,55201,1,8,0:0:0:0:
272,192,55371,1,8,0:0:0:0:
272,192,55540,1,8,0:0:0:0:
272,192,55710,1,8,0:0:0:0:
272,192,55795,1,8,0:0:0:0:
272,192,55879,1,0,0:0:0:0:
272,192,56049,1,0,0:0:0:0:
272,192,56388,1,4,0:0:0:0:
272,192,56557,1,0,0:0:0:0:
272,192,56642,1,8,0:0:0:0:
272,192,56727,1,0,0:0:0:0:
272,192,56896,1,0,0:0:0:0:
272,192,57066,1,8,0:0:0:0:
272,192,57151,1,8,0:0:0:0:
272,192,57236,1,0,0:0:0:0:
272,192,57574,1,0,0:0:0:0:
272,192,57659,1,0,0:0:0:0:
272,192,57744,1,8,0:0:0:0:
272,192,57913,1,8,0:0:0:0:
272,192,58083,1,8,0:0:0:0:
272,192,58168,1,8,0:0:0:0:
272,192,58252,1,8,0:0:0:0:
272,192,58422,1,8,0:0:0:0:
272,192,58761,1,12,0:0:0:0:
272,192,58930,1,8,0:0:0:0:
272,192,59015,1,8,0:0:0:0:
272,192,59100,1,8,0:0:0:0:
272,192,59269,1,0,0:0:0:0:
272,192,59354,1,0,0:0:0:0:
272,192,59439,1,8,0:0:0:0:
272,192,59608,1,0,0:0:0:0:
272,192,59693,1,0,0:0:0:0:
272,192,59778,1,8,0:0:0:0:
272,192,59947,1,0,0:0:0:0:
272,192,60032,1,0,0:0:0:0:
272,192,60117,1,8,0:0:0:0:
272,192,60286,1,0,0:0:0:0:
272,192,60371,1,0,0:0:0:0:
272,192,60456,1,8,0:0:0:0:
272,192,60625,1,0,0:0:0:0:
272,192,60710,1,8,0:0:0:0:
272,192,60795,1,8,0:0:0:0:
272,192,60964,1,0,0:0:0:0:
272,192,61049,1,0,0:0:0:0:
272,192,61133,1,8,0:0:0:0:
272,192,61303,1,8,0:0:0:0:
272,192,61388,1,0,0:0:0:0:
272,192,61472,1,0,0:0:0:0:
272,192,61642,1,8,0:0:0:0:
272,192,61811,1,0,0:0:0:0:
256,192,62150,1,0,0:0:0:0:
272,192,62320,1,8,0:0:0:0:
272,192,62489,1,8,0:0:0:0:
272,192,62574,1,8,0:0:0:0:
272,192,62659,1,0,0:0:0:0:
272,192,62744,1,0,0:0:0:0:
272,192,62828,1,8,0:0:0:0:
272,192,62998,1,8,0:0:0:0:
272,192,63167,1,4,0:0:0:0:
272,192,63337,1,4,0:0:0:0:
272,192,63506,1,12,0:0:0:0:
272,192,63676,1,4,0:0:0:0:
272,192,64184,1,12,0:0:0:0:
288,192,64523,1,8,0:0:0:0:
288,192,64693,1,0,0:0:0:0:
288,192,64778,1,8,0:0:0:0:
288,192,64947,1,0,0:0:0:0:
288,192,65032,1,8,0:0:0:0:
288,192,65201,1,0,0:0:0:0:
288,192,65371,1,8,0:0:0:0:
288,192,65456,1,0,0:0:0:0:
288,192,65710,1,8,0:0:0:0:
288,192,65879,1,0,0:0:0:0:
288,192,66049,1,0,0:0:0:0:
288,192,66133,1,8,0:0:0:0:
288,192,66303,1,0,0:0:0:0:
288,192,66472,1,0,0:0:0:0:
288,192,66557,1,8,0:0:0:0:
288,192,66727,1,8,0:0:0:0:
288,192,66896,1,8,0:0:0:0:
288,192,66981,1,8,0:0:0:0:
288,192,67150,1,8,0:0:0:0:
288,192,67235,1,0,0:0:0:0:
288,192,67405,1,0,0:0:0:0:
288,192,67574,1,8,0:0:0:0:
288,192,67828,1,8,0:0:0:0:
288,192,67913,1,0,0:0:0:0:
288,192,68083,1,0,0:0:0:0:
288,192,68167,1,0,0:0:0:0:
288,192,68252,1,8,0:0:0:0:
288,192,68422,1,8,0:0:0:0:
288,192,68591,1,0,0:0:0:0:
288,192,68676,1,0,0:0:0:0:
288,192,68845,1,0,0:0:0:0:
304,192,69100,1,8,0:0:0:0:
304,192,69184,1,8,0:0:0:0:
304,192,69354,1,8,0:0:0:0:
288,192,69523,1,0,0:0:0:0:
288,192,69608,1,8,0:0:0:0:
288,192,69778,1,0,0:0:0:0:
288,192,69862,1,8,0:0:0:0:
288,192,69947,1,0,0:0:0:0:
304,192,70117,1,8,0:0:0:0:
304,192,70201,1,0,0:0:0:0:
304,192,70371,1,8,0:0:0:0:
304,192,70540,1,8,0:0:0:0:
304,192,70625,1,0,0:0:0:0:
304,192,70795,1,8,0:0:0:0:
304,192,70879,1,0,0:0:0:0:
304,192,71133,1,8,0:0:0:0:
304,192,71303,1,8,0:0:0:0:
304,192,71472,1,0,0:0:0:0:
304,192,71642,1,8,0:0:0:0:
304,192,71727,1,8,0:0:0:0:
304,192,71896,1,0,0:0:0:0:
304,192,71981,1,8,0:0:0:0:
304,192,72065,1,8,0:0:0:0:
304,192,72235,1,0,0:0:0:0:
304,192,72320,1,8,0:0:0:0:
304,192,72574,1,8,0:0:0:0:
304,192,72659,1,0,0:0:0:0:
304,192,72828,1,0,0:0:0:0:
304,192,72998,1,8,0:0:0:0:
304,192,73083,1,0,0:0:0:0:
304,192,73167,1,8,0:0:0:0:
304,192,73337,1,0,0:0:0:0:
304,192,73422,1,8,0:0:0:0:
304,192,73506,1,0,0:0:0:0:
304,192,73676,1,8,0:0:0:0:
304,192,73845,1,0,0:0:0:0:
304,192,74015,1,8,0:0:0:0:
304,192,74100,1,8,0:0:0:0:
304,192,74184,1,0,0:0:0:0:
304,192,74269,1,0,0:0:0:0:
304,192,74354,1,8,0:0:0:0:
304,192,74523,1,8,0:0:0:0:
304,192,74608,1,8,0:0:0:0:
304,192,74693,1,0,0:0:0:0:
304,192,74778,1,8,0:0:0:0:
304,192,74862,1,0,0:0:0:0:
304,192,75032,1,12,0:0:0:0:
304,192,75371,1,8,0:0:0:0:
304,192,75540,1,8,0:0:0:0:
304,192,75710,1,8,0:0:0:0:
304,192,75879,1,0,0:0:0:0:
304,192,76218,1,8,0:0:0:0:
304,192,76388,1,0,0:0:0:0:
304,192,76557,1,8,0:0:0:0:
304,192,76896,1,8,0:0:0:0:
304,192,77066,1,8,0:0:0:0:
304,192,77235,1,0,0:0:0:0:
304,192,77574,1,0,0:0:0:0:
304,192,77744,1,8,0:0:0:0:
304,192,77913,1,8,0:0:0:0:
304,192,78083,1,8,0:0:0:0:
304,192,78167,1,8,0:0:0:0:
304,192,78252,1,8,0:0:0:0:
304,192,78422,1,8,0:0:0:0:
304,192,78591,1,0,0:0:0:0:
304,192,78761,1,0,0:0:0:0:
304,192,78845,1,0,0:0:0:0:
304,192,78930,1,8,0:0:0:0:
304,192,79100,1,8,0:0:0:0:
304,192,79269,1,0,0:0:0:0:
304,192,79439,1,0,0:0:0:0:
304,192,79523,1,0,0:0:0:0:
304,192,79608,1,8,0:0:0:0:
304,192,79778,1,0,0:0:0:0:
304,192,79862,1,8,0:0:0:0:
304,192,79947,1,8,0:0:0:0:
304,192,80117,1,8,0:0:0:0:
304,192,80201,1,0,0:0:0:0:
304,192,80286,1,8,0:0:0:0:
304,192,80456,1,8,0:0:0:0:
304,192,80795,1,8,0:0:0:0:
304,192,80879,1,0,0:0:0:0:
304,192,80964,1,8,0:0:0:0:
304,192,81133,1,0,0:0:0:0:
304,192,81218,1,8,0:0:0:0:
304,192,81303,1,8,0:0:0:0:
304,192,81472,1,8,0:0:0:0:
304,192,81642,1,0,0:0:0:0:
304,192,81727,1,8,0:0:0:0:
304,192,81981,1,8,0:0:0:0:
304,192,82066,1,8,0:0:0:0:
304,192,82150,1,0,0:0:0:0:
304,192,82405,1,8,0:0:0:0:
304,192,82489,1,0,0:0:0:0:
304,192,82659,1,8,0:0:0:0:
304,192,82828,1,8,0:0:0:0:
304,192,82913,1,8,0:0:0:0:
304,192,82998,1,8,0:0:0:0:
304,192,83167,1,8,0:0:0:0:
304,192,83506,1,0,0:0:0:0:
304,192,83676,1,0,0:0:0:0:
304,192,83761,1,0,0:0:0:0:
304,192,83845,1,8,0:0:0:0:
304,192,84015,1,8,0:0:0:0:
304,192,84184,1,0,0:0:0:0:
304,192,84354,1,0,0:0:0:0:
304,192,84439,1,0,0:0:0:0:
304,192,84523,1,8,0:0:0:0:
304,192,84693,1,8,0:0:0:0:
304,192,84862,1,0,0:0:0:0:
304,192,84947,1,0,0:0:0:0:
304,192,85032,1,0,0:0:0:0:
304,192,85117,1,8,0:0:0:0:
304,192,85201,1,0,0:0:0:0:
304,192,85371,1,8,0:0:0:0:
304,192,85456,1,8,0:0:0:0:
304,192,85540,1,8,0:0:0:0:
304,192,85625,1,0,0:0:0:0:
304,192,85710,1,8,0:0:0:0:
304,192,86218,1,8,0:0:0:0:
304,192,86303,1,0,0:0:0:0:
304,192,86388,1,0,0:0:0:0:
304,192,86472,1,8,0:0:0:0:
304,192,86557,1,0,0:0:0:0:
304,192,86727,1,0,0:0:0:0:
304,192,86811,1,8,0:0:0:0:
304,192,86896,1,8,0:0:0:0:
304,192,86981,1,0,0:0:0:0:
304,192,87066,1,8,0:0:0:0:
304,192,87235,1,8,0:0:0:0:
304,192,87405,1,8,0:0:0:0:
304,192,87489,1,8,0:0:0:0:
304,192,87574,1,0,0:0:0:0:
272,208,88252,1,0,0:0:0:0:
272,208,88930,1,0,0:0:0:0:
288,192,89608,1,8,0:0:0:0:
288,192,89947,1,8,0:0:0:0:
304,192,90286,1,0,0:0:0:0:
288,192,90964,1,0,0:0:0:0:
288,192,91642,1,8,0:0:0:0:
288,192,92320,1,8,0:0:0:0:
288,192,92659,1,8,0:0:0:0:
304,192,92998,1,0,0:0:0:0:
320,208,93676,1,0,0:0:0:0:
320,208,94354,1,0,0:0:0:0:
336,208,94693,1,0,0:0:0:0:
320,208,95032,1,8,0:0:0:0:
320,208,95371,1,8,0:0:0:0:
333,205,95710,1,0,0:0:0:0:
338,232,96388,1,0,0:0:0:0:
358,250,97066,1,0,0:0:0:0:
337,230,97744,1,8,0:0:0:0:
