osu file format v14

[General]
AudioFilename: audio.mp3
AudioLeadIn: 0
PreviewTime: 50795
Countdown: 0
SampleSet: None
StackLeniency: 0.7
Mode: 1
LetterboxInBreaks: 0
WidescreenStoryboard: 0

[Editor]
DistanceSpacing: 0.1
BeatDivisor: 4
GridSize: 16
TimelineZoom: 0.6999997

[Metadata]
Title:100sec Cat Dream
TitleUnicode:100sec Cat Dream
Artist:Ayatsugu_Revolved
ArtistUnicode:Ayatsugu_Revolved
Creator:yuzu__rinrin
Version:Kantan
Source:Cytus II
Tags:
BeatmapID:2325241
BeatmapSetID:818876

[Difficulty]
HPDrainRate:7
CircleSize:2
OverallDifficulty:3
ApproachRate:10
SliderMultiplier:1.4
SliderTickRate:1

[Events]
//Background and Video events
0,0,"100sec.jpg",0,0
//Break Periods
//Storyboard Layer 0 (Background)
//Storyboard Layer 1 (Fail)
//Storyboard Layer 2 (Pass)
//Storyboard Layer 3 (Foreground)
//Storyboard Layer 4 (Overlay)
//Storyboard Sound Samples

[TimingPoints]
795,338.983050847458,4,1,0,50,1,0
795,-111.111111111111,4,1,0,50,0,0
5201,-105.263157894737,4,1,0,70,0,0
5879,-100,4,1,0,80,0,0
64523,-100,4,1,0,100,0,1
87574,-100,4,1,0,50,0,0
88252,-102.040816326531,4,1,0,50,0,0
88930,-104.166666666667,4,1,0,50,0,0
89608,-106.382978723404,4,1,0,50,0,0
90964,-108.695652173913,4,1,0,50,0,0
91642,-111.111111111111,4,1,0,50,0,0
92320,-113.636363636364,4,1,0,50,0,0
93676,-116.279069767442,4,1,0,50,0,0
94354,-119.047619047619,4,1,0,50,0,0
95032,-121.951219512195,4,1,0,50,0,0
96388,-125,4,1,0,50,0,0
97066,-128.205128205128,4,1,0,50,0,0
97744,-131.578947368421,4,1,0,50,0,0

[HitObjects]
256,192,2150,5,0,0:0:0:0:
256,192,3506,1,8,0:0:0:0:
256,192,4862,1,8,0:0:0:0:
256,192,5540,1,8,0:0:0:0:
256,192,6218,1,8,0:0:0:0:
256,192,6557,1,8,0:0:0:0:
256,192,6896,1,0,0:0:0:0:
256,192,7235,1,12,0:0:0:0:
256,192,7574,1,4,0:0:0:0:
256,192,8252,1,0,0:0:0:0:
256,192,8930,1,0,0:0:0:0:
256,192,9608,1,0,0:0:0:0:
256,192,9947,1,8,0:0:0:0:
256,192,10286,1,0,0:0:0:0:
256,192,10964,1,0,0:0:0:0:
256,192,11642,1,0,0:0:0:0:
256,192,12320,1,8,0:0:0:0:
256,192,12659,1,8,0:0:0:0:
256,192,12998,1,0,0:0:0:0:
256,192,14354,1,0,0:0:0:0:
256,192,14693,1,8,0:0:0:0:
256,192,15032,1,0,0:0:0:0:
256,192,15710,1,8,0:0:0:0:
256,192,16049,1,8,0:0:0:0:
256,192,16388,1,8,0:0:0:0:
256,192,17066,1,12,0:0:0:0:
256,192,17574,1,12,0:0:0:0:
256,192,18422,1,4,0:0:0:0:
272,192,19778,1,0,0:0:0:0:
272,192,20456,1,8,0:0:0:0:
272,192,21133,1,8,0:0:0:0:
272,192,22489,1,4,0:0:0:0:
272,192,22998,1,4,0:0:0:0:
272,192,23845,1,4,0:0:0:0:
272,192,24523,1,4,0:0:0:0:
272,192,25201,1,4,0:0:0:0:
272,192,25879,1,8,0:0:0:0:
272,192,26218,1,0,0:0:0:0:
272,192,26557,1,0,0:0:0:0:
272,192,27235,1,8,0:0:0:0:
272,192,27913,1,4,0:0:0:0:
272,192,28422,1,4,0:0:0:0:
256,192,29269,1,4,0:0:0:0:
272,184,30456,1,8,0:0:0:0:
272,192,31981,1,8,0:0:0:0:
272,192,32320,1,8,0:0:0:0:
272,192,32659,1,0,0:0:0:0:
272,192,33167,1,12,0:0:0:0:
272,192,34692,1,0,0:0:0:0:
272,192,35370,1,0,0:0:0:0:
272,192,36048,1,4,0:0:0:0:
272,192,36387,1,8,0:0:0:0:
272,192,36726,1,8,0:0:0:0:
272,192,37404,1,0,0:0:0:0:
272,192,37913,1,12,0:0:0:0:
272,192,38591,1,12,0:0:0:0:
272,192,40117,1,4,0:0:0:0:
272,192,41302,1,8,0:0:0:0:
272,192,42828,1,8,0:0:0:0:
272,192,43167,1,8,0:0:0:0:
272,192,43506,1,0,0:0:0:0:
272,192,44014,1,12,0:0:0:0:
272,192,45539,1,0,0:0:0:0:
272,192,46218,1,8,0:0:0:0:
272,192,46896,1,4,0:0:0:0:
272,192,47405,1,4,0:0:0:0:
272,192,48252,1,0,0:0:0:0:
272,192,48930,1,8,0:0:0:0:
272,192,49608,1,4,0:0:0:0:
272,192,49947,1,12,0:0:0:0:
272,192,50286,1,12,0:0:0:0:
272,192,50964,1,4,0:0:0:0:
272,192,51303,1,0,0:0:0:0:
272,192,51642,1,8,0:0:0:0:
272,192,52320,1,8,0:0:0:0:
272,192,52659,1,8,0:0:0:0:
272,192,52998,1,8,0:0:0:0:
272,192,53676,1,0,0:0:0:0:
272,192,54015,1,0,0:0:0:0:
272,192,54354,1,8,0:0:0:0:
272,192,55032,1,0,0:0:0:0:
272,192,56388,1,4,0:0:0:0:
272,192,56727,1,0,0:0:0:0:
272,192,57066,1,8,0:0:0:0:
272,192,57744,1,8,0:0:0:0:
272,192,58422,1,8,0:0:0:0:
272,192,58761,1,12,0:0:0:0:
256,192,59100,12,0,61811,0:0:0:0:
272,192,63167,5,4,0:0:0:0:
272,192,63676,1,4,0:0:0:0:
288,192,64523,1,8,0:0:0:0:
288,192,65201,1,0,0:0:0:0:
288,192,65879,1,0,0:0:0:0:
288,192,66218,1,0,0:0:0:0:
288,192,66557,1,8,0:0:0:0:
288,192,67235,1,0,0:0:0:0:
288,192,67913,1,0,0:0:0:0:
288,192,68591,1,0,0:0:0:0:
288,192,69947,1,0,0:0:0:0:
304,192,70625,1,0,0:0:0:0:
304,192,71303,1,8,0:0:0:0:
304,192,71642,1,8,0:0:0:0:
304,192,71981,1,8,0:0:0:0:
304,192,72659,1,0,0:0:0:0:
304,192,73337,1,0,0:0:0:0:
304,192,74015,1,8,0:0:0:0:
304,192,75032,1,12,0:0:0:0:
304,192,75371,1,0,0:0:0:0:
304,192,76727,1,8,0:0:0:0:
304,192,77405,1,0,0:0:0:0:
304,192,78083,1,8,0:0:0:0:
304,192,78422,1,8,0:0:0:0:
304,192,78761,1,0,0:0:0:0:
304,192,79100,1,8,0:0:0:0:
304,192,79439,1,0,0:0:0:0:
304,192,80795,1,8,0:0:0:0:
304,192,81472,1,8,0:0:0:0:
304,192,82150,1,0,0:0:0:0:
304,192,82489,1,0,0:0:0:0:
304,192,82828,1,8,0:0:0:0:
304,192,83506,1,0,0:0:0:0:
304,192,84184,1,0,0:0:0:0:
304,192,84862,1,0,0:0:0:0:
304,192,85371,1,8,0:0:0:0:
304,192,86218,1,8,0:0:0:0:
304,192,86727,1,0,0:0:0:0:
304,192,87574,1,0,0:0:0:0:
288,192,89608,1,8,0:0:0:0:
304,192,90286,1,0,0:0:0:0:
288,192,91642,1,8,0:0:0:0:
304,192,92998,1,0,0:0:0:0:
320,208,94354,1,0,0:0:0:0:
320,208,95032,1,8,0:0:0:0:
333,205,95710,1,0,0:0:0:0:
337,230,97744,1,8,0:0:0:0:
