osu file format v14

[General]
AudioFilename: audio.mp3
AudioLeadIn: 0
PreviewTime: 54032
Countdown: 0
SampleSet: Normal
StackLeniency: 0.7
Mode: 2
LetterboxInBreaks: 0
WidescreenStoryboard: 1

[Editor]
DistanceSpacing: 1
BeatDivisor: 4
GridSize: 4
TimelineZoom: 2.1

[Metadata]
Title:Lights of Muse
TitleUnicode:Lights of Muse
Artist:Ayatsugu_Otowa
ArtistUnicode:Ayatsugu_Otowa
Creator:[_-Kukkai-_]
Version:SALAD
Source:Muse Dash
Tags:00 Original Soundtrack PeroPeroGames X.D. Network Inc. Steam Buro Marija Rin cute Astreachan
BeatmapID:2186566
BeatmapSetID:1044462

[Difficulty]
HPDrainRate:4
CircleSize:3
OverallDifficulty:7
ApproachRate:7
SliderMultiplier:1.7
SliderTickRate:1

[Events]
//Background and Video events
0,0,"salad.jpg",0,0
//Break Periods
//Storyboard Layer 0 (Background)
//Storyboard Layer 1 (Fail)
//Storyboard Layer 2 (Pass)
//Storyboard Layer 3 (Foreground)
//Storyboard Layer 4 (Overlay)
//Storyboard Sound Samples

[TimingPoints]
700,333.333333333333,4,1,1,50,1,0
1366,333.333333333333,4,1,1,50,1,0
6699,-100,4,1,1,55,0,0
10699,-100,4,1,1,55,0,0
11365,-100,4,1,1,55,0,0
12032,-100,4,1,1,60,0,0
22699,-111.111111111111,4,1,1,50,0,0
38699,-111.111111111111,4,1,1,55,0,0
44032,-100,4,1,1,55,0,0
54032,-100,4,2,1,55,0,0
54699,-100,4,1,1,60,0,1
76032,-100,4,1,1,60,0,0
86699,-100,4,1,1,65,0,1
96032,-100,4,1,1,65,0,0

[Colours]
Combo1 : 230,255,0
Combo2 : 168,45,94
Combo3 : 101,51,183
Combo4 : 227,83,180

[HitObjects]
105,364,700,5,2,0:0:0:0:
43,309,866,1,2,0:0:0:0:
44,227,1033,1,8,0:0:0:0:
108,175,1199,1,2,0:0:0:0:
295,169,1366,5,6,0:0:0:0:
379,165,1532,2,0,P|431:229|408:324,1,170
248,349,2199,2,0,L|408:251,1,170,0|0,0:0|0:0,0:0:0:0:
221,232,2865,6,0,L|221:30,1,170,0|0,0:0|0:0,0:0:0:0:
392,56,3532,2,0,L|391:262,1,170
203,233,4032,5,6,0:0:0:0:
121,233,4199,2,0,P|112:155|132:56,1,170,0|2,0:0|0:0,0:0:0:0:
172,64,4615,1,2,0:0:0:0:
214,66,4699,2,0,L|387:156,1,170,2|8,0:0|0:0,0:0:0:0:
296,200,5199,1,2,0:0:0:0:
192,352,5365,5,2,0:0:0:0:
120,313,5531,1,2,0:0:0:0:
132,236,5698,1,8,0:0:0:0:
216,208,5864,1,0,0:0:0:0:
317,229,6032,2,0,P|344:144|307:66,1,170,2|8,0:0|0:0,0:0:0:0:
252,67,6532,1,2,0:0:0:0:
65,345,6699,6,0,P|16:287|72:216,1,170,6|8,0:0|0:0,0:0:0:0:
216,336,7365,2,0,L|216:159,1,170,2|8,0:0|0:0,0:0:0:0:
376,336,8032,6,0,P|426:269|376:212,1,170,2|8,0:0|0:0,0:0:0:0:
216,340,8699,2,0,P|168:288|232:208,1,170,2|8,0:0|0:0,0:0:0:0:
296,208,9198,1,0,0:0:0:0:
484,206,9365,6,0,P|490:118|438:36,1,170,2|2,0:0|0:0,0:0:0:0:
280,356,10032,1,2,0:0:0:0:
349,306,10198,1,2,0:0:0:0:
418,256,10365,1,2,0:0:0:0:
164,344,10699,6,0,L|285:177,2,170,8|8|8,0:0|0:0|0:0,0:0:0:0:
344,353,11699,1,0,0:0:0:0:
55,357,12032,6,0,P|45:275|114:192,1,170,6|8,0:0|0:0,0:0:0:0:
252,196,12699,1,2,0:0:0:0:
412,196,13032,1,8,0:0:0:0:
164,352,13365,5,2,0:0:0:0:
248,304,13615,2,0,L|314:225,2,85,8|8|8,0:0|0:0|0:0,0:0:0:0:
205,307,14032,1,8,0:0:0:0:
119,304,14199,1,0,0:0:0:0:
60,242,14365,1,8,0:0:0:0:
59,156,14532,1,0,0:0:0:0:
247,359,14699,6,0,P|342:332|387:258,1,170,6|8,0:0|0:0,0:0:0:0:
212,288,15365,2,0,P|179:220|226:144,1,170,2|8,0:0|0:0,0:0:0:0:
473,291,16032,6,0,L|318:192,1,170,2|8,0:0|0:0,0:0:0:0:
81,196,16699,1,2,0:0:0:0:
82,113,16865,1,2,0:0:0:0:
143,56,17032,1,8,0:0:0:0:
225,61,17199,1,0,0:0:0:0:
411,361,17365,6,0,P|450:317|395:234,1,170,6|8,0:0|0:0,0:0:0:0:
226,229,18032,1,2,0:0:0:0:
56,232,18365,1,8,0:0:0:0:
317,354,18698,5,2,0:0:0:0:
438,298,18948,2,0,L|439:204,1,85,8|8,0:0|0:0,0:0:0:0:
350,146,19282,1,8,0:0:0:0:
307,147,19365,1,8,0:0:0:0:
221,146,19532,1,0,0:0:0:0:
292,100,19699,1,8,0:0:0:0:
366,59,19865,1,0,0:0:0:0:
182,362,20032,6,0,P|168:280|188:188,1,170,6|8,0:0|0:0,0:0:0:0:
272,208,20532,2,0,L|136:136,2,127.5,8|8|8,0:0|0:0|0:0,0:0:0:0:
344,208,21199,1,8,0:0:0:0:
412,364,21365,5,8,0:0:0:0:
448,344,21448,1,0,0:0:0:0:
462,304,21531,1,0,0:0:0:0:
446,266,21614,1,0,0:0:0:0:
408,248,21698,1,8,0:0:0:0:
218,357,22032,1,8,0:0:0:0:
152,307,22198,1,2,0:0:0:0:
155,226,22365,1,8,0:0:0:0:
224,182,22532,1,2,0:0:0:0:
422,360,22699,6,0,P|474:313|404:192,1,229.499992996216,6|0,0:0|0:0,0:0:0:0:
264,183,23532,1,2,0:0:0:0:
111,101,23865,6,0,L|256:173,2,152.999995330811,0|0|0,0:0|0:0|0:0,0:0:0:0:
207,373,24699,1,2,0:0:0:0:
284,328,24865,1,2,0:0:0:0:
284,256,25032,1,8,0:0:0:0:
220,224,25199,1,0,0:0:0:0:
51,214,25365,6,0,L|268:126,1,229.499992996216,6|0,0:0|0:0,0:0:0:0:
152,136,26199,1,2,0:0:0:0:
328,140,26532,6,0,L|468:46,2,152.999995330811,0|0|0,0:0|0:0|0:0,0:0:0:0:
251,139,27365,2,0,L|250:241,1,76.4999976654053,2|2,0:0|0:0,0:0:0:0:
325,207,27699,2,0,L|387:145,1,76.4999976654053,8|0,0:0|0:0,0:0:0:0:
195,353,28032,6,0,P|112:309|171:214,1,229.499992996216,6|0,0:0|0:0,0:0:0:0:
316,202,28865,2,0,L|468:112,2,152.999995330811,2|0|0,0:0|0:0|0:0,0:0:0:0:
126,346,29865,6,0,P|70:311|144:188,1,229.499992996216,0|8,0:0|0:0,0:0:0:0:
205,186,30532,1,0,0:0:0:0:
377,183,30699,6,0,P|403:115|370:42,1,152.999995330811,6|8,0:0|0:0,0:0:0:0:
296,44,31199,2,0,L|127:46,1,152.999995330811,0|2,0:0|0:0,0:0:0:0:
68,48,31699,2,0,L|68:136,1,76.4999976654053,8|0,0:0|0:0,0:0:0:0:
248,44,32032,5,2,0:0:0:0:
306,88,32198,1,0,0:0:0:0:
306,162,32365,1,8,0:0:0:0:
248,212,32532,2,0,L|80:168,1,152.999995330811,0|2,0:0|0:0,0:0:0:0:
99,173,33032,1,8,0:0:0:0:
200,176,33199,1,0,0:0:0:0:
388,348,33365,6,0,L|400:260,1,76.4999976654053,6|0,0:0|0:0,0:0:0:0:
244,280,33865,2,0,P|212:228|336:140,1,229.499992996216,0|8,0:0|0:0,0:0:0:0:
224,136,34532,6,0,L|80:64,2,152.999995330811,0|0|0,0:0|0:0|0:0,0:0:0:0:
300,140,35365,1,2,0:0:0:0:
359,98,35531,1,0,0:0:0:0:
351,26,35698,1,8,0:0:0:0:
283,0,35864,1,0,0:0:0:0:
108,360,36032,6,0,L|252:284,2,152.999995330811,6|8|2,0:0|0:0|0:0,0:0:0:0:
108,360,37032,1,8,0:0:0:0:
204,360,37199,6,0,L|346:278,2,152.999995330811,0|0|0,0:0|0:0|0:0,0:0:0:0:
128,360,38032,1,2,0:0:0:0:
62,328,38198,1,2,0:0:0:0:
59,256,38365,1,8,0:0:0:0:
122,220,38531,1,0,0:0:0:0:
300,214,38699,6,0,L|147:164,1,152.999995330811,6|8,0:0|0:0,0:0:0:0:
301,360,39365,2,0,P|336:299|286:227,1,152.999995330811,2|8,0:0|0:0,0:0:0:0:
140,240,40032,6,0,P|96:168|144:128,1,152.999995330811,2|8,0:0|0:0,0:0:0:0:
304,116,40699,2,0,P|367:113|453:183,1,152.999995330811,2|8,0:0|0:0,0:0:0:0:
364,192,41199,1,0,0:0:0:0:
196,368,41365,6,0,P|158:295|208:251,1,152.999995330811,6|8,0:0|0:0,0:0:0:0:
280,244,41865,2,0,P|304:176|232:140,1,152.999995330811,0|2,0:0|0:0,0:0:0:0:
168,136,42365,2,0,L|92:100,1,76.4999976654053,8|0,0:0|0:0,0:0:0:0:
270,360,42699,6,0,L|423:300,1,152.999995330811,2|8,0:0|0:0,0:0:0:0:
328,260,43199,2,0,L|239:231,2,76.4999976654053,0|2|2,0:0|0:0|0:0,0:0:0:0:
410,208,43699,2,0,L|305:208,1,76.4999976654053,8|0,0:0|0:0,0:0:0:0:
145,339,44032,6,0,L|51:278,2,85,6|0|8,0:0|0:0|0:0,0:0:0:0:
336,335,44532,2,0,P|376:256|256:176,1,255,2|8,0:0|0:0,0:0:0:0:
156,140,45199,1,0,0:0:0:0:
54,370,45365,6,0,L|55:181,1,170,2|8,0:0|0:0,0:0:0:0:
202,285,46032,2,0,L|44:199,1,170,0|8,0:0|0:0,0:0:0:0:
312,216,46699,5,6,0:0:0:0:
399,215,46865,1,0,0:0:0:0:
399,215,47032,1,8,0:0:0:0:
204,354,47199,2,0,P|155:299|221:131,1,255,2|8,0:0|0:0,0:0:0:0:
471,138,48032,5,2,0:0:0:0:
356,135,48282,1,0,0:0:0:0:
237,135,48532,1,2,0:0:0:0:
151,137,48699,5,0,0:0:0:0:
119,213,48865,1,2,0:0:0:0:
153,288,49032,1,8,0:0:0:0:
232,315,49198,1,0,0:0:0:0:
404,365,49365,6,0,L|467:302,2,85,6|0|8,0:0|0:0|0:0,0:0:0:0:
211,360,49865,2,0,P|123:278|129:240,1,170
177,178,50365,1,8,0:0:0:0:
265,176,50532,1,0,0:0:0:0:
448,138,50699,6,0,L|446:338,1,170,2|8,0:0|0:0,0:0:0:0:
276,306,51365,1,2,0:0:0:0:
104,60,51699,1,8,0:0:0:0:
383,348,52032,6,0,L|397:231,1,85,6|0,0:0|0:0,0:0:0:0:
246,240,52532,2,0,L|245:124,1,85,0|2,0:0|0:0,0:0:0:0:
95,183,53032,2,0,L|120:76,1,85,8|0,0:0|0:0,0:0:0:0:
286,100,53365,2,0,P|319:138|274:261,1,170,2|8,0:0|0:0,0:0:0:0:
208,260,53865,1,0,0:0:0:0:
124,253,54032,5,2,0:0:0:0:
65,195,54198,1,2,0:0:0:0:
76,113,54365,1,2,0:0:0:0:
147,72,54531,1,2,0:0:0:0:
331,354,54699,6,0,P|375:308|319:216,1,170,6|8,0:0|0:0,0:0:0:0:
166,224,55365,2,0,L|89:161,1,85,2|2,0:0|0:0,0:0:0:0:
269,156,55865,1,0,0:0:0:0:
439,158,56199,6,0,L|459:64,1,85,0|8,0:0|0:0,0:0:0:0:
354,334,56532,2,0,L|198:247,1,170,0|2,0:0|0:0,0:0:0:0:
282,215,57032,2,0,L|282:110,1,85,8|0,0:0|0:0,0:0:0:0:
101,350,57365,6,0,P|61:298|125:201,1,170,6|8,0:0|0:0,0:0:0:0:
286,203,58032,2,0,L|356:123,1,85,2|2,0:0|0:0,0:0:0:0:
67,84,58532,5,0,0:0:0:0:
215,82,58865,1,0,0:0:0:0:
67,84,59199,1,0,0:0:0:0:
151,80,59365,2,0,L|152:184,1,85,2|2,0:0|0:0,0:0:0:0:
66,176,59699,2,0,L|68:88,1,85,8|0,0:0|0:0,0:0:0:0:
249,355,60032,6,0,L|415:265,1,170,6|8,0:0|0:0,0:0:0:0:
219,225,60699,2,0,L|217:113,1,85,2|2,0:0|0:0,0:0:0:0:
392,115,61199,1,0,0:0:0:0:
234,112,61532,6,0,L|174:46,1,85,0|8,0:0|0:0,0:0:0:0:
282,45,61865,2,0,P|323:87|268:193,1,170,0|2,0:0|0:0,0:0:0:0:
208,189,62365,1,8,0:0:0:0:
128,189,62532,1,0,0:0:0:0:
319,343,62699,6,0,P|356:284|304:182,1,170,6|8,0:0|0:0,0:0:0:0:
150,198,63365,2,0,L|153:99,1,85,2|2,0:0|0:0,0:0:0:0:
415,44,63865,5,2,0:0:0:0:
268,44,64199,1,2,0:0:0:0:
415,44,64532,1,2,0:0:0:0:
329,46,64699,2,0,L|329:144,1,85,2|8,0:0|0:0,0:0:0:0:
414,132,65032,2,0,L|413:29,1,85,2|8,0:0|0:0,0:0:0:0:
230,350,65365,6,0,L|55:277,1,170,6|8,0:0|0:0,0:0:0:0:
243,211,66032,2,0,L|243:106,1,85,2|2,0:0|0:0,0:0:0:0:
73,101,66532,1,0,0:0:0:0:
261,346,66865,6,0,L|341:293,1,85,0|8,0:0|0:0,0:0:0:0:
406,252,67199,2,0,P|450:192|397:118,1,170,0|2,0:0|0:0,0:0:0:0:
326,155,67699,2,0,L|384:72,1,85,8|0,0:0|0:0,0:0:0:0:
214,351,68032,6,0,P|170:297|227:211,1,170,6|8,0:0|0:0,0:0:0:0:
387,206,68699,2,0,L|285:143,1,85,2|2,0:0|0:0,0:0:0:0:
142,68,69199,5,0,0:0:0:0:
296,69,69532,1,0,0:0:0:0:
445,73,69865,1,0,0:0:0:0:
355,358,70032,2,2,L|259:314,1,85,2|2,0:0|0:0,0:0:0:0:
194,263,70365,2,2,L|194:166,1,85
390,349,70699,6,0,P|425:316|369:214,1,170,6|8,0:0|0:0,0:0:0:0:
298,215,71199,1,0,0:0:0:0:
208,216,71365,2,0,L|376:120,1,170,2|8,0:0|0:0,0:0:0:0:
440,80,71865,1,0,0:0:0:0:
253,360,72032,6,0,L|98:268,1,170,6|8,0:0|0:0,0:0:0:0:
33,230,72532,1,0,0:0:0:0:
118,233,72699,2,0,L|273:115,1,170,2|8,0:0|0:0,0:0:0:0:
324,83,73199,1,0,0:0:0:0:
135,360,73365,6,0,L|135:171,1,170,6|10,0:0|0:0,0:0:0:0:
305,186,74032,2,0,L|137:106,1,170,2|10,0:0|0:0,0:0:0:0:
158,37,74532,1,2,0:0:0:0:
328,384,74865,6,0,L|328:296,1,85,0|2,0:0|0:0,0:0:0:0:
229,286,75199,2,0,P|182:240|245:149,1,170,8|2,0:0|0:0,0:0:0:0:
307,147,75699,2,0,L|305:51,1,85,2|2,0:0|0:0,0:0:0:0:
118,366,76032,6,0,P|78:299|133:222,1,170,6|8,0:0|0:0,0:0:0:0:
265,211,76699,1,2,0:0:0:0:
108,235,77032,1,8,0:0:0:0:
382,226,77365,5,2,0:0:0:0:
249,232,77615,2,0,L|183:153,2,85,8|8|8,0:0|0:0|0:0,0:0:0:0:
291,233,78032,1,8,0:0:0:0:
353,179,78198,1,0,0:0:0:0:
353,96,78365,1,8,0:0:0:0:
290,43,78532,1,0,0:0:0:0:
103,358,78699,6,0,P|65:312|115:214,1,170,6|8,0:0|0:0,0:0:0:0:
279,226,79365,2,0,L|104:192,1,170,2|8,0:0|0:0,0:0:0:0:
373,220,80032,6,0,P|415:164|344:98,1,170,2|8,0:0|0:0,0:0:0:0:
120,353,80699,1,2,0:0:0:0:
57,299,80865,1,0,0:0:0:0:
60,217,81032,1,8,0:0:0:0:
125,167,81199,1,0,0:0:0:0:
313,366,81365,6,0,P|355:326|297:239,1,170,6|8,0:0|0:0,0:0:0:0:
149,236,82032,1,2,0:0:0:0:
308,240,82365,1,8,0:0:0:0:
47,359,82699,5,2,0:0:0:0:
179,365,82948,2,0,L|280:320,1,85,8|8,0:0|0:0,0:0:0:0:
180,195,83282,1,8,0:0:0:0:
137,195,83365,1,8,0:0:0:0:
71,146,83531,1,8,0:0:0:0:
72,64,83698,1,2,0:0:0:0:
139,18,83865,1,8,0:0:0:0:
330,362,84032,6,0,P|349:279|316:193,1,170,6|8,0:0|0:0,0:0:0:0:
237,238,84532,2,0,L|372:152,2,127.5,8|8|8,0:0|0:0|0:0,0:0:0:0:
168,168,85199,1,8,0:0:0:0:
100,368,85365,5,2,0:0:0:0:
64,348,85448,1,0,0:0:0:0:
50,308,85531,1,8,0:0:0:0:
66,270,85614,1,0,0:0:0:0:
104,252,85698,1,2,0:0:0:0:
280,248,86032,5,2,0:0:0:0:
364,212,86198,1,2,0:0:0:0:
382,115,86365,1,2,0:0:0:0:
313,73,86532,1,2,0:0:0:0:
113,364,86699,6,0,P|70:296|120:208,1,170,6|8,0:0|0:0,0:0:0:0:
192,212,87199,1,0,0:0:0:0:
272,244,87365,5,2,0:0:0:0:
344,202,87531,1,0,0:0:0:0:
371,124,87698,1,8,0:0:0:0:
340,46,87865,1,0,0:0:0:0:
176,16,88199,1,0,0:0:0:0:
176,16,88365,1,8,0:0:0:0:
336,368,88532,6,0,P|392:316|344:248,1,170
296,224,89032,1,8,0:0:0:0:
232,196,89199,1,0,0:0:0:0:
392,379,89365,6,0,L|461:318,1,85,6|0,0:0|0:0,0:0:0:0:
382,379,89699,2,0,L|222:266,1,170,8|2,0:0|0:0,0:0:0:0:
172,232,90199,2,0,L|170:134,1,85,0|8,0:0|0:0,0:0:0:0:
359,64,90532,6,2,L|501:168,2,170
260,61,91365,1,2,0:0:0:0:
192,105,91531,1,0,0:0:0:0:
191,187,91698,1,8,0:0:0:0:
258,234,91865,1,0,0:0:0:0:
445,376,92032,6,0,P|477:308|415:251,1,170,6|8,0:0|0:0,0:0:0:0:
328,224,92532,1,0,0:0:0:0:
244,224,92699,2,0,L|424:152,1,170,2|8,0:0|0:0,0:0:0:0:
401,160,93199,1,0,0:0:0:0:
215,365,93365,6,0,P|183:288|239:236,1,170,6|8,0:0|0:0,0:0:0:0:
329,230,93865,1,0,0:0:0:0:
419,224,94032,2,0,P|460:175|408:96,1,170,2|8,0:0|0:0,0:0:0:0:
324,97,94532,1,0,0:0:0:0:
137,363,94699,6,0,L|137:161,1,170,6|10,0:0|0:0,0:0:0:0:
234,188,95199,1,0,0:0:0:0:
321,193,95365,2,2,P|350:127|300:30,1,170,2|10,0:0|0:0,0:0:0:0:
127,50,95865,1,2,0:0:0:0:
280,104,96199,6,0,L|190:157,1,85,2|8,0:0|0:0,0:0:0:0:
133,189,96532,2,0,P|97:262|137:336,1,170,2|2,0:0|0:0,0:0:0:0:
312,328,97032,2,0,L|314:232,1,85,2|2,0:0|0:0,0:0:0:0:
124,88,97365,1,6,0:0:0:0:
