osu file format v14

[General]
AudioFilename: audio.mp3
AudioLeadIn: 0
PreviewTime: 54032
Countdown: 0
SampleSet: Normal
StackLeniency: 0.7
Mode: 2
LetterboxInBreaks: 0
WidescreenStoryboard: 1

[Editor]
DistanceSpacing: 1.5
BeatDivisor: 4
GridSize: 4
TimelineZoom: 2.1

[Metadata]
Title:Lights of Muse
TitleUnicode:Lights of Muse
Artist:Ayatsugu_Otowa
ArtistUnicode:Ayatsugu_Otowa
Creator:[_-Kukkai-_]
Version:PLATTER
Source:Muse Dash
Tags:00 Original Soundtrack PeroPeroGames X.D. Network Inc. Steam Buro Marija Rin cute Astreachan
BeatmapID:2184860
BeatmapSetID:1044462

[Difficulty]
HPDrainRate:5
CircleSize:3.5
OverallDifficulty:8
ApproachRate:8
SliderMultiplier:1.9
SliderTickRate:1

[Events]
//Background and Video events
0,0,"platter.jpg",0,0
//Break Periods
//Storyboard Layer 0 (Background)
//Storyboard Layer 1 (Fail)
//Storyboard Layer 2 (Pass)
//Storyboard Layer 3 (Foreground)
//Storyboard Layer 4 (Overlay)
//Storyboard Sound Samples

[TimingPoints]
700,333.333333333333,4,1,1,50,1,0
1366,333.333333333333,4,1,1,50,1,0
6699,-100,4,1,1,55,0,0
10699,-100,4,1,1,55,0,0
11365,-100,4,1,1,55,0,0
12032,-100,4,1,1,60,0,0
22699,-100,4,1,1,50,0,0
38699,-100,4,1,1,55,0,0
54032,-100,4,2,1,55,0,0
54699,-100,4,1,1,60,0,1
76032,-100,4,1,1,60,0,0
86699,-100,4,1,1,65,0,1
96032,-100,4,1,1,65,0,0

[Colours]
Combo1 : 199,51,255
Combo2 : 255,145,255
Combo3 : 254,91,69
Combo4 : 251,219,153

[HitObjects]
136,344,700,5,2,0:0:0:0:
91,328,783,1,0,0:0:0:0:
59,293,866,1,2,0:0:0:0:
47,248,949,1,0,0:0:0:0:
58,202,1033,1,8,0:0:0:0:
133,150,1199,1,2,0:0:0:0:
364,312,1366,5,6,0:0:0:0:
264,312,1532,2,0,L|264:200,1,95,0|8,0:0|0:0,0:0:0:0:
164,212,1865,2,0,L|164:80,1,95,0|2,0:0|0:0,0:0:0:0:
284,114,2199,2,0,L|284:234,1,95,0|8,0:0|0:0,0:0:0:0:
403,210,2532,6,0,L|403:94,1,95,0|2,0:0|0:0,0:0:0:0:
284,358,2865,2,0,L|201:285,1,95,0|8,0:0|0:0,0:0:0:0:
126,243,3199,2,0,L|126:107,1,95,0|2,0:0|0:0,0:0:0:0:
244,238,3532,2,0,L|345:195,1,95,0|8,0:0|0:0,0:0:0:0:
428,164,3865,1,0,0:0:0:0:
200,352,4032,5,6,0:0:0:0:
136,352,4199,2,0,P|92:276|155:209,1,190,0|2,0:0|0:0,0:0:0:0:
220,214,4615,1,2,0:0:0:0:
291,214,4699,2,0,L|365:120,1,95,2|2,0:0|0:0,0:0:0:0:
238,122,5032,2,0,L|237:19,1,95,8|2,0:0|0:0,0:0:0:0:
420,368,5365,6,0,L|514:323,3,95,2|2|8|0,0:0|0:0|0:0|0:0,0:0:0:0:
260,240,6032,2,0,L|224:139,1,95,2|0,0:0|0:0,0:0:0:0:
300,152,6365,1,8,0:0:0:0:
380,148,6532,1,2,0:0:0:0:
140,344,6699,5,6,0:0:0:0:
61,299,6865,1,2,0:0:0:0:
65,209,7032,1,8,0:0:0:0:
146,171,7199,1,2,0:0:0:0:
336,167,7365,1,2,0:0:0:0:
421,141,7532,1,2,0:0:0:0:
427,53,7699,1,8,0:0:0:0:
345,17,7865,1,2,0:0:0:0:
153,282,8032,5,2,0:0:0:0:
209,209,8199,1,2,0:0:0:0:
301,206,8365,1,8,0:0:0:0:
361,276,8532,1,2,0:0:0:0:
184,280,8699,2,0,L|93:209,1,95,2|2,0:0|0:0,0:0:0:0:
268,280,9032,2,0,L|366:221,1,95,8|0,0:0|0:0,0:0:0:0:
160,352,9365,5,2,0:0:0:0:
116,335,9448,1,0,0:0:0:0:
85,299,9531,1,0,0:0:0:0:
87,208,9698,1,2,0:0:0:0:
164,160,9865,1,2,0:0:0:0:
268,156,10032,5,2,0:0:0:0:
312,140,10115,1,2,0:0:0:0:
359,146,10198,1,2,0:0:0:0:
420,214,10365,1,2,0:0:0:0:
400,304,10532,1,2,0:0:0:0:
210,323,10699,6,0,L|112:256,1,95,8|0,0:0|0:0,0:0:0:0:
304,248,11032,2,0,L|303:130,1,110.833333333333,8|0,0:0|0:0,0:0:0:0:
148,124,11365,2,0,L|252:60,1,95,8|0,0:0|0:0,0:0:0:0:
372,36,11699,2,0,L|388:88,2,47.5
131,350,12032,6,0,L|131:245,1,95,6|0,0:0|0:0,0:0:0:0:
218,242,12365,2,0,L|303:175,1,95,8|0,0:0|0:0,0:0:0:0:
128,228,12699,2,0,L|36:160,1,95,2|0,0:0|0:0,0:0:0:0:
55,63,13032,2,0,L|160:0,1,95,8|0,0:0|0:0,0:0:0:0:
376,368,13365,6,0,L|376:291,1,47.5,2|2,0:0|0:0,0:0:0:0:
275,305,13615,2,0,L|181:238,2,95,8|8|8,0:0|0:0|0:0,0:0:0:0:
335,305,14032,5,8,0:0:0:0:
411,248,14198,1,0,0:0:0:0:
412,144,14365,1,8,0:0:0:0:
331,92,14531,1,0,0:0:0:0:
92,352,14699,5,6,0:0:0:0:
49,263,14865,2,0,L|132:184,1,95,0|8,0:0|0:0,0:0:0:0:
296,180,15199,1,0,0:0:0:0:
356,105,15365,2,0,L|272:20,1,95,2|0,0:0|0:0,0:0:0:0:
124,32,15699,2,0,P|88:64|124:88,1,95,8|0,0:0|0:0,0:0:0:0:
352,364,16032,6,0,P|372:308|336:280,1,95,2|0,0:0|0:0,0:0:0:0:
248,276,16365,2,0,L|164:224,1,95,8|0,0:0|0:0,0:0:0:0:
352,357,16699,5,2,0:0:0:0:
385,303,16782,1,0,0:0:0:0:
352,252,16865,1,2,0:0:0:0:
244,251,17032,1,8,0:0:0:0:
336,252,17199,1,0,0:0:0:0:
99,349,17365,6,0,L|15:304,1,95,6|0,0:0|0:0,0:0:0:0:
17,282,17699,2,0,L|112:223,1,95,8|0,0:0|0:0,0:0:0:0:
265,204,18032,6,0,L|368:152,1,95,2|0,0:0|0:0,0:0:0:0:
352,56,18365,2,0,L|264:12,1,95,8|0,0:0|0:0,0:0:0:0:
36,364,18698,6,0,L|37:280,1,47.5,2|2,0:0|0:0,0:0:0:0:
140,300,18948,2,0,L|231:233,2,95,8|8|8,0:0|0:0|0:0,0:0:0:0:
71,297,19365,5,8,0:0:0:0:
46,198,19531,1,0,0:0:0:0:
95,108,19699,1,8,0:0:0:0:
185,80,19865,1,0,0:0:0:0:
428,300,20032,6,0,L|429:244,1,47.5,6|0,0:0|0:0,0:0:0:0:
329,244,20282,2,0,L|329:184,1,47.5,8|8,0:0|0:0,0:0:0:0:
233,192,20532,2,0,L|233:128,1,47.5,8|8,0:0|0:0,0:0:0:0:
337,120,20782,2,0,L|385:120,1,47.5,8|8,0:0|0:0,0:0:0:0:
274,35,21032,2,0,L|220:120,1,95,8|8,0:0|0:0,0:0:0:0:
413,363,21365,5,8,0:0:0:0:
454,332,21448,1,0,0:0:0:0:
469,283,21531,1,0,0:0:0:0:
435,230,21614,1,0,0:0:0:0:
390,211,21699,1,8,0:0:0:0:
128,358,22032,5,8,0:0:0:0:
82,333,22115,1,0,0:0:0:0:
51,291,22198,1,2,0:0:0:0:
42,240,22281,1,0,0:0:0:0:
56,190,22365,1,8,0:0:0:0:
139,132,22531,1,2,0:0:0:0:
371,345,22699,6,0,P|420:302|342:213,1,190,6|8,0:0|0:0,0:0:0:0:
264,209,23199,2,0,L|165:136,1,95,0|2,0:0|0:0,0:0:0:0:
264,209,23532,2,0,L|366:135,1,95,2|8,0:0|0:0,0:0:0:0:
159,210,23865,6,0,L|159:85,1,95,0|2,0:0|0:0,0:0:0:0:
254,112,24199,2,0,L|253:-15,1,95,0|8,0:0|0:0,0:0:0:0:
352,103,24532,2,0,L|352:-26,1,95,0|2,0:0|0:0,0:0:0:0:
162,180,24865,2,0,L|69:128,2,95,2|8|0,0:0|0:0|0:0,0:0:0:0:
408,348,25365,6,0,P|479:303|412:208,1,190,6|8,0:0|0:0,0:0:0:0:
330,196,25865,2,0,L|330:66,1,95,0|2,0:0|0:0,0:0:0:0:
229,194,26199,2,0,L|228:60,1,95,2|8,0:0|0:0,0:0:0:0:
416,357,26532,6,0,L|528:283,1,95,0|2,0:0|0:0,0:0:0:0:
416,357,26865,2,0,L|307:290,1,95,0|8,0:0|0:0,0:0:0:0:
246,266,27199,2,0,L|248:162,1,95,0|2,0:0|0:0,0:0:0:0:
437,160,27532,2,0,L|502:60,1,95,2|8,0:0|0:0,0:0:0:0:
388,85,27865,1,0,0:0:0:0:
153,349,28032,6,0,P|99:269|170:220,1,190,6|8,0:0|0:0,0:0:0:0:
244,218,28532,2,0,L|346:189,1,95,0|2,0:0|0:0,0:0:0:0:
244,218,28865,2,0,L|150:162,1,95,2|8,0:0|0:0,0:0:0:0:
356,373,29199,6,0,L|357:257,1,95,0|2,0:0|0:0,0:0:0:0:
259,283,29532,2,0,L|260:185,1,95,0|8,0:0|0:0,0:0:0:0:
164,183,29865,2,0,L|164:73,1,95,0|2,0:0|0:0,0:0:0:0:
355,83,30199,2,0,L|455:51,2,95,2|8|0,0:0|0:0|0:0,0:0:0:0:
104,368,30699,6,0,L|24:305,2,95,6|0|8,0:0|0:0|0:0,0:0:0:0:
266,362,31199,2,0,L|268:238,1,95,0|2,0:0|0:0,0:0:0:0:
172,267,31532,2,0,L|220:168,1,95,2|8,0:0|0:0,0:0:0:0:
320,176,31865,1,0,0:0:0:0:
416,172,32032,6,0,L|480:88,2,95,2|0|8,0:0|0:0|0:0,0:0:0:0:
234,263,32532,1,0,0:0:0:0:
135,260,32699,1,2,0:0:0:0:
135,212,32782,1,0,0:0:0:0:
135,165,32865,1,2,0:0:0:0:
232,168,33032,1,8,0:0:0:0:
133,166,33199,1,0,0:0:0:0:
375,350,33365,5,6,0:0:0:0:
472,294,33532,2,0,L|472:188,1,95,0|8,0:0|0:0,0:0:0:0:
375,193,33865,2,0,L|269:144,1,95,0|2,0:0|0:0,0:0:0:0:
375,193,34199,2,0,L|459:95,1,95,2|8,0:0|0:0,0:0:0:0:
239,357,34532,6,0,L|239:257,1,95,0|2,0:0|0:0,0:0:0:0:
146,263,34865,2,0,L|146:134,1,95,0|8,0:0|0:0,0:0:0:0:
336,164,35199,2,0,L|458:115,2,95,0|2|2,0:0|0:0|0:0,0:0:0:0:
232,164,35699,2,0,L|140:92,1,95,8|0,0:0|0:0,0:0:0:0:
410,364,36032,6,0,P|462:322|401:232,1,190,6|8,0:0|0:0,0:0:0:0:
317,237,36532,1,0,0:0:0:0:
222,237,36699,2,0,L|220:113,1,95,2|2,0:0|0:0,0:0:0:0:
317,141,37032,1,8,0:0:0:0:
124,352,37199,6,0,L|124:240,1,95,0|2,0:0|0:0,0:0:0:0:
247,255,37532,1,0,0:0:0:0:
292,243,37615,1,0,0:0:0:0:
325,209,37698,1,8,0:0:0:0:
336,163,37782,1,0,0:0:0:0:
321,119,37865,1,0,0:0:0:0:
240,79,38032,5,2,0:0:0:0:
50,213,38199,2,0,L|50:104,1,95,2|8,0:0|0:0,0:0:0:0:
143,117,38532,1,0,0:0:0:0:
385,366,38699,6,0,L|480:338,1,95,6|0,0:0|0:0,0:0:0:0:
385,366,39032,2,0,L|274:322,1,95,8|0,0:0|0:0,0:0:0:0:
219,271,39365,2,0,L|219:138,1,95,2|2,0:0|0:0,0:0:0:0:
316,180,39699,1,8,0:0:0:0:
145,357,39865,1,0,0:0:0:0:
67,309,40032,5,2,0:0:0:0:
69,218,40199,1,0,0:0:0:0:
148,174,40365,1,8,0:0:0:0:
340,360,40532,2,0,L|427:310,2,95,0|2|2,0:0|0:0|0:0,0:0:0:0:
148,357,41032,2,0,L|148:226,1,95,8|0,0:0|0:0,0:0:0:0:
384,257,41365,5,6,0:0:0:0:
456,200,41531,1,0,0:0:0:0:
455,108,41698,1,8,0:0:0:0:
382,52,41865,1,0,0:0:0:0:
200,60,42032,6,0,L|200:155,1,95,2|2,0:0|0:0,0:0:0:0:
355,351,42365,2,0,L|430:266,1,95,8|0,0:0|0:0,0:0:0:0:
177,361,42699,5,2,0:0:0:0:
100,312,42865,1,0,0:0:0:0:
102,222,43032,1,8,0:0:0:0:
181,178,43199,1,0,0:0:0:0:
361,173,43365,6,0,L|363:57,1,95,2|2,0:0|0:0,0:0:0:0:
182,133,43699,2,0,L|150:28,1,95,8|0,0:0|0:0,0:0:0:0:
396,362,44032,6,0,L|491:306,2,95,6|0|8,0:0|0:0|0:0,0:0:0:0:
224,365,44532,2,0,P|166:316|241:228,1,190,2|2,0:0|0:0,0:0:0:0:
308,215,45032,2,0,L|406:160,1,95,8|0,0:0|0:0,0:0:0:0:
200,332,45365,6,0,L|201:210,1,95,2|0,0:0|0:0,0:0:0:0:
316,240,45699,2,0,L|315:131,1,95,8|2,0:0|0:0,0:0:0:0:
200,237,46032,2,0,L|201:118,1,95,0|2,0:0|0:0,0:0:0:0:
396,128,46365,2,0,L|356:32,1,95,8|0,0:0|0:0,0:0:0:0:
120,156,46699,6,0,L|17:120,2,95,6|0|8,0:0|0:0|0:0,0:0:0:0:
279,356,47199,2,0,P|337:314|263:230,1,190,2|2,0:0|0:0,0:0:0:0:
192,228,47699,2,0,L|102:168,1,95,8|0,0:0|0:0,0:0:0:0:
342,177,48032,6,0,L|475:106,2,142.5,2|0|2,0:0|0:0|0:0,0:0:0:0:
248,176,48699,2,0,L|247:68,1,95,0|2,0:0|0:0,0:0:0:0:
347,77,49032,2,0,L|346:195,1,95,8|0,0:0|0:0,0:0:0:0:
105,173,49365,6,0,L|7:141,2,95,6|0|8,0:0|0:0|0:0,0:0:0:0:
254,363,49865,2,0,P|311:309|246:226,1,190,0|0,0:0|0:0,0:0:0:0:
161,221,50365,2,0,L|55:175,1,95,8|0,0:0|0:0,0:0:0:0:
166,146,50699,6,0,L|283:95,1,95,2|0,0:0|0:0,0:0:0:0:
82,230,51032,2,0,L|83:343,1,95,8|0,0:0|0:0,0:0:0:0:
247,324,51365,2,0,L|246:216,1,95,2|0,0:0|0:0,0:0:0:0:
72,216,51699,2,0,L|96:100,1,95,8|0,0:0|0:0,0:0:0:0:
331,140,52032,6,0,L|453:140,2,95,6|0|8,0:0|0:0|0:0,0:0:0:0:
164,133,52532,2,0,L|59:191,2,95,0|2|0,0:0|0:0|0:0,0:0:0:0:
392,128,53032,2,0,L|392:243,1,95,8|0,0:0|0:0,0:0:0:0:
148,308,53365,5,2,0:0:0:0:
107,285,53448,1,0,0:0:0:0:
92,241,53531,1,0,0:0:0:0:
109,198,53615,1,0,0:0:0:0:
151,179,53698,1,0,0:0:0:0:
256,168,53865,1,0,0:0:0:0:
359,309,54032,6,0,L|359:192,1,95,2|2,0:0|0:0,0:0:0:0:
258,209,54365,1,2,0:0:0:0:
336,208,54532,1,2,0:0:0:0:
91,339,54699,6,0,P|41:300|105:204,1,190,6|8,0:0|0:0,0:0:0:0:
187,199,55199,1,0,0:0:0:0:
288,196,55365,1,2,0:0:0:0:
187,199,55532,2,0,L|160:88,1,95,2|8,0:0|0:0,0:0:0:0:
336,196,55865,6,0,L|336:93,1,95,0|2,0:0|0:0,0:0:0:0:
242,153,56199,2,0,L|335:93,1,95,0|8,0:0|0:0,0:0:0:0:
141,265,56532,2,0,P|64:218|99:121,1,190,0|2,0:0|0:0,0:0:0:0:
170,153,57032,2,0,L|51:107,1,95,8|0,0:0|0:0,0:0:0:0:
310,359,57365,6,0,P|368:323|295:241,1,190,6|8,0:0|0:0,0:0:0:0:
220,237,57865,2,0,L|220:130,1,95,0|2,0:0|0:0,0:0:0:0:
320,132,58199,2,0,L|400:48,1,95,2|8,0:0|0:0,0:0:0:0:
202,363,58532,6,0,L|200:248,1,95,0|2,0:0|0:0,0:0:0:0:
372,368,58865,2,0,L|372:260,1,95,0|8,0:0|0:0,0:0:0:0:
208,360,59199,2,0,L|210:253,1,95,0|2,0:0|0:0,0:0:0:0:
298,262,59532,1,2,0:0:0:0:
207,232,59698,1,8,0:0:0:0:
117,202,59865,1,0,0:0:0:0:
360,356,60032,6,0,P|420:313|352:208,1,190,6|8,0:0|0:0,0:0:0:0:
296,208,60532,1,0,0:0:0:0:
192,220,60699,1,2,0:0:0:0:
284,212,60865,2,0,L|312:100,1,95,2|8,0:0|0:0,0:0:0:0:
137,361,61199,6,0,L|137:260,1,95,0|2,0:0|0:0,0:0:0:0:
225,301,61532,2,0,L|140:228,1,95,0|8,0:0|0:0,0:0:0:0:
334,374,61865,2,0,P|256:304|211:222,1,190,0|2,0:0|0:0,0:0:0:0:
307,222,62365,1,8,0:0:0:0:
393,225,62532,1,0,0:0:0:0:
158,365,62699,6,0,P|100:316|172:242,1,190,6|8,0:0|0:0,0:0:0:0:
242,282,63199,2,0,L|148:231,1,95,0|2,0:0|0:0,0:0:0:0:
321,215,63532,2,0,L|321:101,1,95,2|8,0:0|0:0,0:0:0:0:
80,128,63865,5,2,0:0:0:0:
251,59,64199,1,2,0:0:0:0:
80,128,64532,1,2,0:0:0:0:
169,311,64699,5,2,0:0:0:0:
207,285,64782,1,0,0:0:0:0:
222,241,64865,1,8,0:0:0:0:
208,196,64949,1,0,0:0:0:0:
169,170,65032,1,2,0:0:0:0:
72,130,65199,1,8,0:0:0:0:
316,348,65365,6,0,P|400:316|345:235,1,190,6|8,0:0|0:0,0:0:0:0:
284,236,65865,1,0,0:0:0:0:
184,236,66032,1,2,0:0:0:0:
284,236,66199,2,0,L|388:164,1,95,2|8,0:0|0:0,0:0:0:0:
191,362,66532,6,0,L|191:238,1,95,0|2,0:0|0:0,0:0:0:0:
269,320,66865,2,0,L|360:264,1,95,0|8,0:0|0:0,0:0:0:0:
172,288,67199,2,0,P|140:204|216:148,1,190,0|2,0:0|0:0,0:0:0:0:
295,76,67699,1,8,0:0:0:0:
207,145,67865,1,0,0:0:0:0:
452,360,68032,6,0,P|503:299|430:223,1,190,6|8,0:0|0:0,0:0:0:0:
341,213,68532,2,0,L|238:166,1,95,0|2,0:0|0:0,0:0:0:0:
352,208,68865,2,0,L|352:104,1,95,2|8,0:0|0:0,0:0:0:0:
164,336,69199,6,0,L|76:278,1,95,0|2,0:0|0:0,0:0:0:0:
252,196,69532,2,0,L|252:96,1,95,0|8,0:0|0:0,0:0:0:0:
152,101,69865,1,0,0:0:0:0:
324,100,70032,2,2,L|325:195,1,95
152,101,70366,2,2,L|84:176,1,95
318,357,70699,6,0,L|418:316,2,95,6|0|8,0:0|0:0|0:0,0:0:0:0:
208,364,71199,1,0,0:0:0:0:
388,296,71365,2,0,L|388:176,1,95,2|2,0:0|0:0,0:0:0:0:
268,200,71699,1,8,0:0:0:0:
363,201,71865,1,0,0:0:0:0:
124,352,72032,6,0,L|125:238,1,95,6|0,0:0|0:0,0:0:0:0:
206,257,72365,1,8,0:0:0:0:
123,259,72532,1,0,0:0:0:0:
304,256,72699,1,2,0:0:0:0:
388,213,72865,1,2,0:0:0:0:
473,170,73032,1,8,0:0:0:0:
396,152,73199,1,0,0:0:0:0:
166,364,73365,5,6,0:0:0:0:
119,337,73448,1,2,0:0:0:0:
118,287,73531,1,2,0:0:0:0:
217,257,73699,1,10,0:0:0:0:
270,222,73782,1,2,0:0:0:0:
273,168,73865,1,2,0:0:0:0:
91,171,74032,6,0,L|0:94,1,95,2|2,0:0|0:0,0:0:0:0:
256,164,74365,2,0,L|272:48,1,95,10|2,0:0|0:0,0:0:0:0:
89,342,74865,6,0,L|89:209,1,95,0|2,0:0|0:0,0:0:0:0:
183,247,75199,2,0,L|303:212,1,95,8|2,0:0|0:0,0:0:0:0:
274,220,75532,1,2,0:0:0:0:
88,143,75699,2,0,L|27:120,2,47.5,2|2|2,0:0|0:0|0:0,0:0:0:0:
336,356,76032,6,0,L|224:302,1,95,6|0,0:0|0:0,0:0:0:0:
169,280,76365,2,0,L|168:154,1,95,8|0,0:0|0:0,0:0:0:0:
352,256,76699,2,0,L|288:168,1,95,2|0,0:0|0:0,0:0:0:0:
198,169,77032,2,0,L|142:258,1,95,8|0,0:0|0:0,0:0:0:0:
396,360,77365,6,0,L|396:283,1,47.5,2|2,0:0|0:0,0:0:0:0:
299,271,77615,2,0,L|186:200,1,95,8|8,0:0|0:0,0:0:0:0:
219,220,77949,1,8,0:0:0:0:
293,336,78032,5,8,0:0:0:0:
367,280,78198,1,0,0:0:0:0:
365,189,78365,1,8,0:0:0:0:
292,132,78531,1,0,0:0:0:0:
60,356,78699,5,6,0:0:0:0:
17,267,78865,2,0,L|120:200,1,95,0|8,0:0|0:0,0:0:0:0:
296,181,79199,1,0,0:0:0:0:
356,106,79365,2,0,L|284:24,1,95,2|0,0:0|0:0,0:0:0:0:
108,32,79699,2,0,P|96:88|116:116,1,95,8|0,0:0|0:0,0:0:0:0:
372,352,80032,6,0,L|464:288,1,95,2|0,0:0|0:0,0:0:0:0:
446,206,80365,2,0,L|360:148,1,95,8|0,0:0|0:0,0:0:0:0:
184,152,80699,6,0,L|136:114,2,47.5,2|0|2,0:0|0:0|0:0,0:0:0:0:
284,152,81032,1,8,0:0:0:0:
198,150,81199,1,0,0:0:0:0:
448,352,81365,6,0,L|448:234,1,95,6|0,0:0|0:0,0:0:0:0:
362,241,81699,2,0,L|291:158,1,95,8|0,0:0|0:0,0:0:0:0:
116,144,82032,2,0,L|188:56,1,95,2|0,0:0|0:0,0:0:0:0:
274,66,82365,2,0,L|332:152,1,95,8|0,0:0|0:0,0:0:0:0:
84,360,82699,6,0,L|84:283,1,47.5,2|2,0:0|0:0,0:0:0:0:
181,271,82949,2,0,L|294:200,1,95,8|8,0:0|0:0,0:0:0:0:
261,220,83283,1,8,0:0:0:0:
191,218,83366,5,8,0:0:0:0:
143,124,83532,1,8,0:0:0:0:
197,48,83699,1,2,0:0:0:0:
293,48,83865,1,8,0:0:0:0:
56,344,84032,6,0,L|56:285,1,47.5,6|0,0:0|0:0,0:0:0:0:
152,281,84282,2,0,L|152:233,1,47.5,8|8,0:0|0:0,0:0:0:0:
248,225,84532,2,0,L|248:165,1,47.5,8|8,0:0|0:0,0:0:0:0:
152,165,84782,2,0,L|152:101,1,47.5,8|8,0:0|0:0,0:0:0:0:
264,61,85032,2,0,L|296:164,1,95,8|8,0:0|0:0,0:0:0:0:
109,363,85365,5,2,0:0:0:0:
68,332,85448,1,0,0:0:0:0:
53,283,85531,1,8,0:0:0:0:
71,235,85614,1,0,0:0:0:0:
112,192,85699,1,2,0:0:0:0:
395,358,86032,5,2,0:0:0:0:
439,343,86115,1,2,0:0:0:0:
471,309,86198,1,2,0:0:0:0:
482,263,86281,1,0,0:0:0:0:
469,218,86365,1,2,0:0:0:0:
390,174,86531,1,2,0:0:0:0:
148,312,86699,6,0,P|88:264|143:175,1,190,6|8,0:0|0:0,0:0:0:0:
206,172,87199,1,0,0:0:0:0:
396,180,87365,1,2,0:0:0:0:
354,180,87448,1,0,0:0:0:0:
312,180,87531,1,0,0:0:0:0:
208,182,87698,1,8,0:0:0:0:
166,181,87781,1,0,0:0:0:0:
124,182,87864,1,0,0:0:0:0:
353,356,88032,6,0,L|268:296,1,95,2|0,0:0|0:0,0:0:0:0:
192,240,88365,1,8,0:0:0:0:
372,352,88532,2,0,P|420:288|348:220,1,190
252,217,89032,1,8,0:0:0:0:
339,218,89199,1,0,0:0:0:0:
100,360,89365,6,0,L|12:288,1,95,6|0,0:0|0:0,0:0:0:0:
199,262,89699,2,0,P|254:217|185:133,1,190,8|2,0:0|0:0,0:0:0:0:
105,133,90199,2,0,L|105:28,1,95,0|8,0:0|0:0,0:0:0:0:
344,36,90532,5,2,0:0:0:0:
178,39,90865,1,2,0:0:0:0:
344,36,91199,1,2,0:0:0:0:
256,354,91365,2,0,L|255:250,1,95,2|0,0:0|0:0,0:0:0:0:
330,243,91699,2,0,L|422:172,1,95,8|0,0:0|0:0,0:0:0:0:
164,236,92032,6,0,L|193:109,1,95,6|0,0:0|0:0,0:0:0:0:
275,137,92365,1,8,0:0:0:0:
371,137,92532,1,0,0:0:0:0:
184,364,92699,2,0,L|184:252,1,95,2|0,0:0|0:0,0:0:0:0:
284,272,93032,1,8,0:0:0:0:
180,268,93199,1,0,0:0:0:0:
412,160,93365,6,0,L|412:48,1,95,6|0,0:0|0:0,0:0:0:0:
317,61,93699,2,0,L|443:65,1,95,8|0,0:0|0:0,0:0:0:0:
224,360,94032,1,2,0:0:0:0:
147,314,94198,1,0,0:0:0:0:
64,264,94365,1,8,0:0:0:0:
152,188,94532,1,0,0:0:0:0:
384,368,94699,5,6,0:0:0:0:
433,339,94782,1,0,0:0:0:0:
430,292,94865,1,0,0:0:0:0:
240,276,95032,1,10,0:0:0:0:
184,272,95115,1,0,0:0:0:0:
184,216,95198,1,0,0:0:0:0:
364,188,95365,6,2,L|440:104,1,95,2|2,0:0|0:0,0:0:0:0:
192,100,95699,2,2,L|192:216,1,95,10|2,0:0|0:0,0:0:0:0:
344,365,96199,6,0,L|250:309,1,95,2|8,0:0|0:0,0:0:0:0:
358,266,96532,2,0,L|358:155,1,95,2|2,0:0|0:0,0:0:0:0:
272,173,96865,1,2,0:0:0:0:
95,167,97032,2,0,L|41:147,2,47.5,2|2|2,0:0|0:0|0:0,0:0:0:0:
358,171,97365,1,6,0:0:0:0:
