osu file format v14

[General]
AudioFilename: audio.mp3
AudioLeadIn: 0
PreviewTime: 54032
Countdown: 0
SampleSet: Normal
StackLeniency: 0.7
Mode: 2
LetterboxInBreaks: 0
WidescreenStoryboard: 1

[Editor]
DistanceSpacing: 1
BeatDivisor: 4
GridSize: 4
TimelineZoom: 2.1

[Metadata]
Title:Lights of Muse
TitleUnicode:Lights of Muse
Artist:Ayatsugu_Otowa
ArtistUnicode:Ayatsugu_Otowa
Creator:[_-Kukkai-_]
Version:OVERDOSE
Source:Muse Dash
Tags:00 Original Soundtrack PeroPeroGames X.D. Network Inc. Steam Buro Marija Rin cute Astreachan
BeatmapID:2184762
BeatmapSetID:1044462

[Difficulty]
HPDrainRate:6
CircleSize:4
OverallDifficulty:9.4
ApproachRate:9.4
SliderMultiplier:2.2
SliderTickRate:2

[Events]
//Background and Video events
0,0,"overdose.jpg",0,0
//Break Periods
//Storyboard Layer 0 (Background)
//Storyboard Layer 1 (Fail)
//Storyboard Layer 2 (Pass)
//Storyboard Layer 3 (Foreground)
//Storyboard Layer 4 (Overlay)
//Storyboard Sound Samples

[TimingPoints]
700,333.333333333333,4,1,1,50,1,0
1366,333.333333333333,4,1,1,50,1,0
6699,-100,4,1,1,55,0,0
10699,-45.4545454545455,4,1,1,55,0,0
11365,-111.111111111111,4,1,1,55,0,0
12032,-90.9090909090909,4,1,1,60,0,0
22699,-111.111111111111,4,1,1,50,0,0
38699,-111.111111111111,4,1,1,55,0,0
44032,-100,4,1,1,55,0,0
54032,-100,4,2,1,55,0,0
54699,-100,4,1,1,60,0,1
76032,-90.9090909090909,4,1,1,60,0,0
86699,-90.9090909090909,4,1,1,65,0,1
96032,-111.111111111111,4,1,1,65,0,0

[Colours]
Combo1 : 239,185,165
Combo2 : 237,129,127
Combo3 : 135,94,140
Combo4 : 186,58,71

[HitObjects]
272,348,700,6,0,L|272:264,1,55,2|0,0:0|0:0,0:0:0:0:
208,292,866,2,0,L|208:216,1,55,2|0,0:0|0:0,0:0:0:0:
380,216,1033,1,8,0:0:0:0:
427,193,1116,1,0,0:0:0:0:
429,140,1199,1,2,0:0:0:0:
384,113,1282,1,0,0:0:0:0:
192,108,1366,5,6,0:0:0:0:
360,356,1532,2,0,L|360:220,1,110,0|8,0:0|0:0,0:0:0:0:
196,252,1865,2,0,L|64:252,1,110,0|2,0:0|0:0,0:0:0:0:
252,252,2199,2,0,L|384:252,1,110,0|8,0:0|0:0,0:0:0:0:
196,252,2532,6,0,L|352:252,1,110,0|2,0:0|0:0,0:0:0:0:
140,256,2865,2,0,L|140:132,1,110,0|8,0:0|0:0,0:0:0:0:
308,144,3199,2,0,L|308:280,1,110,0|2,0:0|0:0,0:0:0:0:
476,260,3532,2,0,L|476:124,1,110,0|8,0:0|0:0,0:0:0:0:
368,148,3865,1,0,0:0:0:0:
136,216,4032,5,6,0:0:0:0:
44,220,4199,2,0,L|44:92,1,110,0|8,0:0|0:0,0:0:0:0:
288,116,4532,1,2,0:0:0:0:
344,116,4615,1,2,0:0:0:0:
400,116,4699,2,0,L|400:236,1,110,2|2,0:0|0:0,0:0:0:0:
152,204,5032,2,0,L|16:204,1,110,8|2,0:0|0:0,0:0:0:0:
100,208,5282,1,2,0:0:0:0:
368,208,5365,6,0,L|488:208,1,110,2|2,0:0|0:0,0:0:0:0:
312,208,5699,2,0,L|460:212,1,110,8|0,0:0|0:0,0:0:0:0:
164,344,6032,2,0,L|164:224,1,110,2|0,0:0|0:0,0:0:0:0:
328,236,6365,2,0,L|444:236,1,110,8|2,0:0|0:0,0:0:0:0:
380,236,6616,1,2,0:0:0:0:
132,124,6699,6,0,L|12:124,1,110,6|2,0:0|0:0,0:0:0:0:
188,124,7032,2,0,L|68:124,1,110,8|2,0:0|0:0,0:0:0:0:
134,125,7282,1,2,0:0:0:0:
392,125,7365,6,0,L|512:125,1,110,2|2,0:0|0:0,0:0:0:0:
336,125,7698,2,0,L|456:125,1,110,0|2,0:0|0:0,0:0:0:0:
391,127,7948,1,0,0:0:0:0:
240,344,8032,6,0,L|128:344,1,110,2|2,0:0|0:0,0:0:0:0:
300,344,8365,2,0,L|432:344,1,110,8|2,0:0|0:0,0:0:0:0:
356,344,8615,1,0,0:0:0:0:
140,276,8699,6,0,L|20:276,1,110,2|2,0:0|0:0,0:0:0:0:
300,276,9032,2,0,L|428:276,1,110,8|0,0:0|0:0,0:0:0:0:
164,276,9365,5,2,0:0:0:0:
121,244,9448,1,0,0:0:0:0:
123,191,9531,1,0,0:0:0:0:
168,164,9615,1,0,0:0:0:0:
232,164,9699,1,2,0:0:0:0:
286,161,9782,1,2,0:0:0:0:
330,130,9865,1,2,0:0:0:0:
328,72,9949,1,2,0:0:0:0:
104,356,10032,5,2,0:0:0:0:
55,336,10115,1,2,0:0:0:0:
54,284,10198,1,2,0:0:0:0:
102,262,10282,1,2,0:0:0:0:
272,256,10365,2,0,L|360:256,1,55,2|2,0:0|0:0,0:0:0:0:
272,248,10532,2,0,L|204:248,1,55,2|2,0:0|0:0,0:0:0:0:
16,56,10699,5,8,0:0:0:0:
500,56,11032,1,8,0:0:0:0:
273,329,11365,6,0,L|365:329,1,49.4999984893799,8|0,0:0|0:0,0:0:0:0:
372,329,11532,2,0,L|307:329,1,49.4999984893799,0|0,0:0|0:0,0:0:0:0:
168,220,11699,1,0,0:0:0:0:
126,196,11782,1,0,0:0:0:0:
125,149,11865,1,0,0:0:0:0:
166,125,11949,1,0,0:0:0:0:
368,344,12032,6,0,L|468:344,1,60.5000018463135,6|0,0:0|0:0,0:0:0:0:
368,344,12199,2,0,L|288:344,1,60.5000018463135,0|0,0:0|0:0,0:0:0:0:
244,344,12365,2,0,L|244:260,1,60.5000018463135,8|0,0:0|0:0,0:0:0:0:
312,268,12532,2,0,L|312:204,1,60.5000018463135,0|0,0:0|0:0,0:0:0:0:
140,200,12699,5,2,0:0:0:0:
88,175,12782,1,0,0:0:0:0:
86,117,12865,1,0,0:0:0:0:
136,90,12949,1,0,0:0:0:0:
296,196,13032,2,0,L|296:108,1,60.5000018463135,8|0,0:0|0:0,0:0:0:0:
224,132,13199,2,0,L|224:60,1,60.5000018463135,0|0,0:0|0:0,0:0:0:0:
396,68,13366,5,2,0:0:0:0:
232,360,13449,2,0,L|184:360,1,30.2500009231568,2|0,0:0|0:0,0:0:0:0:
108,288,13616,2,0,L|64:288,1,30.2500009231568,8|8,0:0|0:0,0:0:0:0:
16,200,13783,2,0,L|56:200,1,30.2500009231568,8|8,0:0|0:0,0:0:0:0:
140,200,13949,1,8,0:0:0:0:
316,200,14032,6,0,L|380:200,1,60.5000018463135,8|0,0:0|0:0,0:0:0:0:
376,200,14199,2,0,L|304:200,1,60.5000018463135,0|0,0:0|0:0,0:0:0:0:
160,136,14365,2,0,L|92:136,1,60.5000018463135,8|0,0:0|0:0,0:0:0:0:
292,136,14532,2,0,L|376:136,1,60.5000018463135,0|0,0:0|0:0,0:0:0:0:
96,352,14699,5,6,0:0:0:0:
38,339,14782,1,0,0:0:0:0:
11,287,14865,1,0,0:0:0:0:
33,232,14949,1,0,0:0:0:0:
89,214,15032,1,8,0:0:0:0:
408,212,15199,5,0,0:0:0:0:
463,193,15282,1,0,0:0:0:0:
486,139,15365,1,2,0:0:0:0:
461,86,15449,1,0,0:0:0:0:
405,71,15532,1,0,0:0:0:0:
80,164,15699,5,8,0:0:0:0:
32,131,15782,1,0,0:0:0:0:
35,73,15865,1,0,0:0:0:0:
87,47,15949,1,0,0:0:0:0:
276,296,16032,6,0,L|360:296,1,60.5000018463135,2|0,0:0|0:0,0:0:0:0:
276,296,16199,2,0,L|172:296,1,60.5000018463135,0|0,0:0|0:0,0:0:0:0:
124,296,16365,1,8,0:0:0:0:
70,277,16448,1,0,0:0:0:0:
66,220,16531,1,0,0:0:0:0:
118,196,16615,1,0,0:0:0:0:
292,192,16699,6,0,L|376:192,1,60.5000018463135,2|0,0:0|0:0,0:0:0:0:
292,192,16865,2,0,L|208:192,1,60.5000018463135,2|0,0:0|0:0,0:0:0:0:
388,140,17032,2,0,L|400:72,1,60.5000018463135,8|0,0:0|0:0,0:0:0:0:
196,148,17199,2,0,L|188:68,1,60.5000018463135,0|0,0:0|0:0,0:0:0:0:
368,344,17365,5,6,0:0:0:0:
420,320,17448,1,0,0:0:0:0:
426,263,17531,1,0,0:0:0:0:
379,230,17614,1,0,0:0:0:0:
316,228,17699,2,0,L|252:228,1,60.5000018463135,8|0,0:0|0:0,0:0:0:0:
192,224,17865,2,0,L|192:144,1,60.5000018463135,0|0,0:0|0:0,0:0:0:0:
340,152,18032,6,0,L|424:152,1,60.5000018463135,2|0,0:0|0:0,0:0:0:0:
461,152,18199,2,0,L|377:152,1,60.5000018463135,0|0,0:0|0:0,0:0:0:0:
232,148,18365,2,0,L|232:72,1,60.5000018463135,8|0,0:0|0:0,0:0:0:0:
308,80,18532,2,0,L|308:16,1,60.5000018463135,0|0,0:0|0:0,0:0:0:0:
120,68,18699,5,2,0:0:0:0:
284,360,18782,2,0,L|332:360,1,30.2500009231568,2|0,0:0|0:0,0:0:0:0:
408,288,18949,2,0,L|464:288,1,30.2500009231568,8|8,0:0|0:0,0:0:0:0:
500,200,19116,2,0,L|460:200,1,30.2500009231568,8|8,0:0|0:0,0:0:0:0:
376,200,19282,1,8,0:0:0:0:
220,200,19365,6,0,L|220:120,1,60.5000018463135,8|0,0:0|0:0,0:0:0:0:
292,120,19532,2,0,L|292:40,1,60.5000018463135,0|0,0:0|0:0,0:0:0:0:
136,60,19699,2,0,L|80:112,1,60.5000018463135,8|0,0:0|0:0,0:0:0:0:
284,60,19865,2,0,L|360:104,1,60.5000018463135,0|0,0:0|0:0,0:0:0:0:
116,352,20032,6,0,L|112:260,1,60.5000018463135,6|0,0:0|0:0,0:0:0:0:
280,276,20282,2,0,L|296:176,1,60.5000018463135,8|8,0:0|0:0,0:0:0:0:
124,196,20532,2,0,L|144:128,1,60.5000018463135,8|8,0:0|0:0,0:0:0:0:
316,148,20782,2,0,L|316:60,1,60.5000018463135,8|8,0:0|0:0,0:0:0:0:
152,76,21032,2,0,L|56:76,1,60.5000018463135,8|8,0:0|0:0,0:0:0:0:
91,76,21199,2,0,L|175:76,1,60.5000018463135,8|8,0:0|0:0,0:0:0:0:
296,360,21365,6,0,L|296:264,1,60.5000018463135,8|0,0:0|0:0,0:0:0:0:
224,296,21532,2,0,L|224:208,1,60.5000018463135,2|0,0:0|0:0,0:0:0:0:
416,232,21699,2,0,P|468:188|420:132,1,121.000003692627,8|2,0:0|0:0,0:0:0:0:
392,140,21949,1,0,0:0:0:0:
160,356,22032,5,8,0:0:0:0:
100,351,22115,1,0,0:0:0:0:
50,318,22198,1,2,0:0:0:0:
23,264,22281,1,0,0:0:0:0:
25,205,22365,1,8,0:0:0:0:
57,154,22448,1,0,0:0:0:0:
109,125,22531,1,2,0:0:0:0:
169,125,22615,1,0,0:0:0:0:
392,268,22699,6,0,L|496:268,2,98.9999969787599,6|0|8,0:0|0:0|0:0,0:0:0:0:
240,264,23199,2,0,L|240:148,1,98.9999969787599,0|2,0:0|0:0,0:0:0:0:
344,164,23532,2,0,L|344:56,1,98.9999969787599,2|8,0:0|0:0,0:0:0:0:
109,144,23865,6,0,L|109:248,1,98.9999969787599,0|2,0:0|0:0,0:0:0:0:
300,135,24199,2,0,L|300:235,1,98.9999969787599,0|8,0:0|0:0,0:0:0:0:
488,164,24532,2,0,L|488:60,1,98.9999969787599,0|2,0:0|0:0,0:0:0:0:
136,80,24865,1,2,0:0:0:0:
276,80,25032,1,8,0:0:0:0:
136,80,25199,1,0,0:0:0:0:
360,340,25365,6,0,L|484:344,2,98.9999969787599,6|0|8,0:0|0:0|0:0,0:0:0:0:
208,336,25865,2,0,L|208:224,1,98.9999969787599,0|2,0:0|0:0,0:0:0:0:
312,240,26199,2,0,L|444:240,1,98.9999969787599,2|8,0:0|0:0,0:0:0:0:
156,240,26532,5,0,0:0:0:0:
114,218,26615,1,0,0:0:0:0:
112,170,26698,1,2,0:0:0:0:
152,145,26781,1,0,0:0:0:0:
316,136,26865,1,0,0:0:0:0:
355,109,26948,1,0,0:0:0:0:
353,62,27031,1,0,0:0:0:0:
312,39,27114,1,0,0:0:0:0:
132,44,27199,1,0,0:0:0:0:
83,50,27282,1,0,0:0:0:0:
50,85,27365,5,2,0:0:0:0:
46,133,27448,1,0,0:0:0:0:
73,174,27532,1,2,0:0:0:0:
119,188,27615,1,0,0:0:0:0:
268,184,27699,2,0,L|328:184,1,49.4999984893799,8|0,0:0|0:0,0:0:0:0:
160,184,27865,2,0,L|92:184,1,49.4999984893799,0|0,0:0|0:0,0:0:0:0:
344,184,28032,6,0,L|464:184,2,98.9999969787599,6|0|8,0:0|0:0|0:0,0:0:0:0:
192,352,28532,2,0,L|64:352,1,98.9999969787599,0|2,0:0|0:0,0:0:0:0:
192,352,28865,2,0,L|296:352,1,98.9999969787599,2|8,0:0|0:0,0:0:0:0:
40,280,29199,6,0,L|28:152,1,98.9999969787599,0|2,0:0|0:0,0:0:0:0:
192,268,29532,2,0,L|296:267,1,98.9999969787599,0|8,0:0|0:0,0:0:0:0:
129,209,29865,2,0,L|247:212,1,98.9999969787599,0|2,0:0|0:0,0:0:0:0:
330,197,30199,2,0,L|330:86,1,98.9999969787599,2|8,0:0|0:0,0:0:0:0:
151,45,30533,1,0,0:0:0:0:
382,297,30699,5,6,0:0:0:0:
489,295,30866,2,0,L|489:163,1,98.9999969787599,0|8,0:0|0:0,0:0:0:0:
250,312,31199,2,0,L|242:200,1,98.9999969787599,0|2,0:0|0:0,0:0:0:0:
393,216,31533,1,2,0:0:0:0:
242,213,31699,2,0,L|362:213,1,98.9999969787599,8|0,0:0|0:0,0:0:0:0:
104,208,32032,6,0,L|88:80,1,98.9999969787599,2|0,0:0|0:0,0:0:0:0:
268,104,32365,2,0,L|376:104,1,98.9999969787599,8|0,0:0|0:0,0:0:0:0:
194,356,32699,5,2,0:0:0:0:
146,335,32782,1,0,0:0:0:0:
142,283,32865,1,2,0:0:0:0:
186,255,32948,1,0,0:0:0:0:
350,248,33032,1,8,0:0:0:0:
394,229,33115,1,0,0:0:0:0:
404,183,33198,1,0,0:0:0:0:
372,148,33281,1,0,0:0:0:0:
160,152,33365,6,0,L|36:152,2,98.9999969787599,6|0|8,0:0|0:0|0:0,0:0:0:0:
316,352,33865,2,0,L|316:236,1,98.9999969787599,0|2,0:0|0:0,0:0:0:0:
164,268,34199,2,0,L|164:144,1,98.9999969787599,2|8,0:0|0:0,0:0:0:0:
436,141,34532,6,0,L|436:25,1,98.9999969787599,0|2,0:0|0:0,0:0:0:0:
234,143,34865,2,0,L|234:23,1,98.9999969787599,0|8,0:0|0:0,0:0:0:0:
40,144,35199,2,0,L|36:20,1,98.9999969787599,0|2,0:0|0:0,0:0:0:0:
376,40,35532,1,2,0:0:0:0:
248,40,35699,1,8,0:0:0:0:
384,40,35865,1,0,0:0:0:0:
156,352,36032,6,0,L|20:352,1,98.9999969787599,6|0,0:0|0:0,0:0:0:0:
208,288,36365,2,0,L|312:288,1,98.9999969787599,8|0,0:0|0:0,0:0:0:0:
152,288,36699,2,0,L|148:156,1,98.9999969787599,2|2,0:0|0:0,0:0:0:0:
296,188,37032,1,8,0:0:0:0:
56,188,37199,6,0,P|36:124|80:96,1,98.9999969787599,0|2,0:0|0:0,0:0:0:0:
104,100,37449,1,0,0:0:0:0:
244,368,37532,2,0,L|296:368,1,49.4999984893799,0|0,0:0|0:0,0:0:0:0:
244,368,37699,2,0,L|176:368,1,49.4999984893799,8|0,0:0|0:0,0:0:0:0:
360,300,37865,1,0,0:0:0:0:
407,288,37948,1,0,0:0:0:0:
437,251,38031,5,0,0:0:0:0:
439,202,38115,1,0,0:0:0:0:
410,163,38198,1,2,0:0:0:0:
364,149,38281,1,0,0:0:0:0:
212,144,38365,2,0,L|160:128,1,49.4999984893799,8|0,0:0|0:0,0:0:0:0:
328,104,38532,2,0,L|388:76,1,49.4999984893799,0|0,0:0|0:0,0:0:0:0:
136,272,38699,6,0,L|20:272,1,98.9999969787599,6|0,0:0|0:0,0:0:0:0:
284,272,39032,2,0,L|416:272,1,98.9999969787599,8|0,0:0|0:0,0:0:0:0:
148,276,39365,2,0,L|140:144,1,98.9999969787599,2|2,0:0|0:0,0:0:0:0:
292,168,39699,1,8,0:0:0:0:
44,232,39865,6,0,L|28:104,1,98.9999969787599,0|2,0:0|0:0,0:0:0:0:
184,72,40199,1,0,0:0:0:0:
28,76,40365,1,8,0:0:0:0:
364,208,40532,2,0,L|500:208,1,98.9999969787599,0|2,0:0|0:0,0:0:0:0:
312,116,40865,1,2,0:0:0:0:
464,204,41032,1,8,0:0:0:0:
152,132,41199,1,0,0:0:0:0:
376,348,41365,5,6,0:0:0:0:
421,333,41448,1,0,0:0:0:0:
433,287,41531,1,0,0:0:0:0:
402,251,41615,1,0,0:0:0:0:
316,248,41699,2,0,L|244:248,1,49.4999984893799,8|0,0:0|0:0,0:0:0:0:
316,248,41865,1,0,0:0:0:0:
364,248,41948,1,0,0:0:0:0:
402,218,42031,5,0,0:0:0:0:
413,170,42115,1,0,0:0:0:0:
392,127,42198,1,2,0:0:0:0:
348,106,42281,1,0,0:0:0:0:
144,108,42365,2,0,L|72:108,1,49.4999984893799,8|0,0:0|0:0,0:0:0:0:
144,108,42532,2,0,L|220:108,1,49.4999984893799,0|0,0:0|0:0,0:0:0:0:
368,340,42699,5,2,0:0:0:0:
398,302,42782,1,0,0:0:0:0:
389,255,42865,1,0,0:0:0:0:
347,232,42949,1,0,0:0:0:0:
296,232,43032,1,8,0:0:0:0:
250,217,43115,1,0,0:0:0:0:
229,174,43198,1,0,0:0:0:0:
248,130,43282,1,0,0:0:0:0:
424,124,43365,6,0,L|488:124,1,49.4999984893799,2|0,0:0|0:0,0:0:0:0:
424,124,43532,2,0,L|360:124,1,49.4999984893799,2|0,0:0|0:0,0:0:0:0:
224,125,43699,2,0,L|172:125,1,49.4999984893799,8|0,0:0|0:0,0:0:0:0:
325,124,43865,2,0,L|401:124,1,49.4999984893799,0|0,0:0|0:0,0:0:0:0:
136,68,44032,6,0,L|20:68,2,110,6|0|8,0:0|0:0|0:0,0:0:0:0:
376,348,44532,2,0,P|436:304|360:200,1,220,2|2,0:0|0:0,0:0:0:0:
200,200,45032,2,0,L|352:200,1,110,8|0,0:0|0:0,0:0:0:0:
40,344,45365,6,0,L|36:212,1,110,2|0,0:0|0:0,0:0:0:0:
228,308,45699,2,0,L|308:230,1,110,8|2,0:0|0:0,0:0:0:0:
62,237,46032,2,0,L|30:114,1,110,0|2,0:0|0:0,0:0:0:0:
276,229,46366,2,0,L|310:112,1,110,8|0,0:0|0:0,0:0:0:0:
52,92,46699,5,6,0:0:0:0:
184,92,46866,1,0,0:0:0:0:
52,92,47033,1,8,0:0:0:0:
340,320,47199,2,0,L|72:320,1,220,2|2,0:0|0:0,0:0:0:0:
368,256,47699,2,0,L|388:144,1,110,8|0,0:0|0:0,0:0:0:0:
140,248,48032,6,0,L|132:108,1,110,2|0,0:0|0:0,0:0:0:0:
220,136,48282,1,0,0:0:0:0:
304,128,48365,2,0,L|312:256,1,110,8|2,0:0|0:0,0:0:0:0:
24,236,48699,2,0,L|152:236,1,110,0|2,0:0|0:0,0:0:0:0:
300,240,49032,1,8,0:0:0:0:
134,236,49199,2,0,L|134:152,1,55
340,336,49365,6,0,L|400:336,1,55,6|0,0:0|0:0,0:0:0:0:
340,336,49532,2,0,L|268:336,1,55,0|0,0:0|0:0,0:0:0:0:
108,332,49699,2,0,L|104:260,1,55,8|0,0:0|0:0,0:0:0:0:
324,264,49865,1,0,0:0:0:0:
374,243,49948,1,0,0:0:0:0:
404,198,50031,5,2,0:0:0:0:
405,144,50115,1,0,0:0:0:0:
376,98,50198,1,0,0:0:0:0:
327,75,50281,1,0,0:0:0:0:
172,160,50365,1,8,0:0:0:0:
118,149,50448,1,0,0:0:0:0:
74,117,50531,1,0,0:0:0:0:
47,70,50615,1,0,0:0:0:0:
300,168,50699,5,2,0:0:0:0:
347,144,50782,1,0,0:0:0:0:
354,92,50865,1,0,0:0:0:0:
315,57,50949,1,0,0:0:0:0:
116,172,51032,1,8,0:0:0:0:
70,144,51115,1,0,0:0:0:0:
69,91,51198,1,0,0:0:0:0:
112,61,51282,1,0,0:0:0:0:
260,256,51365,6,0,L|320:256,1,55,2|0,0:0|0:0,0:0:0:0:
260,256,51532,2,0,L|180:256,1,55,0|0,0:0|0:0,0:0:0:0:
388,176,51699,2,0,L|460:176,1,55,8|0,0:0|0:0,0:0:0:0:
436,176,51865,2,0,L|356:176,1,55,0|0,0:0|0:0,0:0:0:0:
188,176,52032,6,0,L|116:176,1,55,6|0,0:0|0:0,0:0:0:0:
296,176,52199,1,0,0:0:0:0:
345,159,52282,1,0,0:0:0:0:
350,107,52365,1,8,0:0:0:0:
306,80,52449,1,0,0:0:0:0:
112,84,52532,2,0,L|20:84,1,55,0|0,0:0|0:0,0:0:0:0:
260,176,52699,5,2,0:0:0:0:
309,157,52782,1,0,0:0:0:0:
319,106,52865,1,0,0:0:0:0:
280,70,52949,1,0,0:0:0:0:
128,136,53032,2,0,L|48:136,1,55,8|0,0:0|0:0,0:0:0:0:
268,136,53199,2,0,L|336:136,1,55,0|0,0:0|0:0,0:0:0:0:
140,304,53365,5,2,0:0:0:0:
91,281,53448,1,0,0:0:0:0:
74,231,53531,1,0,0:0:0:0:
100,184,53615,1,0,0:0:0:0:
152,172,53698,1,0,0:0:0:0:
36,112,53866,1,0,0:0:0:0:
264,264,54032,6,0,L|340:264,1,55,2|2,0:0|0:0,0:0:0:0:
264,264,54199,2,0,L|184:264,1,55,2|2,0:0|0:0,0:0:0:0:
272,204,54365,2,0,L|272:124,1,55,2|2,0:0|0:0,0:0:0:0:
196,136,54532,2,0,L|196:56,1,55,2|2,0:0|0:0,0:0:0:0:
376,352,54699,6,0,L|492:352,1,110,6|0,0:0|0:0,0:0:0:0:
312,352,55032,2,0,L|196:352,1,110,8|0,0:0|0:0,0:0:0:0:
368,252,55366,1,2,0:0:0:0:
120,252,55532,2,0,L|120:120,1,110,2|8,0:0|0:0,0:0:0:0:
416,132,55865,6,0,L|416:260,1,110,0|2,0:0|0:0,0:0:0:0:
248,244,56199,1,0,0:0:0:0:
416,240,56365,1,8,0:0:0:0:
160,348,56532,2,0,L|136:232,1,110,0|2,0:0|0:0,0:0:0:0:
304,236,56865,1,2,0:0:0:0:
28,240,57032,2,0,L|80:124,1,110,8|0,0:0|0:0,0:0:0:0:
448,248,57365,6,0,L|448:132,1,110,6|0,0:0|0:0,0:0:0:0:
276,136,57699,2,0,L|396:136,1,110,8|0,0:0|0:0,0:0:0:0:
216,80,58033,1,2,0:0:0:0:
460,360,58199,2,0,L|460:220,1,110,2|8,0:0|0:0,0:0:0:0:
168,344,58532,6,0,L|168:220,1,110,0|2,0:0|0:0,0:0:0:0:
400,228,58865,2,0,L|400:100,1,110,0|8,0:0|0:0,0:0:0:0:
168,128,59199,1,0,0:0:0:0:
472,68,59366,5,2,0:0:0:0:
336,68,59533,1,2,0:0:0:0:
472,68,59699,1,8,0:0:0:0:
156,352,59866,1,0,0:0:0:0:
316,288,60032,6,0,L|316:160,1,110,6|0,0:0|0:0,0:0:0:0:
152,168,60365,2,0,L|268:168,1,110,8|0,0:0|0:0,0:0:0:0:
96,80,60699,1,2,0:0:0:0:
364,352,60865,2,0,L|364:216,1,110,2|8,0:0|0:0,0:0:0:0:
92,304,61199,6,0,L|92:192,1,110,0|2,0:0|0:0,0:0:0:0:
264,200,61533,1,0,0:0:0:0:
92,194,61699,1,8,0:0:0:0:
328,200,61865,2,0,L|472:200,1,110,0|2,0:0|0:0,0:0:0:0:
268,120,62199,1,2,0:0:0:0:
496,44,62365,2,0,L|372:44,1,110,8|0,0:0|0:0,0:0:0:0:
64,356,62699,6,0,L|64:224,1,110,6|0,0:0|0:0,0:0:0:0:
256,248,63032,2,0,L|144:248,1,110,8|0,0:0|0:0,0:0:0:0:
392,256,63366,1,2,0:0:0:0:
104,264,63532,2,0,L|104:128,1,110,2|8,0:0|0:0,0:0:0:0:
368,96,63866,5,2,0:0:0:0:
68,92,64199,1,2,0:0:0:0:
368,96,64533,1,2,0:0:0:0:
208,352,64699,6,0,L|208:268,1,55,2|0,0:0|0:0,0:0:0:0:
280,280,64865,2,0,L|280:200,1,55,8|0,0:0|0:0,0:0:0:0:
128,212,65032,2,0,L|56:212,1,55,2|0,0:0|0:0,0:0:0:0:
284,168,65199,2,0,L|360:168,1,55,8|0,0:0|0:0,0:0:0:0:
136,160,65365,6,0,L|136:40,1,110,6|0,0:0|0:0,0:0:0:0:
304,56,65699,2,0,L|176:56,1,110,8|0,0:0|0:0,0:0:0:0:
372,60,66033,1,2,0:0:0:0:
136,356,66199,2,0,L|0:356,1,110,2|8,0:0|0:0,0:0:0:0:
328,352,66532,6,0,L|444:352,1,110,0|2,0:0|0:0,0:0:0:0:
272,264,66866,1,0,0:0:0:0:
438,352,67033,1,8,0:0:0:0:
124,276,67199,2,0,L|124:144,1,110,0|2,0:0|0:0,0:0:0:0:
392,92,67532,1,2,0:0:0:0:
244,88,67699,1,8,0:0:0:0:
392,92,67865,1,0,0:0:0:0:
40,292,68032,6,0,L|168:292,1,110,6|0,0:0|0:0,0:0:0:0:
316,296,68365,2,0,L|200:296,1,110,8|0,0:0|0:0,0:0:0:0:
380,232,68699,1,2,0:0:0:0:
104,348,68866,2,0,L|104:220,1,110,2|8,0:0|0:0,0:0:0:0:
384,228,69199,6,0,L|384:112,1,110,0|2,0:0|0:0,0:0:0:0:
136,112,69533,2,0,L|24:112,1,110,0|8,0:0|0:0,0:0:0:0:
368,120,69866,1,0,0:0:0:0:
56,296,70033,1,2,0:0:0:0:
192,292,70199,1,2,0:0:0:0:
56,296,70366,1,2,0:0:0:0:
384,228,70533,1,2,0:0:0:0:
144,224,70699,6,0,L|144:100,1,110,6|0,0:0|0:0,0:0:0:0:
304,116,71032,1,8,0:0:0:0:
44,272,71199,2,0,L|44:144,1,110,0|2,0:0|0:0,0:0:0:0:
208,264,71532,2,0,L|208:148,1,110,2|8,0:0|0:0,0:0:0:0:
40,156,71865,1,0,0:0:0:0:
340,156,72032,6,0,L|460:156,1,110,6|0,0:0|0:0,0:0:0:0:
176,152,72365,2,0,L|320:152,1,110,8|0,0:0|0:0,0:0:0:0:
40,356,72699,2,0,L|32:228,1,110,2|2,0:0|0:0,0:0:0:0:
212,240,73032,2,0,L|92:240,1,110,8|0,0:0|0:0,0:0:0:0:
352,236,73365,5,6,0:0:0:0:
400,214,73448,1,2,0:0:0:0:
407,162,73531,1,2,0:0:0:0:
367,128,73614,1,2,0:0:0:0:
200,128,73699,1,10,0:0:0:0:
146,117,73782,1,2,0:0:0:0:
103,84,73865,1,2,0:0:0:0:
78,35,73948,1,2,0:0:0:0:
284,344,74032,5,2,0:0:0:0:
335,325,74115,1,0,0:0:0:0:
379,293,74198,1,2,0:0:0:0:
411,248,74281,1,0,0:0:0:0:
240,236,74365,2,0,L|168:236,1,55,10|2,0:0|0:0,0:0:0:0:
352,176,74532,2,0,L|428:176,2,55,2|2|2,0:0|0:0|0:0,0:0:0:0:
60,272,74865,6,0,L|52:140,1,110,0|2,0:0|0:0,0:0:0:0:
304,220,75199,1,8,0:0:0:0:
200,224,75365,2,0,L|200:140,1,55,2|2,0:0|0:0,0:0:0:0:
352,140,75532,2,0,L|420:136,1,55,2|2,0:0|0:0,0:0:0:0:
204,144,75699,1,2,0:0:0:0:
160,113,75782,1,2,0:0:0:0:
164,61,75865,1,2,0:0:0:0:
211,38,75948,1,0,0:0:0:0:
412,348,76032,5,6,0:0:0:0:
463,323,76115,1,0,0:0:0:0:
465,265,76198,1,0,0:0:0:0:
415,237,76281,1,0,0:0:0:0:
348,240,76365,2,0,L|276:240,1,60.5000018463135,8|0,0:0|0:0,0:0:0:0:
348,240,76532,2,0,L|420:240,1,60.5000018463135,0|0,0:0|0:0,0:0:0:0:
232,296,76699,6,0,L|232:216,1,60.5000018463135,2|0,0:0|0:0,0:0:0:0:
296,212,76865,2,0,L|368:212,1,60.5000018463135,0|0,0:0|0:0,0:0:0:0:
144,200,77032,1,8,0:0:0:0:
90,180,77115,1,0,0:0:0:0:
86,123,77198,1,0,0:0:0:0:
137,96,77281,1,0,0:0:0:0:
328,84,77366,5,2,0:0:0:0:
144,364,77449,2,0,L|96:364,1,30.2500009231568,2|0,0:0|0:0,0:0:0:0:
48,288,77616,2,0,L|4:288,1,30.2500009231568,8|8,0:0|0:0,0:0:0:0:
16,200,77783,2,0,L|56:200,1,30.2500009231568,8|8,0:0|0:0,0:0:0:0:
140,200,77949,1,8,0:0:0:0:
352,200,78032,5,8,0:0:0:0:
401,170,78115,1,0,0:0:0:0:
399,112,78198,1,0,0:0:0:0:
347,86,78281,1,0,0:0:0:0:
192,88,78365,2,0,L|120:88,1,60.5000018463135,8|0,0:0|0:0,0:0:0:0:
324,88,78532,2,0,L|424:88,1,60.5000018463135,0|0,0:0|0:0,0:0:0:0:
96,352,78699,5,6,0:0:0:0:
38,339,78782,1,0,0:0:0:0:
11,287,78865,1,0,0:0:0:0:
33,232,78949,1,0,0:0:0:0:
89,214,79032,1,8,0:0:0:0:
408,212,79199,5,0,0:0:0:0:
463,193,79282,1,0,0:0:0:0:
486,139,79365,1,2,0:0:0:0:
461,86,79449,1,0,0:0:0:0:
405,71,79532,1,0,0:0:0:0:
80,164,79699,5,8,0:0:0:0:
32,131,79782,1,0,0:0:0:0:
35,73,79865,1,0,0:0:0:0:
87,47,79949,1,0,0:0:0:0:
300,352,80032,6,0,L|300:272,1,60.5000018463135,2|0,0:0|0:0,0:0:0:0:
224,284,80199,2,0,L|224:208,1,60.5000018463135,0|0,0:0|0:0,0:0:0:0:
304,220,80365,1,8,0:0:0:0:
357,199,80448,1,0,0:0:0:0:
360,142,80531,1,0,0:0:0:0:
309,116,80614,1,0,0:0:0:0:
120,140,80699,5,2,0:0:0:0:
66,120,80782,1,0,0:0:0:0:
62,63,80865,1,0,0:0:0:0:
112,37,80948,1,0,0:0:0:0:
256,32,81032,2,0,L|316:32,1,60.5000018463135,8|0,0:0|0:0,0:0:0:0:
164,32,81199,2,0,L|72:32,1,60.5000018463135,0|0,0:0|0:0,0:0:0:0:
296,356,81365,6,0,L|364:356,1,60.5000018463135,6|0,0:0|0:0,0:0:0:0:
416,308,81532,2,0,L|416:240,1,60.5000018463135,0|0,0:0|0:0,0:0:0:0:
316,232,81699,2,0,L|232:232,1,60.5000018463135,8|0,0:0|0:0,0:0:0:0:
192,188,81865,2,0,L|192:120,1,60.5000018463135,0|0,0:0|0:0,0:0:0:0:
340,124,82032,6,0,L|340:40,1,60.5000018463135,2|0,0:0|0:0,0:0:0:0:
260,60,82199,2,0,L|260:-4,1,60.5000018463135,0|0,0:0|0:0,0:0:0:0:
416,180,82365,1,8,0:0:0:0:
469,160,82448,1,0,0:0:0:0:
471,103,82531,1,0,0:0:0:0:
418,80,82614,1,0,0:0:0:0:
180,72,82699,5,2,0:0:0:0:
340,328,82782,2,0,L|388:328,1,30.2500009231568,2|0,0:0|0:0,0:0:0:0:
436,252,82949,2,0,L|480:252,1,30.2500009231568,8|8,0:0|0:0,0:0:0:0:
468,164,83116,2,0,L|428:164,1,30.2500009231568,8|8,0:0|0:0,0:0:0:0:
344,164,83282,1,8,0:0:0:0:
160,344,83365,6,0,L|68:344,1,60.5000018463135,8|0,0:0|0:0,0:0:0:0:
160,344,83532,2,0,L|244:344,1,60.5000018463135,8|0,0:0|0:0,0:0:0:0:
72,296,83699,2,0,L|64:208,1,60.5000018463135,2|0,0:0|0:0,0:0:0:0:
248,220,83865,2,0,L|264:140,1,60.5000018463135,8|0,0:0|0:0,0:0:0:0:
108,352,84032,6,0,L|104:260,1,60.5000018463135,6|0,0:0|0:0,0:0:0:0:
272,276,84282,2,0,L|288:176,1,60.5000018463135,8|8,0:0|0:0,0:0:0:0:
116,196,84532,2,0,L|136:128,1,60.5000018463135,8|8,0:0|0:0,0:0:0:0:
308,148,84782,2,0,L|308:60,1,60.5000018463135,8|8,0:0|0:0,0:0:0:0:
144,76,85032,2,0,L|48:76,1,60.5000018463135,8|8,0:0|0:0,0:0:0:0:
83,76,85199,2,0,L|167:76,1,60.5000018463135,8|8,0:0|0:0,0:0:0:0:
296,360,85365,6,0,L|296:264,1,60.5000018463135,2|0,0:0|0:0,0:0:0:0:
224,296,85532,2,0,L|224:208,1,60.5000018463135,8|0,0:0|0:0,0:0:0:0:
416,232,85699,2,0,P|468:188|420:132,1,121.000003692627,2|0,0:0|0:0,0:0:0:0:
392,140,85949,1,0,0:0:0:0:
212,136,86032,2,0,L|140:136,1,60.5000018463135,2|2,0:0|0:0,0:0:0:0:
320,136,86199,2,0,L|336:60,1,60.5000018463135,2|2,0:0|0:0,0:0:0:0:
140,64,86365,2,0,L|56:64,1,60.5000018463135,2|2,0:0|0:0,0:0:0:0:
140,64,86532,2,0,L|208:64,1,60.5000018463135,2|2,0:0|0:0,0:0:0:0:
364,353,86699,6,0,L|364:211,1,121.000003692627,6|0,0:0|0:0,0:0:0:0:
184,228,87032,1,8,0:0:0:0:
364,232,87199,1,0,0:0:0:0:
104,344,87365,1,2,0:0:0:0:
51,320,87448,1,0,0:0:0:0:
49,263,87531,1,0,0:0:0:0:
100,236,87614,1,0,0:0:0:0:
330,225,87699,2,0,L|370:149,1,60.5000018463135,8|0,0:0|0:0,0:0:0:0:
185,362,87865,2,0,L|184:294,1,60.5000018463135,0|0,0:0|0:0,0:0:0:0:
259,294,88032,6,0,L|259:214,1,60.5000018463135,2|0,0:0|0:0,0:0:0:0:
191,235,88199,1,0,0:0:0:0:
468,200,88365,1,8,0:0:0:0:
152,344,88532,2,0,L|20:344,1,121.000003692627,0|2,0:0|0:0,0:0:0:0:
296,336,88865,1,0,0:0:0:0:
36,344,89032,2,0,L|36:188,1,121.000003692627,8|0,0:0|0:0,0:0:0:0:
284,216,89365,6,0,L|424:216,1,121.000003692627,6|0,0:0|0:0,0:0:0:0:
136,216,89699,2,0,L|116:88,1,121.000003692627,8|0,0:0|0:0,0:0:0:0:
304,96,90032,2,0,L|444:96,1,121.000003692627,2|0,0:0|0:0,0:0:0:0:
104,88,90365,2,0,L|176:88,1,60.5000018463135,8|0,0:0|0:0,0:0:0:0:
432,296,90532,6,0,L|432:156,1,121.000003692627,0|2,0:0|0:0,0:0:0:0:
160,304,90865,2,0,L|160:168,1,121.000003692627,0|8,0:0|0:0,0:0:0:0:
416,172,91199,2,0,L|416:44,1,121.000003692627,0|2,0:0|0:0,0:0:0:0:
24,100,91532,1,0,0:0:0:0:
156,112,91699,1,8,0:0:0:0:
24,100,91865,1,0,0:0:0:0:
288,368,92032,6,0,L|372:368,1,60.5000018463135,6|0,0:0|0:0,0:0:0:0:
288,368,92199,2,0,L|212:368,1,60.5000018463135,0|0,0:0|0:0,0:0:0:0:
368,312,92365,2,0,L|440:312,1,60.5000018463135,8|0,0:0|0:0,0:0:0:0:
368,312,92532,2,0,L|284:308,1,60.5000018463135,0|0,0:0|0:0,0:0:0:0:
452,256,92699,6,0,L|452:188,1,60.5000018463135,2|0,0:0|0:0,0:0:0:0:
384,160,92865,2,0,L|308:160,1,60.5000018463135,0|0,0:0|0:0,0:0:0:0:
500,92,93032,1,8,0:0:0:0:
439,90,93115,1,0,0:0:0:0:
379,89,93198,1,0,0:0:0:0:
318,88,93281,1,0,0:0:0:0:
136,316,93365,6,0,L|48:316,1,60.5000018463135,6|0,0:0|0:0,0:0:0:0:
136,316,93532,2,0,L|232:316,1,60.5000018463135,0|0,0:0|0:0,0:0:0:0:
28,268,93699,2,0,L|28:184,1,60.5000018463135,8|0,0:0|0:0,0:0:0:0:
88,168,93865,2,0,L|164:168,1,60.5000018463135,0|0,0:0|0:0,0:0:0:0:
364,176,94032,5,2,0:0:0:0:
416,152,94115,1,0,0:0:0:0:
418,94,94198,1,0,0:0:0:0:
368,67,94281,1,0,0:0:0:0:
152,168,94365,1,8,0:0:0:0:
101,140,94448,1,0,0:0:0:0:
103,83,94531,1,0,0:0:0:0:
155,59,94614,1,0,0:0:0:0:
404,96,94699,6,0,L|472:96,1,60.5000018463135,6|0,0:0|0:0,0:0:0:0:
404,96,94865,2,0,L|332:96,1,60.5000018463135,0|0,0:0|0:0,0:0:0:0:
180,344,95032,2,0,L|180:264,1,60.5000018463135,10|0,0:0|0:0,0:0:0:0:
256,272,95199,2,0,L|256:192,1,60.5000018463135,0|0,0:0|0:0,0:0:0:0:
88,200,95365,6,0,L|88:136,1,60.5000018463135,2|0,0:0|0:0,0:0:0:0:
272,144,95532,2,0,L|356:144,1,60.5000018463135,2|0,0:0|0:0,0:0:0:0:
152,140,95699,2,0,L|70:141,1,60.5000018463135,10|0,0:0|0:0,0:0:0:0:
356,144,95865,2,0,L|416:144,2,60.5000018463135,2|0|0,0:0|0:0|0:0,0:0:0:0:
60,348,96199,6,0,L|60:228,1,98.9999969787599,2|8,0:0|0:0,0:0:0:0:
332,240,96532,1,2,0:0:0:0:
216,240,96699,6,0,L|216:184,1,49.4999984893799,2|2,0:0|0:0,0:0:0:0:
268,152,96865,2,0,L|341:151,1,49.4999984893799,2|2,0:0|0:0,0:0:0:0:
148,88,97032,2,0,L|64:88,1,49.4999984893799,2|2,0:0|0:0,0:0:0:0:
148,88,97199,2,0,L|224:88,1,49.4999984893799,2|0,0:0|0:0,0:0:0:0:
392,88,97365,1,6,0:0:0:0:
