osu file format v14

[General]
AudioFilename: audio.mp3
AudioLeadIn: 0
PreviewTime: 54032
Countdown: 0
SampleSet: Normal
StackLeniency: 0.7
Mode: 2
LetterboxInBreaks: 0
WidescreenStoryboard: 1

[Editor]
DistanceSpacing: 1
BeatDivisor: 4
GridSize: 4
TimelineZoom: 3.099999

[Metadata]
Title:Lights of Muse
TitleUnicode:Lights of Muse
Artist:Ayatsugu_Otowa
ArtistUnicode:Ayatsugu_Otowa
Creator:[_-Kukkai-_]
Version:CUP
Source:Muse Dash
Tags:00 Original Soundtrack PeroPeroGames X.D. Network Inc. Steam Buro Marija Rin cute Astreachan
BeatmapID:2189993
BeatmapSetID:1044462

[Difficulty]
HPDrainRate:3
CircleSize:2.5
OverallDifficulty:6
ApproachRate:6
SliderMultiplier:1.4
SliderTickRate:1

[Events]
//Background and Video events
0,0,"cup.jpg",0,0
//Break Periods
//Storyboard Layer 0 (Background)
//Storyboard Layer 1 (Fail)
//Storyboard Layer 2 (Pass)
//Storyboard Layer 3 (Foreground)
//Storyboard Layer 4 (Overlay)
//Storyboard Sound Samples

[TimingPoints]
700,333.333333333333,4,1,1,50,1,0
1366,333.333333333333,4,1,1,50,1,0
6699,-100,4,1,1,55,0,0
10699,-100,4,1,1,55,0,0
11365,-100,4,1,1,55,0,0
12032,-100,4,1,1,60,0,0
22699,-111.111111111111,4,1,1,50,0,0
38699,-111.111111111111,4,1,1,55,0,0
44032,-100,4,1,1,55,0,0
54032,-100,4,2,1,55,0,0
54699,-100,4,1,1,60,0,1
76032,-100,4,1,1,60,0,0
86699,-100,4,1,1,65,0,1
96032,-100,4,1,1,65,0,0

[Colours]
Combo1 : 94,65,105
Combo2 : 165,32,149
Combo3 : 169,172,235
Combo4 : 251,2,138

[HitObjects]
257,342,700,6,0,L|129:269,1,140,2|8,0:0|0:0,0:0:0:0:
205,274,1199,1,2,0:0:0:0:
275,271,1366,1,6,0:0:0:0:
344,271,1532,6,0,L|346:123,1,140,0|0,0:0|0:0,0:0:0:0:
205,120,2199,2,0,L|87:19,1,140,0|0,0:0|0:0,0:0:0:0:
240,28,2865,6,0,L|240:168,1,140,0|0,0:0|0:0,0:0:0:0:
380,172,3532,2,0,L|480:32,1,140,0|0,0:0|0:0,0:0:0:0:
392,60,4032,5,6,0:0:0:0:
320,60,4199,2,0,L|172:86,1,140,0|2,0:0|0:0,0:0:0:0:
182,84,4699,1,2,0:0:0:0:
320,204,5032,1,8,0:0:0:0:
248,208,5199,1,2,0:0:0:0:
180,208,5365,6,0,P|144:160|192:96,1,140,2|8,0:0|0:0,0:0:0:0:
328,140,6032,2,0,P|372:104|400:24,1,140,2|8,0:0|0:0,0:0:0:0:
216,32,6699,6,0,P|152:108|225:179,1,210,6|2,0:0|0:0,0:0:0:0:
285,178,7365,2,0,P|350:255|283:327,1,210,2|2,0:0|0:0,0:0:0:0:
196,340,8032,6,0,L|380:200,1,210,2|2,0:0|0:0,0:0:0:0:
292,212,8699,2,0,L|292:44,1,140,2|8,0:0|0:0,0:0:0:0:
432,64,9365,6,0,L|432:228,1,140,2|2,0:0|0:0,0:0:0:0:
292,192,10032,1,2,0:0:0:0:
351,155,10198,1,2,0:0:0:0:
411,118,10365,1,2,0:0:0:0:
240,360,10699,6,0,L|136:252,2,140,8|8|8,0:0|0:0|0:0,0:0:0:0:
380,212,11699,1,0,0:0:0:0:
212,364,12032,6,0,L|211:195,1,140,6|8,0:0|0:0,0:0:0:0:
352,216,12699,1,2,0:0:0:0:
492,216,13032,1,8,0:0:0:0:
320,340,13365,6,0,L|252:192,1,140,2|0,0:0|0:0,0:0:0:0:
400,216,14032,2,0,L|456:156,2,70,8|0|8,0:0|0:0|0:0,0:0:0:0:
224,360,14699,6,0,L|88:252,1,140,6|8,0:0|0:0,0:0:0:0:
256,264,15365,2,0,L|376:152,1,140,2|8,0:0|0:0,0:0:0:0:
188,172,16032,6,0,L|188:380,1,140,2|8,0:0|0:0,0:0:0:0:
336,316,16699,1,2,0:0:0:0:
276,278,16865,1,2,0:0:0:0:
216,240,17032,1,8,0:0:0:0:
388,248,17365,6,0,L|388:80,1,140,6|8,0:0|0:0,0:0:0:0:
248,128,18032,1,2,0:0:0:0:
108,128,18365,1,8,0:0:0:0:
280,360,18699,6,0,L|280:192,1,140,2|0,0:0|0:0,0:0:0:0:
140,216,19365,2,0,L|72:152,2,70,8|0|8,0:0|0:0|0:0,0:0:0:0:
312,288,20032,6,0,L|428:176,1,140,6|8,0:0|0:0,0:0:0:0:
236,340,20699,1,0,0:0:0:0:
176,305,20865,1,0,0:0:0:0:
151,241,21032,1,8,0:0:0:0:
173,176,21199,1,8,0:0:0:0:
231,140,21365,2,0,L|384:140,1,140,8|8,0:0|0:0,0:0:0:0:
371,263,22032,6,0,L|219:263,1,140,8|8,0:0|0:0,0:0:0:0:
312,347,22532,1,2,0:0:0:0:
384,348,22699,6,0,P|428:264|368:192,1,188.999994232178,6|0,0:0|0:0,0:0:0:0:
256,196,23532,1,2,0:0:0:0:
124,192,23865,6,0,L|240:88,2,125.999996154785,0|0|0,0:0|0:0|0:0,0:0:0:0:
248,164,24865,1,2,0:0:0:0:
300,128,25031,1,0,0:0:0:0:
352,92,25198,1,0,0:0:0:0:
300,128,25365,6,0,L|108:20,1,188.999994232178,6|0,0:0|0:0,0:0:0:0:
260,32,26199,1,2,0:0:0:0:
380,72,26532,6,0,L|247:16,2,125.999996154785,0|0|0,0:0|0:0|0:0,0:0:0:0:
256,64,27532,2,0,L|176:64,2,62.9999980773926,2|8|0,0:0|0:0|0:0,0:0:0:0:
320,64,28032,6,0,P|380:126|332:199,1,188.999994232178,6|0,0:0|0:0,0:0:0:0:
208,192,28865,2,0,L|72:120,2,125.999996154785,2|0|0,0:0|0:0|0:0,0:0:0:0:
360,352,29865,2,0,P|404:292|352:184,1,188.999994232178,0|8,0:0|0:0,0:0:0:0:
304,192,30532,1,0,0:0:0:0:
240,192,30699,6,0,L|240:348,1,125.999996154785,6|8,0:0|0:0,0:0:0:0:
304,312,31199,1,0,0:0:0:0:
428,312,31532,2,0,L|428:208,1,62.9999980773926,2|8,0:0|0:0,0:0:0:0:
300,248,32032,6,0,L|216:248,1,62.9999980773926,2|0,0:0|0:0,0:0:0:0:
240,184,32365,1,8,0:0:0:0:
368,180,32699,2,0,L|432:136,2,62.9999980773926,2|2|8,0:0|0:0|0:0,0:0:0:0:
208,344,33365,6,0,L|188:244,1,62.9999980773926,6|0,0:0|0:0,0:0:0:0:
348,264,33865,2,0,P|408:192|344:128,1,188.999994232178,0|8,0:0|0:0,0:0:0:0:
296,136,34532,6,0,L|132:208,2,125.999996154785,0|0|0,0:0|0:0|0:0,0:0:0:0:
160,276,35532,2,0,L|64:276,1,62.9999980773926,2|8,0:0|0:0,0:0:0:0:
97,276,35865,1,0,0:0:0:0:
192,180,36032,6,0,L|344:180,1,125.999996154785,6|8,0:0|0:0,0:0:0:0:
192,180,36699,2,0,L|192:40,1,125.999996154785,2|8,0:0|0:0,0:0:0:0:
256,52,37199,6,0,L|436:52,2,125.999996154785,0|0|0,0:0|0:0|0:0,0:0:0:0:
104,60,38199,2,0,L|104:152,1,62.9999980773926,2|8,0:0|0:0,0:0:0:0:
168,124,38532,1,0,0:0:0:0:
232,120,38699,6,0,L|408:120,1,125.999996154785,6|8,0:0|0:0,0:0:0:0:
232,120,39365,2,0,L|80:120,1,125.999996154785,2|8,0:0|0:0,0:0:0:0:
235,112,40032,6,0,L|359:181,1,125.999996154785,2|8,0:0|0:0,0:0:0:0:
220,221,40699,2,0,B|89:220|89:220,1,125.999996154785,2|8,0:0|0:0,0:0:0:0:
166,315,41199,1,0,0:0:0:0:
238,317,41365,6,0,L|86:317,1,125.999996154785,6|8,0:0|0:0,0:0:0:0:
240,316,42032,2,0,L|240:176,1,125.999996154785,2|8,0:0|0:0,0:0:0:0:
112,196,42699,6,0,L|112:60,1,125.999996154785,2|8,0:0|0:0,0:0:0:0:
236,72,43365,1,2,0:0:0:0:
299,72,43531,1,0,0:0:0:0:
362,72,43698,1,8,0:0:0:0:
204,352,44032,6,0,L|120:352,2,70,6|0|8,0:0|0:0|0:0,0:0:0:0:
276,352,44532,2,0,P|336:288|252:192,1,210,2|8,0:0|0:0,0:0:0:0:
212,192,45199,1,0,0:0:0:0:
144,196,45365,5,2,0:0:0:0:
284,196,45699,1,8,0:0:0:0:
424,192,46032,1,0,0:0:0:0:
284,196,46365,1,8,0:0:0:0:
112,200,46699,6,0,L|112:120,1,70,6|0,0:0|0:0,0:0:0:0:
184,128,47032,1,8,0:0:0:0:
256,124,47199,2,0,P|348:104|412:0,1,210,2|8,0:0|0:0,0:0:0:0:
244,308,48032,6,0,L|128:244,2,105,2|0|2,0:0|0:0|0:0,0:0:0:0:
400,308,48865,2,0,L|488:304,2,70,2|8|0,0:0|0:0|0:0,0:0:0:0:
328,312,49365,6,0,L|228:312,1,70,6|0,0:0|0:0,0:0:0:0:
256,240,49699,1,8,0:0:0:0:
356,196,49865,2,0,P|408:132|340:28,1,210,0|8,0:0|0:0,0:0:0:0:
212,24,50699,6,0,L|80:88,2,140,2|8|2,0:0|0:0|0:0,0:0:0:0:
352,24,51699,1,8,0:0:0:0:
160,340,52032,6,0,L|152:240,1,70,6|0,0:0|0:0,0:0:0:0:
288,252,52532,2,0,L|288:164,1,70,0|2,0:0|0:0,0:0:0:0:
448,176,53032,2,0,L|456:96,1,70,8|0,0:0|0:0,0:0:0:0:
384,108,53365,6,0,L|208:248,1,210,2|0,0:0|0:0,0:0:0:0:
148,356,54032,5,2,0:0:0:0:
92,317,54198,1,2,0:0:0:0:
152,292,54365,1,2,0:0:0:0:
328,248,54699,6,0,P|388:200|408:128,1,140,6|8,0:0|0:0,0:0:0:0:
248,344,55365,2,0,L|232:264,1,70,2|2,0:0|0:0,0:0:0:0:
376,256,55865,1,0,0:0:0:0:
192,272,56199,6,0,L|100:240,2,70,0|8|0,0:0|0:0|0:0,0:0:0:0:
332,276,56865,2,0,L|332:160,1,70,2|8,0:0|0:0,0:0:0:0:
180,208,57365,6,0,P|144:136|200:80,1,140,6|8,0:0|0:0,0:0:0:0:
304,64,58032,2,0,L|376:64,1,70,2|2,0:0|0:0,0:0:0:0:
200,68,58532,6,0,L|52:100,2,140,0|0|0,0:0|0:0|0:0,0:0:0:0:
272,68,59365,1,2,0:0:0:0:
317,119,59531,1,0,0:0:0:0:
314,187,59698,1,8,0:0:0:0:
161,236,60032,6,0,L|25:168,1,140,6|8,0:0|0:0,0:0:0:0:
192,152,60699,2,0,L|200:68,1,70,2|2,0:0|0:0,0:0:0:0:
64,64,61199,1,0,0:0:0:0:
240,64,61532,6,0,L|328:64,2,70,0|8|0,0:0|0:0|0:0,0:0:0:0:
88,68,62199,2,0,L|88:148,1,70,2|8,0:0|0:0,0:0:0:0:
144,180,62532,1,0,0:0:0:0:
200,224,62699,5,6,0:0:0:0:
340,212,63032,2,0,P|364:136|324:88,1,140,8|2,0:0|0:0,0:0:0:0:
260,92,63532,1,2,0:0:0:0:
76,96,63865,5,2,0:0:0:0:
231,96,64199,1,2,0:0:0:0:
383,99,64532,1,2,0:0:0:0:
454,98,64699,6,0,L|454:177,1,70,2|8,0:0|0:0,0:0:0:0:
385,171,65032,1,2,0:0:0:0:
224,332,65365,6,0,L|120:228,1,140,6|8,0:0|0:0,0:0:0:0:
268,80,66032,2,0,L|344:80,1,70,2|2,0:0|0:0,0:0:0:0:
204,92,66532,1,0,0:0:0:0:
376,84,66865,6,0,L|376:168,1,70,0|8,0:0|0:0,0:0:0:0:
304,156,67199,1,0,0:0:0:0:
164,156,67532,1,2,0:0:0:0:
112,112,67698,1,8,0:0:0:0:
118,45,67865,1,0,0:0:0:0:
176,11,68032,5,6,0:0:0:0:
324,16,68365,2,0,L|176:16,1,140,8|2,0:0|0:0,0:0:0:0:
112,20,68865,1,2,0:0:0:0:
252,20,69199,6,0,L|396:84,2,140,0|0|0,0:0|0:0|0:0,0:0:0:0:
180,20,70032,1,2,0:0:0:0:
119,49,70198,1,2,0:0:0:0:
112,116,70365,1,2,0:0:0:0:
164,158,70532,1,2,0:0:0:0:
256,300,70699,6,0,L|428:300,1,140,6|8,0:0|0:0,0:0:0:0:
324,300,71199,1,0,0:0:0:0:
252,304,71365,2,0,L|252:140,1,140,2|8,0:0|0:0,0:0:0:0:
412,296,72032,6,0,L|412:140,1,140,6|8,0:0|0:0,0:0:0:0:
340,160,72532,1,0,0:0:0:0:
268,156,72699,2,0,P|236:76|296:16,1,140,2|8,0:0|0:0,0:0:0:0:
396,24,73365,6,0,L|504:120,1,140,6|10,0:0|0:0,0:0:0:0:
348,132,74032,2,0,L|188:132,1,140,2|10,0:0|0:0,0:0:0:0:
136,132,74532,1,2,0:0:0:0:
276,48,74865,6,0,L|356:96,2,70,0|2|8,0:0|0:0|0:0,0:0:0:0:
128,328,75532,2,0,L|140:248,1,70,2|2,0:0|0:0,0:0:0:0:
324,340,76032,6,0,P|360:268|296:208,1,140,6|8,0:0|0:0,0:0:0:0:
188,228,76699,2,0,P|160:144|216:100,1,140,2|8,0:0|0:0,0:0:0:0:
364,264,77365,6,0,L|196:208,1,140,2|0,0:0|0:0,0:0:0:0:
88,152,78032,1,8,0:0:0:0:
32,190,78198,1,0,0:0:0:0:
32,260,78365,1,8,0:0:0:0:
200,344,78699,6,0,L|340:276,1,140,6|8,0:0|0:0,0:0:0:0:
176,232,79365,2,0,L|176:84,1,140,2|8,0:0|0:0,0:0:0:0:
348,92,80032,6,0,L|348:248,1,140,2|8,0:0|0:0,0:0:0:0:
204,104,80699,1,2,0:0:0:0:
271,84,80865,1,2,0:0:0:0:
338,64,81032,1,8,0:0:0:0:
168,380,81365,6,0,L|168:216,1,140,6|8,0:0|0:0,0:0:0:0:
296,236,82032,2,0,L|448:160,1,140,2|8,0:0|0:0,0:0:0:0:
248,232,82699,6,0,L|248:64,1,140,2|0,0:0|0:0,0:0:0:0:
392,56,83365,1,8,0:0:0:0:
451,89,83531,1,8,0:0:0:0:
457,156,83698,1,2,0:0:0:0:
288,328,84032,6,0,L|132:328,1,140,6|8,0:0|0:0,0:0:0:0:
288,324,84699,2,0,L|288:228,1,70,0|8,0:0|0:0,0:0:0:0:
216,252,85032,1,8,0:0:0:0:
84,252,85365,6,0,P|56:184|116:136,1,140,2|2,0:0|0:0,0:0:0:0:
272,28,86032,1,2,0:0:0:0:
327,66,86198,1,2,0:0:0:0:
328,134,86365,1,2,0:0:0:0:
184,176,86699,6,0,L|32:176,1,140,6|8,0:0|0:0,0:0:0:0:
172,216,87365,2,0,L|276:104,1,140,2|10,0:0|0:0,0:0:0:0:
267,113,87865,1,0,0:0:0:0:
104,24,88199,6,0,L|24:72,2,70,0|8|0,0:0|0:0|0:0,0:0:0:0:
244,28,88865,1,0,0:0:0:0:
182,62,89031,1,8,0:0:0:0:
121,96,89198,1,0,0:0:0:0:
60,128,89365,6,0,L|60:272,1,140,6|8,0:0|0:0,0:0:0:0:
200,268,90032,1,2,0:0:0:0:
270,268,90198,1,0,0:0:0:0:
340,268,90365,1,8,0:0:0:0:
268,268,90532,6,2,L|144:152,2,140
404,264,91532,2,0,L|464:224,2,70,0|8|0,0:0|0:0|0:0,0:0:0:0:
320,256,92032,6,0,L|160:212,1,140,6|8,0:0|0:0,0:0:0:0:
256,216,92532,1,0,0:0:0:0:
328,200,92699,2,0,L|328:56,1,140,2|8,0:0|0:0,0:0:0:0:
164,208,93365,6,0,P|128:128|176:80,1,140,6|8,0:0|0:0,0:0:0:0:
224,88,93865,1,0,0:0:0:0:
296,84,94032,2,0,P|328:160|272:212,1,140,2|8,0:0|0:0,0:0:0:0:
112,200,94699,6,2,L|112:48,1,140,6|10,0:0|0:0,0:0:0:0:
252,40,95365,2,2,L|420:40,1,140,2|10,0:0|0:0,0:0:0:0:
396,112,95865,1,2,0:0:0:0:
248,108,96199,6,0,L|160:108,2,70,2|8|2,0:0|0:0|0:0,0:0:0:0:
388,100,96865,2,0,L|484:100,2,70,2|2|2,0:0|0:0|0:0,0:0:0:0:
290,103,97365,1,6,0:0:0:0:
