osu file format v14

[General]
AudioFilename: chouetsu.mp3
AudioLeadIn: 0
PreviewTime: 55860
Countdown: 0
SampleSet: Normal
StackLeniency: 0.7
Mode: 1
LetterboxInBreaks: 0
WidescreenStoryboard: 0

[Editor]
Bookmarks: 6601,12837,23624,34410,37107,39803,55983,66770
DistanceSpacing: 1.6
BeatDivisor: 4
GridSize: 32
TimelineZoom: 1.200001

[Metadata]
Title:Chouetsu Shite Shimatta Kanojo to Sore o Umi Otoshita Riyuu
TitleUnicode:超越してしまった彼女と其を生み落した理由
Artist:Ayatsugu_Otowa
ArtistUnicode:Ayatsugu_Otowa
Creator:-[ Dumpling ]-
Version:Futsuu
Source:SOUND VOLTEX II -infinite infection-
Tags:sdvx jubeat prop KAC2013 Original Song Contest TKS Julie chaica Senritsu
BeatmapID:975939
BeatmapSetID:455306

[Difficulty]
HPDrainRate:6
CircleSize:5
OverallDifficulty:4
ApproachRate:9
SliderMultiplier:1.4
SliderTickRate:1

[Events]
//Background and Video events
0,0,"BG.png",0,0
//Break Periods
//Storyboard Layer 0 (Background)
//Storyboard Layer 1 (Fail)
//Storyboard Layer 2 (Pass)
//Storyboard Layer 3 (Foreground)
//Storyboard Sound Samples

[TimingPoints]
2051,337.078651685393,4,1,0,90,1,0
55983,-100,4,1,0,90,0,1
77556,-100,4,1,0,90,0,0
96095,-100,4,1,0,75,0,0
96433,-100,4,1,0,90,0,0
99129,-100,4,1,0,90,0,1
109916,-100,4,1,0,90,0,0

[HitObjects]
256,192,2051,5,4,0:0:0:0:
256,192,2725,1,8,0:0:0:0:
256,192,3399,1,0,0:0:0:0:
256,192,3736,1,8,0:0:0:0:
256,192,4073,1,8,0:0:0:0:
256,192,4747,5,0,0:0:0:0:
256,192,5421,1,8,0:0:0:0:
256,192,6095,1,0,0:0:0:0:
256,192,6348,1,8,0:0:0:0:
256,192,6601,1,0,0:0:0:0:
256,192,6854,1,8,0:0:0:0:
256,192,7444,1,4,0:0:0:0:
256,192,8118,1,8,0:0:0:0:
256,192,8792,1,4,0:0:0:0:
256,192,9129,1,8,0:0:0:0:
256,192,9466,1,12,0:0:0:0:
256,192,10140,1,4,0:0:0:0:
256,192,10815,1,8,0:0:0:0:
256,192,11489,1,8,0:0:0:0:
256,192,11657,1,8,0:0:0:0:
256,192,11994,1,8,0:0:0:0:
256,192,12837,1,0,0:0:0:0:
256,192,13006,1,8,0:0:0:0:
256,192,13174,1,0,0:0:0:0:
256,192,13848,1,8,0:0:0:0:
256,192,14185,1,0,0:0:0:0:
256,192,14522,1,8,0:0:0:0:
256,192,14859,1,0,0:0:0:0:
256,192,15534,1,0,0:0:0:0:
256,192,15702,1,0,0:0:0:0:
256,192,15871,1,0,0:0:0:0:
256,192,16545,1,0,0:0:0:0:
256,192,16882,1,8,0:0:0:0:
256,192,17556,1,0,0:0:0:0:
256,192,18230,1,0,0:0:0:0:
256,192,18399,1,8,0:0:0:0:
256,192,18567,1,0,0:0:0:0:
256,192,19242,1,8,0:0:0:0:
256,192,19579,1,0,0:0:0:0:
256,192,19916,1,0,0:0:0:0:
256,192,20253,1,8,0:0:0:0:
256,192,20928,1,0,0:0:0:0:
256,192,21096,1,0,0:0:0:0:
256,192,21265,1,0,0:0:0:0:
256,192,21601,1,0,0:0:0:0:
256,192,21939,1,8,0:0:0:0:
256,192,22276,1,8,0:0:0:0:
256,192,22949,1,0,0:0:0:0:
256,192,23624,1,0,0:0:0:0:
256,192,23793,1,8,0:0:0:0:
256,192,23961,1,0,0:0:0:0:
256,192,24635,1,8,0:0:0:0:
256,192,24972,1,0,0:0:0:0:
256,192,25309,1,8,0:0:0:0:
256,192,25646,1,0,0:0:0:0:
256,192,26321,1,0,0:0:0:0:
256,192,26489,1,0,0:0:0:0:
256,192,26658,1,0,0:0:0:0:
256,192,27332,1,0,0:0:0:0:
256,192,27669,1,8,0:0:0:0:
256,192,28343,1,0,0:0:0:0:
256,192,29017,1,0,0:0:0:0:
256,192,29186,1,8,0:0:0:0:
256,192,29354,1,0,0:0:0:0:
256,192,30028,1,8,0:0:0:0:
256,192,30365,1,0,0:0:0:0:
256,192,30702,1,0,0:0:0:0:
256,192,31039,1,8,0:0:0:0:
256,192,31714,1,0,0:0:0:0:
256,192,31882,1,0,0:0:0:0:
256,192,32051,1,0,0:0:0:0:
256,192,32726,5,8,0:0:0:0:
256,192,33062,1,12,0:0:0:0:
256,192,33567,1,12,0:0:0:0:
256,192,34073,1,12,0:0:0:0:
256,192,34410,1,0,0:0:0:0:
256,192,34747,1,0,0:0:0:0:
256,192,34916,1,8,0:0:0:0:
256,192,35084,1,8,0:0:0:0:
256,192,35758,1,8,0:0:0:0:
256,192,36095,1,0,0:0:0:0:
256,192,36264,1,8,0:0:0:0:
256,192,36770,1,8,0:0:0:0:
256,192,37107,1,4,0:0:0:0:
256,192,37612,1,12,0:0:0:0:
256,192,38118,1,12,0:0:0:0:
256,192,38624,1,4,0:0:0:0:
256,192,39129,1,12,0:0:0:0:
256,192,39803,1,4,0:0:0:0:
256,192,40140,1,0,0:0:0:0:
256,192,40309,1,8,0:0:0:0:
256,192,40477,1,8,0:0:0:0:
256,192,41152,1,0,0:0:0:0:
256,192,41657,1,8,0:0:0:0:
256,192,42163,1,8,0:0:0:0:
256,192,42500,1,4,0:0:0:0:
256,192,43005,1,12,0:0:0:0:
256,192,43511,1,12,0:0:0:0:
256,192,44017,1,4,0:0:0:0:
256,192,44522,1,12,0:0:0:0:
256,192,45196,1,4,0:0:0:0:
256,192,45534,1,0,0:0:0:0:
256,192,45702,1,8,0:0:0:0:
256,192,45871,1,8,0:0:0:0:
256,192,46545,1,4,0:0:0:0:
256,192,46882,1,0,0:0:0:0:
256,192,47050,1,8,0:0:0:0:
256,192,47219,1,0,0:0:0:0:
256,192,47893,1,4,0:0:0:0:
256,192,48567,1,4,0:0:0:0:
256,192,49242,1,4,0:0:0:0:
256,192,49579,1,4,0:0:0:0:
256,192,49916,1,4,0:0:0:0:
256,192,50253,1,8,0:0:0:0:
256,192,50590,1,4,0:0:0:0:
256,192,50758,1,8,0:0:0:0:
256,192,51264,1,8,0:0:0:0:
256,192,51938,1,4,0:0:0:0:
256,192,52107,1,8,0:0:0:0:
256,192,52612,1,8,0:0:0:0:
256,192,52949,1,8,0:0:0:0:
256,192,53286,1,4,0:0:0:0:
256,192,53792,1,4,0:0:0:0:
256,192,54298,1,8,0:0:0:0:
256,192,54803,1,4,0:0:0:0:
256,192,55983,5,0,0:0:0:0:
256,192,56235,1,0,0:0:0:0:
256,192,56657,1,8,0:0:0:0:
256,192,57331,1,0,0:0:0:0:
256,192,57668,1,8,0:0:0:0:
256,192,58005,1,8,0:0:0:0:
256,192,58343,1,0,0:0:0:0:
256,192,58679,5,0,0:0:0:0:
256,192,58933,1,0,0:0:0:0:
256,192,59353,1,8,0:0:0:0:
256,192,60027,1,0,0:0:0:0:
256,192,60281,1,8,0:0:0:0:
256,192,60534,1,0,0:0:0:0:
256,192,60786,1,8,0:0:0:0:
256,192,61376,1,4,0:0:0:0:
256,192,61713,1,0,0:0:0:0:
256,192,62050,1,12,0:0:0:0:
256,192,62387,1,0,0:0:0:0:
256,192,62724,1,4,0:0:0:0:
256,192,63061,1,8,0:0:0:0:
256,192,63230,1,0,0:0:0:0:
256,192,63398,1,12,0:0:0:0:
256,192,64072,1,4,0:0:0:0:
256,192,64747,1,8,0:0:0:0:
256,192,65084,1,0,0:0:0:0:
256,192,65421,1,8,0:0:0:0:
256,192,65589,1,8,0:0:0:0:
256,192,65926,1,0,0:0:0:0:
256,192,66770,5,0,0:0:0:0:
256,192,67022,1,0,0:0:0:0:
256,192,67444,1,8,0:0:0:0:
256,192,68118,1,0,0:0:0:0:
256,192,68455,1,8,0:0:0:0:
256,192,68792,1,8,0:0:0:0:
256,192,69130,1,0,0:0:0:0:
256,192,69466,5,0,0:0:0:0:
256,192,69720,1,0,0:0:0:0:
256,192,70140,1,8,0:0:0:0:
256,192,70814,1,0,0:0:0:0:
256,192,71068,1,8,0:0:0:0:
256,192,71321,1,0,0:0:0:0:
256,192,71573,1,8,0:0:0:0:
256,192,72163,1,4,0:0:0:0:
256,192,72500,1,0,0:0:0:0:
256,192,72837,1,12,0:0:0:0:
256,192,73174,1,0,0:0:0:0:
256,192,73511,1,4,0:0:0:0:
256,192,73848,1,8,0:0:0:0:
256,192,74017,1,0,0:0:0:0:
256,192,74185,1,12,0:0:0:0:
256,192,74859,1,4,0:0:0:0:
256,192,75534,1,8,0:0:0:0:
256,192,75871,1,0,0:0:0:0:
256,192,76208,1,8,0:0:0:0:
256,192,76376,1,8,0:0:0:0:
256,192,76713,1,0,0:0:0:0:
256,192,77556,1,8,0:0:0:0:
256,192,77725,1,8,0:0:0:0:
256,192,78062,1,8,0:0:0:0:
256,192,78567,1,8,0:0:0:0:
256,192,78904,1,8,0:0:0:0:
256,192,79073,1,8,0:0:0:0:
256,192,79410,1,8,0:0:0:0:
256,192,79916,1,8,0:0:0:0:
256,192,80253,1,0,0:0:0:0:
256,192,80421,1,0,0:0:0:0:
256,192,80758,1,0,0:0:0:0:
256,192,81264,1,0,0:0:0:0:
256,192,81601,1,0,0:0:0:0:
256,192,81770,1,0,0:0:0:0:
256,192,82107,1,0,0:0:0:0:
256,192,82612,1,0,0:0:0:0:
256,192,82950,1,0,0:0:0:0:
256,192,83119,1,8,0:0:0:0:
256,192,83456,1,8,0:0:0:0:
256,192,83961,1,8,0:0:0:0:
256,192,84298,1,0,0:0:0:0:
256,192,84467,1,8,0:0:0:0:
256,192,84804,1,8,0:0:0:0:
256,192,85309,1,8,0:0:0:0:
256,192,85647,1,8,0:0:0:0:
256,192,85815,1,0,0:0:0:0:
256,192,86152,1,0,0:0:0:0:
256,192,86658,1,0,0:0:0:0:
256,192,86995,1,12,0:0:0:0:
256,192,87247,1,12,0:0:0:0:
256,192,87500,1,12,0:0:0:0:
256,192,88343,1,4,0:0:0:0:
256,192,89017,1,8,0:0:0:0:
256,192,89691,1,8,0:0:0:0:
256,192,90365,1,0,0:0:0:0:
256,192,90702,1,0,0:0:0:0:
256,192,91039,1,0,0:0:0:0:
256,192,91713,1,8,0:0:0:0:
256,192,92388,1,0,0:0:0:0:
256,192,93062,1,8,0:0:0:0:
256,192,93399,1,8,0:0:0:0:
256,192,93736,1,4,0:0:0:0:
256,192,94073,1,0,0:0:0:0:
256,192,94410,1,12,0:0:0:0:
256,192,94747,1,0,0:0:0:0:
256,192,95084,1,4,0:0:0:0:
256,192,95421,1,8,0:0:0:0:
256,192,95590,1,0,0:0:0:0:
256,192,95758,1,12,0:0:0:0:
256,192,96095,1,8,0:0:0:0:
256,192,96433,1,4,0:0:0:0:
256,192,96771,1,0,0:0:0:0:
256,192,96939,1,0,0:0:0:0:
256,192,97108,1,8,0:0:0:0:
256,192,97445,1,0,0:0:0:0:
256,192,97782,1,8,0:0:0:0:
256,192,97950,1,8,0:0:0:0:
256,192,98287,1,0,0:0:0:0:
256,192,99129,1,4,0:0:0:0:
256,192,99466,1,0,0:0:0:0:
256,192,99803,1,8,0:0:0:0:
256,192,100477,1,8,0:0:0:0:
256,192,100730,1,0,0:0:0:0:
256,192,100983,1,0,0:0:0:0:
256,192,101236,1,8,0:0:0:0:
256,192,101826,1,0,0:0:0:0:
256,192,102163,1,8,0:0:0:0:
256,192,102500,1,8,0:0:0:0:
256,192,102753,1,0,0:0:0:0:
256,192,103174,1,0,0:0:0:0:
256,192,103511,1,0,0:0:0:0:
256,192,103848,1,8,0:0:0:0:
256,192,104185,1,8,0:0:0:0:
256,192,104522,1,4,0:0:0:0:
256,192,104859,1,0,0:0:0:0:
256,192,105196,1,12,0:0:0:0:
256,192,105533,1,0,0:0:0:0:
256,192,105870,1,4,0:0:0:0:
256,192,106207,1,8,0:0:0:0:
256,192,106376,1,0,0:0:0:0:
256,192,106544,1,12,0:0:0:0:
256,192,107218,1,4,0:0:0:0:
256,192,107556,1,0,0:0:0:0:
256,192,107724,1,0,0:0:0:0:
256,192,107893,1,8,0:0:0:0:
256,192,108230,1,0,0:0:0:0:
256,192,108567,1,8,0:0:0:0:
256,192,108736,1,8,0:0:0:0:
256,192,109242,1,8,0:0:0:0:
256,192,109579,1,0,0:0:0:0:
256,192,109916,5,4,0:0:0:0:
256,192,110421,1,4,0:0:0:0:
256,192,110927,12,0,113286,0:0:0:0:
