osu file format v14

[General]
AudioFilename: audio.MP3
AudioLeadIn: 0
PreviewTime: -1
Countdown: 1
SampleSet: Normal
StackLeniency: 0.7
Mode: 0
LetterboxInBreaks: 0
WidescreenStoryboard: 0

[Editor]
DistanceSpacing: 2.4
BeatDivisor: 4
GridSize: 4
TimelineZoom: 2.5

[Metadata]
Title:Yuima-ru*World TVver.
TitleUnicode:Yuima-ru*World TVver.
Artist:Ayase Rie
ArtistUnicode:Ayase Rie
Creator:respektive
Version:so bad
Source:
Tags:haitai
BeatmapID:1414480
BeatmapSetID:668629

[Difficulty]
HPDrainRate:5.5
CircleSize:4
OverallDifficulty:8.5
ApproachRate:9
SliderMultiplier:1.4
SliderTickRate:1

[Events]
//Background and Video events
0,0,"oh yes.jpg",0,0
//Break Periods
//Storyboard Layer 0 (Background)
//Storyboard Layer 1 (Fail)
//Storyboard Layer 2 (Pass)
//Storyboard Layer 3 (Foreground)
//Storyboard Sound Samples

[TimingPoints]
726,333.333333333333,4,1,0,50,1,0
5725,-50,4,1,0,50,0,0
6059,-100,4,1,0,50,0,0
11059,-50,4,1,0,50,0,0
11392,-100,4,1,0,50,0,0

[Colours]
Combo1 : 128,64,0
Combo2 : 255,128,0
Combo3 : 255,204,0
Combo4 : 0,119,176

[HitObjects]
122,78,726,5,0,0:0:0:0:
246,115,892,1,0,0:0:0:0:
109,173,1059,1,0,0:0:0:0:
233,210,1225,1,0,0:0:0:0:
91,323,1392,2,0,L|81:254,1,70
53,61,1724,1,0,0:0:0:0:
217,102,1891,1,0,0:0:0:0:
100,135,2058,5,0,0:0:0:0:
242,23,2225,1,0,0:0:0:0:
145,40,2392,1,0,0:0:0:0:
303,107,2559,1,0,0:0:0:0:
241,172,2725,2,0,P|221:137|216:101,1,70
456,258,3059,2,0,P|436:289|409:305,1,70
308,323,3392,5,0,0:0:0:0:
385,234,3559,1,0,0:0:0:0:
219,158,3725,2,0,L|238:85,1,70
305,39,4059,2,0,L|322:106,1,70
412,94,4392,1,0,0:0:0:0:
412,94,4559,2,0,L|394:161,1,70
305,345,4892,5,0,0:0:0:0:
255,136,5059,1,0,0:0:0:0:
72,129,5225,1,0,0:0:0:0:
113,62,5392,2,0,P|140:87|149:118,1,70,0|0,0:3|0:3,0:0:0:0:
140,340,5725,6,0,L|99:198,1,140
437,199,6059,6,0,L|416:265,1,70
357,327,6392,2,0,L|336:260,1,70
282,187,6725,2,0,L|261:253,1,70
118,146,7059,1,0,0:0:0:0:
282,187,7226,1,0,0:0:0:0:
165,220,7393,5,0,0:0:0:0:
307,108,7560,1,0,0:0:0:0:
212,131,7725,1,0,0:0:0:0:
370,192,7892,1,0,0:0:0:0:
310,259,8060,2,0,P|287:227|281:193,1,70
442,63,8392,2,0,P|451:96|444:130,1,70
397,230,8725,5,0,0:0:0:0:
372,91,8892,1,0,0:0:0:0:
189,87,9059,2,0,L|221:153,1,70
269,236,9392,1,0,0:0:0:0:
364,122,9559,1,0,0:0:0:0:
396,288,9725,2,0,L|380:214,1,70
320,160,10059,6,0,L|305:228,1,70
396,288,10392,1,0,0:0:0:0:
237,174,10559,1,0,0:0:0:0:
399,127,10725,2,0,P|378:95|345:77,1,70
60,80,11059,6,0,L|194:41,1,140
112,328,11392,6,0,P|92:228|104:192,1,140
165,68,11892,1,0,0:0:0:0:
165,68,12059,2,0,P|199:51|237:52,1,70
412,176,12392,2,0,L|395:109,1,70
415,25,12725,6,0,P|351:51|308:105,1,140
257,236,13225,1,0,0:0:0:0:
257,236,13392,2,0,P|233:266|198:281,1,70
100,208,13725,2,0,L|117:275,1,70
400,328,14059,6,0,P|420:228|408:192,1,140
351,66,14559,1,0,0:0:0:0:
351,66,14726,2,0,P|316:60|283:70,1,70
215,129,15059,2,0,L|198:62,1,70
167,337,15392,6,0,P|105:306|66:248,1,140
26,75,15892,1,0,0:0:0:0:
25,74,16059,2,0,P|33:40|55:13,1,70
118,87,16392,1,0,0:0:0:0:
118,87,16475,1,0,0:0:0:0:
118,87,16559,1,0,0:0:0:0:
118,87,16642,1,0,0:0:0:0:
118,87,16725,6,0,P|147:104|182:107,1,70
273,30,17059,2,0,L|256:97,1,70
374,170,17392,2,0,P|344:152|309:149,1,70
276,276,17725,2,0,L|259:209,1,70
132,253,18059,6,0,P|162:235|182:207,1,70
124,143,18392,2,0,L|191:126,1,70
237,61,18725,2,0,P|259:87|267:121,1,70
231,245,19059,2,0,L|214:177,1,70
177,18,19392,5,0,0:0:0:0:
136,273,19559,1,0,0:0:0:0:
284,60,19725,1,0,0:0:0:0:
76,75,19892,1,0,0:0:0:0:
317,170,20059,1,0,0:0:0:0:
58,188,20225,1,0,0:0:0:0:
252,266,20392,1,0,0:0:0:0:
383,75,20559,1,0,0:0:0:0:
63,106,20892,5,0,0:0:0:0:
378,173,21059,1,0,0:0:0:0:
64,239,21225,1,0,0:0:0:0:
379,306,21392,1,0,0:0:0:0:
43,343,21725,2,0,P|69:348|50:329,1,70
51,184,22059,6,0,P|54:149|72:120,1,70
138,55,22392,2,0,L|155:122,1,70
233,141,22725,2,0,P|219:172|192:195,1,70,0|0,0:3|0:3,0:3:0:0:
117,145,23059,2,0,L|100:212,1,70
77,319,23392,5,0,0:0:0:0:
173,368,23559,1,0,0:0:0:0:
249,290,23725,1,0,0:0:0:0:
200,194,23892,1,0,0:0:0:0:
268,115,24059,1,0,0:0:0:0:
367,160,24225,1,0,0:0:0:0:
357,268,24392,1,0,0:0:0:0:
249,290,24559,1,0,0:0:0:0:
449,55,24725,6,0,P|435:86|408:109,1,70,0|0,0:3|0:3,0:3:0:0:
340,51,25059,2,0,L|323:118,1,70
282,184,25392,6,0,P|255:161|241:129,1,70,0|0,0:3|0:3,0:3:0:0:
157,129,25725,6,0,L|174:62,1,70
256,38,26059,5,0,0:0:0:0:
358,71,26226,1,0,0:0:0:0:
357,180,26392,1,0,0:0:0:0:
255,213,26559,2,0,P|281:235|295:267,1,70,0|0,0:3|0:3,0:3:0:0:
330,346,26809,5,0,0:0:0:0:
295,350,26892,1,0,0:0:0:0:
260,354,26975,1,0,0:0:0:0:
225,359,27058,1,0,0:0:0:0:
190,363,27141,1,0,0:0:0:0:
156,368,27225,1,0,0:0:0:0:
121,372,27308,1,0,0:0:0:0:
86,377,27392,6,0,P|51:373|22:354,1,70,0|0,0:3|0:3,0:3:0:0:
7,224,27725,1,0,0:0:0:0:
60,125,27892,2,0,P|90:108|125:107,1,70,0|0,0:3|0:3,0:3:0:0:
230,147,28225,1,0,0:0:0:0:
230,147,28392,2,0,L|247:80,1,70
365,39,28725,5,0,0:0:0:0:
468,154,28892,1,0,0:0:0:0:
447,307,29059,1,0,0:0:0:0:
295,327,29225,2,0,P|272:353|240:366,1,70,0|0,0:3|0:3,0:3:0:0:
88,333,29559,1,0,0:0:0:0:
88,333,29725,2,0,L|71:266,1,70
196,37,30059,6,0,P|228:49|250:76,1,70,0|0,0:3|0:3,0:3:0:0:
339,62,30392,2,0,L|322:129,1,70
287,265,30725,1,0,0:0:0:0:
180,153,30892,1,0,0:0:0:0:
335,194,31059,1,0,0:0:0:0:
183,246,31225,2,0,P|170:278|143:300,1,70,0|0,0:3|0:3,0:3:0:0:
143,300,31559,5,0,0:0:0:0:
44,173,31725,1,0,0:0:0:0:
241,47,31892,1,0,0:0:0:0:
12,95,32059,1,0,0:0:0:0:
260,128,32225,1,0,0:0:0:0:
36,10,32392,1,0,0:0:0:0:
205,197,32559,1,0,0:0:0:0:
241,47,32725,6,0,P|275:49|305:67,1,70,0|0,0:3|0:3,0:3:0:0:
391,53,33059,2,0,L|374:120,1,70
339,271,33392,1,0,0:0:0:0:
201,340,33559,1,0,0:0:0:0:
200,339,33725,2,0,L|183:272,1,70
142,121,34059,5,0,0:0:0:0:
237,71,34226,1,0,0:0:0:0:
313,149,34392,1,0,0:0:0:0:
264,245,34559,1,0,0:0:0:0:
332,324,34726,1,0,0:0:0:0:
431,280,34892,1,0,0:0:0:0:
421,171,35059,1,0,0:0:0:0:
313,149,35226,1,0,0:0:0:0:
67,140,35392,6,0,L|50:207,1,70
109,263,35725,2,0,L|126:196,1,70
326,76,36059,6,0,L|309:9,1,70
250,65,36392,2,0,L|267:132,1,70
366,225,36725,5,0,0:0:0:0:
351,331,36892,1,0,0:0:0:0:
243,349,37058,1,0,0:0:0:0:
193,254,37225,2,0,P|175:284|146:302,1,70,0|0,0:3|0:3,0:3:0:0:
70,350,37475,5,0,0:0:0:0:
59,316,37558,1,0,0:0:0:0:
48,282,37641,1,0,0:0:0:0:
38,249,37724,1,0,0:0:0:0:
27,216,37809,1,0,0:0:0:0:
17,182,37891,1,0,0:0:0:0:
6,149,37975,1,0,0:0:0:0:
2,113,38059,6,0,P|5:78|24:49,1,70,0|0,0:3|0:3,0:3:0:0:
127,1,38392,1,0,0:0:0:0:
168,89,38559,2,0,P|197:70|214:40,1,70,0|0,0:3|0:3,0:3:0:0:
287,1,38892,1,0,0:0:0:0:
286,0,39059,2,0,L|303:67,1,70
449,313,39392,6,0,P|419:294|402:264,1,70,0|0,0:3|0:3,0:3:0:0:
382,160,39725,1,0,0:0:0:0:
279,181,39892,2,0,P|261:211|232:229,1,70,0|0,0:3|0:3,0:3:0:0:
129,252,40225,1,0,0:0:0:0:
220,304,40392,2,0,L|203:371,1,70
90,63,40725,5,0,0:0:0:0:
42,282,40892,1,0,0:0:0:0:
196,64,41059,1,0,0:0:0:0:
198,288,41226,1,0,0:0:0:0:
300,66,41392,1,0,0:0:0:0:
328,281,41559,1,0,0:0:0:0:
414,60,41725,1,0,0:0:0:0:
457,280,41892,2,0,P|439:310|410:328,1,70,0|0,0:3|0:3,0:3:0:0:
160,294,42225,5,0,0:0:0:0:
372,151,42392,1,0,0:0:0:0:
372,151,42475,1,0,0:0:0:0:
372,151,42559,1,0,0:0:0:0:
61,69,42725,1,0,0:0:0:0:
