osu file format v14

[General]
AudioFilename: audio.MP3
AudioLeadIn: 0
PreviewTime: 21975
Countdown: 0
SampleSet: Normal
StackLeniency: 0.7
Mode: 1
LetterboxInBreaks: 0
WidescreenStoryboard: 1

[Editor]
DistanceSpacing: 0.9
BeatDivisor: 4
GridSize: 4
TimelineZoom: 2

[Metadata]
Title:Yuima-ru*World TVver.
TitleUnicode:ゆいまーる☆わーるど TVver.
Artist:Ayase Rie
ArtistUnicode:綾瀬 理恵
Creator:Chromoxx
Version:Muzukashii
Source:はいたい七葉
Tags:haitai nanafa yuimaru ascendance
BeatmapID:1252441
BeatmapSetID:591894

[Difficulty]
HPDrainRate:7
CircleSize:5
OverallDifficulty:5
ApproachRate:5
SliderMultiplier:1.4
SliderTickRate:1

[Events]
//Background and Video events
0,0,"haitainanafa.jpg",0,0
//Break Periods
//Storyboard Layer 0 (Background)
//Storyboard Layer 1 (Fail)
//Storyboard Layer 2 (Pass)
//Storyboard Layer 3 (Foreground)
//Storyboard Sound Samples

[TimingPoints]
726,333.333333333333,4,1,0,80,1,0
22059,-100,4,1,0,80,0,1
42725,-100,4,1,0,80,0,0

[HitObjects]
336,184,726,5,4,0:0:0:0:
304,224,1392,1,8,0:0:0:0:
304,276,1725,1,8,0:0:0:0:
308,216,1892,1,4,0:0:0:0:
208,112,2225,1,4,0:0:0:0:
240,168,2725,1,8,0:0:0:0:
292,176,3059,1,8,0:0:0:0:
248,160,3392,1,4,0:0:0:0:
248,160,4059,1,8,0:0:0:0:
248,160,4392,1,8,0:0:0:0:
356,160,4559,1,4,0:0:0:0:
356,160,4892,1,4,0:0:0:0:
356,160,5059,1,4,0:0:0:0:
252,152,5392,1,8,0:0:0:0:
224,144,5559,1,0,0:0:0:0:
224,144,5725,1,8,0:0:0:0:
244,160,6059,1,4,0:0:0:0:
240,148,6725,1,0,0:0:0:0:
240,148,6892,1,0,0:0:0:0:
240,148,7059,1,8,0:0:0:0:
228,152,7225,1,4,0:0:0:0:
228,152,7559,1,4,0:0:0:0:
132,108,7892,1,8,0:0:0:0:
256,136,8059,1,0,0:0:0:0:
256,136,8225,1,0,0:0:0:0:
256,136,8392,1,8,0:0:0:0:
252,216,8725,1,4,0:0:0:0:
224,180,9392,1,0,0:0:0:0:
224,180,9559,1,0,0:0:0:0:
272,220,9725,1,8,0:0:0:0:
224,180,9892,1,4,0:0:0:0:
272,132,10225,1,4,0:0:0:0:
272,132,10392,1,4,0:0:0:0:
336,156,10725,1,8,0:0:0:0:
336,156,10892,1,0,0:0:0:0:
224,192,11059,1,8,0:0:0:0:
224,192,11392,1,0,0:0:0:0:
224,192,12059,1,8,0:0:0:0:
224,192,12392,1,8,0:0:0:0:
224,192,12725,1,0,0:0:0:0:
265,167,13059,1,0,0:0:0:0:
288,156,13392,1,8,0:0:0:0:
288,156,14059,1,0,0:0:0:0:
288,156,14392,1,0,0:0:0:0:
288,156,14725,1,8,0:0:0:0:
288,156,15059,1,0,0:0:0:0:
288,156,15392,1,8,0:0:0:0:
177,171,15725,1,8,0:0:0:0:
292,176,16059,1,0,0:0:0:0:
292,176,16725,1,8,0:0:0:0:
292,176,17059,1,8,0:0:0:0:
292,176,17392,1,0,0:0:0:0:
292,176,17725,1,0,0:0:0:0:
292,176,18059,1,8,0:0:0:0:
292,176,18392,1,0,0:0:0:0:
292,176,18725,1,8,0:0:0:0:
292,176,19059,1,8,0:0:0:0:
292,176,19392,1,0,0:0:0:0:
288,160,19725,1,8,0:0:0:0:
288,160,19892,1,0,0:0:0:0:
288,160,20059,1,8,0:0:0:0:
284,160,20225,1,0,0:0:0:0:
232,176,20392,1,8,0:0:0:0:
276,180,20559,1,4,0:0:0:0:
280,176,20892,1,4,0:0:0:0:
280,176,21059,1,4,0:0:0:0:
272,172,21392,1,4,0:0:0:0:
252,160,22059,1,4,0:0:0:0:
292,160,22392,1,8,0:0:0:0:
292,160,22559,1,8,0:0:0:0:
292,160,22725,1,0,0:0:0:0:
292,160,22892,1,0,0:0:0:0:
224,132,23059,1,8,0:0:0:0:
224,132,23392,1,0,0:0:0:0:
224,132,23559,1,0,0:0:0:0:
224,132,23725,1,8,0:0:0:0:
216,136,23892,1,0,0:0:0:0:
216,136,24225,1,0,0:0:0:0:
216,136,24392,1,8,0:0:0:0:
216,136,24559,1,0,0:0:0:0:
120,140,24725,1,12,0:0:0:0:
192,144,25059,1,0,0:0:0:0:
192,192,25225,1,0,0:0:0:0:
192,144,25392,1,8,0:0:0:0:
176,116,25559,1,0,0:0:0:0:
176,116,25725,1,8,0:0:0:0:
280,140,26059,1,0,0:0:0:0:
280,140,26225,1,8,0:0:0:0:
280,140,26392,1,8,0:0:0:0:
280,140,26559,1,0,0:0:0:0:
264,128,26892,1,0,0:0:0:0:
264,128,27059,1,8,0:0:0:0:
264,128,27142,1,8,0:0:0:0:
248,124,27225,1,8,0:0:0:0:
292,204,27392,1,0,0:0:0:0:
292,204,27725,1,8,0:0:0:0:
240,176,27892,1,0,0:0:0:0:
240,176,28225,1,0,0:0:0:0:
240,176,28392,1,8,0:0:0:0:
268,168,28725,1,0,0:0:0:0:
268,168,29059,1,8,0:0:0:0:
268,168,29225,1,8,0:0:0:0:
308,184,29559,1,0,0:0:0:0:
308,184,29725,1,8,0:0:0:0:
292,176,30059,1,0,0:0:0:0:
292,176,30225,1,0,0:0:0:0:
292,176,30392,1,8,0:0:0:0:
292,176,30725,1,0,0:0:0:0:
292,176,30892,1,0,0:0:0:0:
292,176,31059,1,8,0:0:0:0:
292,176,31225,1,0,0:0:0:0:
284,172,31559,1,0,0:0:0:0:
284,172,31725,1,8,0:0:0:0:
252,160,32059,1,8,0:0:0:0:
256,168,32225,1,0,0:0:0:0:
256,168,32392,1,8,0:0:0:0:
264,168,32475,1,8,0:0:0:0:
264,168,32559,1,8,0:0:0:0:
256,180,32725,1,4,0:0:0:0:
352,188,33059,1,8,0:0:0:0:
352,188,33225,1,8,0:0:0:0:
288,240,33392,1,0,0:0:0:0:
352,188,33559,1,0,0:0:0:0:
288,240,33725,1,8,0:0:0:0:
328,224,33892,1,0,0:0:0:0:
328,224,34059,1,0,0:0:0:0:
328,224,34392,1,8,0:0:0:0:
328,224,34559,1,0,0:0:0:0:
232,172,34725,1,8,0:0:0:0:
224,176,34892,1,8,0:0:0:0:
224,204,35059,1,0,0:0:0:0:
304,168,35225,1,0,0:0:0:0:
228,128,35392,1,12,0:0:0:0:
324,156,35725,1,0,0:0:0:0:
324,156,35892,1,0,0:0:0:0:
324,156,36059,1,8,0:0:0:0:
324,156,36225,1,0,0:0:0:0:
288,164,36392,1,8,0:0:0:0:
288,164,36559,1,8,0:0:0:0:
312,168,36725,1,0,0:0:0:0:
312,168,37059,1,8,0:0:0:0:
312,168,37225,1,0,0:0:0:0:
296,152,37392,1,8,0:0:0:0:
288,148,37559,1,8,0:0:0:0:
276,144,37725,1,0,0:0:0:0:
288,156,38059,1,8,0:0:0:0:
288,156,38392,1,0,0:0:0:0:
288,156,38559,1,8,0:0:0:0:
288,156,38892,1,0,0:0:0:0:
288,156,39059,1,8,0:0:0:0:
288,156,39392,1,0,0:0:0:0:
288,156,39725,1,8,0:0:0:0:
288,156,39892,1,0,0:0:0:0:
288,156,40225,1,0,0:0:0:0:
288,156,40392,1,8,0:0:0:0:
248,140,40559,1,0,0:0:0:0:
248,140,40725,1,8,0:0:0:0:
216,204,41059,1,0,0:0:0:0:
200,168,41225,1,0,0:0:0:0:
280,164,41392,1,8,0:0:0:0:
244,152,41559,1,0,0:0:0:0:
244,152,41725,1,8,0:0:0:0:
244,152,41892,1,4,0:0:0:0:
231,167,42225,1,8,0:0:0:0:
296,200,42309,1,8,0:0:0:0:
231,166,42392,1,8,0:0:0:0:
264,192,42559,1,8,0:0:0:0:
328,156,42725,1,4,0:0:0:0:
