osu file format v14

[General]
AudioFilename: audio.MP3
AudioLeadIn: 0
PreviewTime: 21975
Countdown: 0
SampleSet: Normal
StackLeniency: 0.7
Mode: 1
LetterboxInBreaks: 0
WidescreenStoryboard: 1

[Editor]
DistanceSpacing: 0.9
BeatDivisor: 4
GridSize: 4
TimelineZoom: 2

[Metadata]
Title:Yuima-ru*World TVver.
TitleUnicode:ゆいまーる☆わーるど TVver.
Artist:Ayase Rie
ArtistUnicode:綾瀬 理恵
Creator:Chromoxx
Version:Kantan
Source:はいたい七葉
Tags:haitai nanafa yuimaru ascendance
BeatmapID:1252440
BeatmapSetID:591894

[Difficulty]
HPDrainRate:9
CircleSize:5
OverallDifficulty:4
ApproachRate:5
SliderMultiplier:1.4
SliderTickRate:1

[Events]
//Background and Video events
0,0,"haitainanafa.jpg",0,0
//Break Periods
//Storyboard Layer 0 (Background)
//Storyboard Layer 1 (Fail)
//Storyboard Layer 2 (Pass)
//Storyboard Layer 3 (Foreground)
//Storyboard Sound Samples

[TimingPoints]
726,333.333333333333,4,1,0,80,1,0
22059,-100,4,1,0,80,0,1
42725,-100,4,1,0,80,0,0

[HitObjects]
188,160,726,5,4,0:0:0:0:
276,220,1892,1,4,0:0:0:0:
256,224,3392,1,4,0:0:0:0:
260,224,4559,1,4,0:0:0:0:
336,220,5059,1,4,0:0:0:0:
352,240,5392,1,8,0:0:0:0:
368,252,6059,1,4,0:0:0:0:
368,252,7225,1,4,0:0:0:0:
368,252,7559,1,4,0:0:0:0:
368,252,8725,1,4,0:0:0:0:
368,252,9892,1,4,0:0:0:0:
368,252,10392,1,4,0:0:0:0:
368,252,10725,1,8,0:0:0:0:
256,232,11392,1,0,0:0:0:0:
280,244,12725,1,8,0:0:0:0:
304,264,14059,1,0,0:0:0:0:
304,264,14725,1,0,0:0:0:0:
304,264,15392,1,8,0:0:0:0:
304,264,16725,1,0,0:0:0:0:
308,248,17392,1,8,0:0:0:0:
308,248,18059,1,0,0:0:0:0:
308,248,18725,1,8,0:0:0:0:
308,248,19392,1,0,0:0:0:0:
348,292,19725,1,0,0:0:0:0:
308,248,20059,1,8,0:0:0:0:
308,248,20559,1,4,0:0:0:0:
372,248,21392,1,4,0:0:0:0:
364,200,22059,1,4,0:0:0:0:
328,284,23392,1,8,0:0:0:0:
328,284,24059,1,0,0:0:0:0:
268,240,24392,1,0,0:0:0:0:
328,284,24725,1,8,0:0:0:0:
296,200,25392,1,0,0:0:0:0:
296,200,26059,1,8,0:0:0:0:
228,200,26559,1,8,0:0:0:0:
252,200,27392,1,0,0:0:0:0:
328,208,27892,1,8,0:0:0:0:
352,272,28725,1,8,0:0:0:0:
352,272,29225,1,0,0:0:0:0:
216,188,30059,1,0,0:0:0:0:
232,192,30725,1,8,0:0:0:0:
232,192,31059,1,8,0:0:0:0:
232,192,31392,1,0,0:0:0:0:
384,224,32059,1,0,0:0:0:0:
272,216,32725,1,4,0:0:0:0:
256,192,34059,1,8,0:0:0:0:
256,192,34725,1,0,0:0:0:0:
256,192,35059,1,0,0:0:0:0:
256,192,35392,1,8,0:0:0:0:
308,192,36059,1,0,0:0:0:0:
308,192,36725,1,8,0:0:0:0:
308,192,37225,1,8,0:0:0:0:
308,192,38059,1,0,0:0:0:0:
308,192,38559,1,8,0:0:0:0:
308,192,39392,1,8,0:0:0:0:
248,140,39892,1,0,0:0:0:0:
368,240,40725,1,8,0:0:0:0:
256,200,41059,1,0,0:0:0:0:
256,200,41392,1,8,0:0:0:0:
296,208,41892,1,4,0:0:0:0:
332,168,42392,1,8,0:0:0:0:
296,208,42725,1,4,0:0:0:0:
