osu file format v14

[General]
AudioFilename: audio.MP3
AudioLeadIn: 0
PreviewTime: 21975
Countdown: 0
SampleSet: Normal
StackLeniency: 0.7
Mode: 1
LetterboxInBreaks: 0
WidescreenStoryboard: 1

[Editor]
DistanceSpacing: 0.9
BeatDivisor: 4
GridSize: 4
TimelineZoom: 2

[Metadata]
Title:Yuima-ru*World TVver.
TitleUnicode:ゆいまーる☆わーるど TVver.
Artist:Ayase Rie
ArtistUnicode:綾瀬 理恵
Creator:Chromoxx
Version:Futsuu
Source:はいたい七葉
Tags:haitai nanafa yuimaru ascendance
BeatmapID:1252439
BeatmapSetID:591894

[Difficulty]
HPDrainRate:8
CircleSize:5
OverallDifficulty:4.5
ApproachRate:5
SliderMultiplier:1.4
SliderTickRate:1

[Events]
//Background and Video events
0,0,"haitainanafa.jpg",0,0
//Break Periods
//Storyboard Layer 0 (Background)
//Storyboard Layer 1 (Fail)
//Storyboard Layer 2 (Pass)
//Storyboard Layer 3 (Foreground)
//Storyboard Sound Samples

[TimingPoints]
726,333.333333333333,4,1,0,80,1,0
22059,-100,4,1,0,80,0,1
42725,-100,4,1,0,80,0,0

[HitObjects]
213,181,726,5,4,0:0:0:0:
286,202,1892,1,4,0:0:0:0:
286,202,2225,1,4,0:0:0:0:
286,202,3392,1,4,0:0:0:0:
286,202,4559,1,4,0:0:0:0:
286,202,4892,1,4,0:0:0:0:
286,202,5059,1,4,0:0:0:0:
270,198,5392,1,8,0:0:0:0:
264,184,5725,1,8,0:0:0:0:
264,184,6059,1,4,0:0:0:0:
388,204,6725,1,8,0:0:0:0:
346,228,7225,1,4,0:0:0:0:
346,228,7559,1,4,0:0:0:0:
347,254,8059,1,0,0:0:0:0:
347,254,8392,1,8,0:0:0:0:
352,248,8725,1,4,0:0:0:0:
388,200,9392,1,8,0:0:0:0:
352,248,9892,1,4,0:0:0:0:
352,248,10225,1,4,0:0:0:0:
352,248,10392,1,4,0:0:0:0:
354,256,10725,1,8,0:0:0:0:
354,256,11059,1,8,0:0:0:0:
354,256,11392,1,0,0:0:0:0:
331,259,12059,1,8,0:0:0:0:
331,259,12392,1,8,0:0:0:0:
331,259,12725,1,0,0:0:0:0:
331,259,14059,1,8,0:0:0:0:
331,259,14725,1,0,0:0:0:0:
331,259,15059,1,0,0:0:0:0:
331,259,15392,1,8,0:0:0:0:
359,239,16725,1,0,0:0:0:0:
367,238,17392,1,8,0:0:0:0:
367,238,17725,1,0,0:0:0:0:
367,238,18059,1,8,0:0:0:0:
276,271,18725,1,8,0:0:0:0:
276,271,19059,1,8,0:0:0:0:
276,271,19392,1,0,0:0:0:0:
365,273,19725,1,0,0:0:0:0:
365,273,20059,1,8,0:0:0:0:
365,273,20392,1,8,0:0:0:0:
370,262,20559,1,4,0:0:0:0:
314,190,21059,1,4,0:0:0:0:
314,190,21392,1,4,0:0:0:0:
314,176,22059,1,4,0:0:0:0:
304,173,22725,1,8,0:0:0:0:
304,173,22892,1,0,0:0:0:0:
304,173,23059,1,8,0:0:0:0:
304,173,23392,1,0,0:0:0:0:
329,195,23725,1,8,0:0:0:0:
329,195,23892,1,0,0:0:0:0:
304,214,24225,1,8,0:0:0:0:
329,195,24392,1,0,0:0:0:0:
318,212,24725,1,12,0:0:0:0:
401,238,25392,1,0,0:0:0:0:
216,136,25559,1,0,0:0:0:0:
401,238,25725,1,8,0:0:0:0:
401,238,26059,1,0,0:0:0:0:
401,238,26392,1,8,0:0:0:0:
401,238,26559,1,0,0:0:0:0:
401,238,26892,1,0,0:0:0:0:
401,238,27059,1,8,0:0:0:0:
291,200,27392,1,0,0:0:0:0:
291,200,27725,1,8,0:0:0:0:
291,200,27892,1,0,0:0:0:0:
291,200,28725,1,8,0:0:0:0:
291,200,29059,1,0,0:0:0:0:
291,200,29225,1,8,0:0:0:0:
294,242,30059,1,8,0:0:0:0:
299,244,30392,1,0,0:0:0:0:
292,206,30725,1,8,0:0:0:0:
292,206,30892,1,8,0:0:0:0:
338,278,31225,1,0,0:0:0:0:
336,160,31725,1,8,0:0:0:0:
420,176,32059,1,8,0:0:0:0:
228,112,32225,1,0,0:0:0:0:
228,112,32392,1,8,0:0:0:0:
228,112,32725,1,4,0:0:0:0:
376,200,33392,1,8,0:0:0:0:
376,200,33559,1,0,0:0:0:0:
328,176,33725,1,8,0:0:0:0:
328,176,34059,1,0,0:0:0:0:
328,176,34392,1,8,0:0:0:0:
328,176,34559,1,0,0:0:0:0:
264,196,34892,1,8,0:0:0:0:
264,196,35059,1,0,0:0:0:0:
272,172,35392,1,12,0:0:0:0:
360,140,36059,1,0,0:0:0:0:
360,140,36225,1,0,0:0:0:0:
360,140,36392,1,8,0:0:0:0:
300,124,36725,1,0,0:0:0:0:
300,124,37059,1,8,0:0:0:0:
300,124,37225,1,0,0:0:0:0:
300,124,37559,1,0,0:0:0:0:
264,124,37725,1,8,0:0:0:0:
368,216,38059,1,0,0:0:0:0:
416,200,38392,1,8,0:0:0:0:
416,200,38559,1,0,0:0:0:0:
416,200,39392,1,8,0:0:0:0:
416,200,39725,1,0,0:0:0:0:
416,200,39892,1,8,0:0:0:0:
416,200,40725,1,0,0:0:0:0:
416,200,41059,1,8,0:0:0:0:
400,192,41225,1,8,0:0:0:0:
392,192,41392,1,0,0:0:0:0:
392,192,41725,1,8,0:0:0:0:
392,188,41892,1,4,0:0:0:0:
264,244,42225,1,0,0:0:0:0:
392,184,42392,1,8,0:0:0:0:
388,192,42725,1,4,0:0:0:0:
