osu file format v14

[General]
AudioFilename: audio.MP3
AudioLeadIn: 0
PreviewTime: 21975
Countdown: 0
SampleSet: Normal
StackLeniency: 0.7
Mode: 1
LetterboxInBreaks: 0
WidescreenStoryboard: 1

[Editor]
DistanceSpacing: 0.9
BeatDivisor: 4
GridSize: 4
TimelineZoom: 2

[Metadata]
Title:Yuima-ru*World TVver.
TitleUnicode:ゆいまーる☆わーるど TVver.
Artist:Ayase Rie
ArtistUnicode:綾瀬 理恵
Creator:Chromoxx
Version:Oni
Source:はいたい七葉
Tags:haitai nanafa yuimaru ascendance
BeatmapID:1252442
BeatmapSetID:591894

[Difficulty]
HPDrainRate:6
CircleSize:5
OverallDifficulty:6
ApproachRate:5
SliderMultiplier:1.4
SliderTickRate:1

[Events]
//Background and Video events
0,0,"haitainanafa.jpg",0,0
//Break Periods
//Storyboard Layer 0 (Background)
//Storyboard Layer 1 (Fail)
//Storyboard Layer 2 (Pass)
//Storyboard Layer 3 (Foreground)
//Storyboard Sound Samples

[TimingPoints]
726,333.333333333333,4,1,0,80,1,0
22059,-100,4,1,0,80,0,1
41892,-66.6666666666667,4,1,0,80,0,1
42725,-66.6666666666667,4,1,0,80,0,0

[HitObjects]
208,164,726,5,4,0:0:0:0:
308,304,1059,1,8,0:0:0:0:
308,304,1225,1,8,0:0:0:0:
308,304,1392,1,0,0:0:0:0:
268,264,1725,1,8,0:0:0:0:
236,236,1892,1,4,0:0:0:0:
228,236,2225,1,4,0:0:0:0:
376,216,2559,1,8,0:0:0:0:
376,216,2725,1,0,0:0:0:0:
376,216,2892,1,0,0:0:0:0:
376,216,3059,1,8,0:0:0:0:
368,216,3392,1,4,0:0:0:0:
364,208,3725,1,8,0:0:0:0:
364,208,3892,1,8,0:0:0:0:
304,204,4059,1,0,0:0:0:0:
364,208,4225,1,0,0:0:0:0:
304,204,4392,1,8,0:0:0:0:
292,196,4559,1,4,0:0:0:0:
292,196,4892,1,4,0:0:0:0:
292,196,5059,1,4,0:0:0:0:
292,192,5392,1,8,0:0:0:0:
224,180,5559,1,0,0:0:0:0:
224,180,5725,1,12,0:0:0:0:
240,188,6059,1,4,0:0:0:0:
272,196,6392,1,8,0:0:0:0:
200,248,6559,1,8,0:0:0:0:
220,224,6725,1,0,0:0:0:0:
272,204,6892,1,0,0:0:0:0:
272,196,7059,1,8,0:0:0:0:
272,196,7225,1,4,0:0:0:0:
320,188,7559,1,4,0:0:0:0:
248,152,7725,1,8,0:0:0:0:
360,184,8059,1,0,0:0:0:0:
344,140,8225,1,0,0:0:0:0:
344,140,8392,1,8,0:0:0:0:
276,176,8725,1,4,0:0:0:0:
296,164,9059,1,8,0:0:0:0:
296,164,9225,1,8,0:0:0:0:
280,160,9392,1,0,0:0:0:0:
296,164,9559,1,0,0:0:0:0:
280,160,9725,1,8,0:0:0:0:
364,216,9892,1,4,0:0:0:0:
364,216,10225,1,4,0:0:0:0:
352,204,10392,1,8,0:0:0:0:
352,204,10725,1,0,0:0:0:0:
352,204,10892,1,0,0:0:0:0:
296,160,11059,1,12,0:0:0:0:
320,208,11392,1,0,0:0:0:0:
320,208,11725,1,8,0:0:0:0:
320,208,11892,1,8,0:0:0:0:
320,208,12059,1,0,0:0:0:0:
320,208,12392,1,8,0:0:0:0:
320,208,12725,1,0,0:0:0:0:
216,180,12892,1,8,0:0:0:0:
204,168,13059,1,0,0:0:0:0:
200,168,13225,1,8,0:0:0:0:
320,208,13392,1,0,0:0:0:0:
252,224,13725,1,8,0:0:0:0:
248,220,13892,1,8,0:0:0:0:
244,216,14059,1,0,0:0:0:0:
200,160,14392,1,8,0:0:0:0:
200,160,14559,1,0,0:0:0:0:
200,160,14725,1,0,0:0:0:0:
200,160,15059,1,8,0:0:0:0:
232,180,15392,1,0,0:0:0:0:
232,180,15559,1,8,0:0:0:0:
232,180,15725,1,0,0:0:0:0:
232,180,15892,1,8,0:0:0:0:
232,180,16059,1,8,0:0:0:0:
180,136,16225,1,0,0:0:0:0:
256,144,16392,1,8,0:0:0:0:
228,128,16475,1,8,0:0:0:0:
256,144,16559,1,8,0:0:0:0:
256,144,16642,1,8,0:0:0:0:
228,128,16725,1,0,0:0:0:0:
228,128,17059,1,8,0:0:0:0:
232,124,17225,1,0,0:0:0:0:
232,124,17309,1,0,0:0:0:0:
232,116,17392,1,0,0:0:0:0:
232,116,17559,1,0,0:0:0:0:
232,116,17725,1,8,0:0:0:0:
336,156,18059,1,0,0:0:0:0:
336,156,18225,1,0,0:0:0:0:
336,156,18392,1,8,0:0:0:0:
360,136,18559,1,0,0:0:0:0:
360,136,18642,1,0,0:0:0:0:
320,112,18725,1,8,0:0:0:0:
320,112,18892,1,0,0:0:0:0:
384,120,19059,1,8,0:0:0:0:
360,104,19392,1,8,0:0:0:0:
348,88,19559,1,0,0:0:0:0:
348,88,19725,1,8,0:0:0:0:
320,136,19892,1,0,0:0:0:0:
296,120,19975,1,0,0:0:0:0:
296,120,20059,1,8,0:0:0:0:
344,116,20225,1,0,0:0:0:0:
344,116,20392,1,8,0:0:0:0:
352,108,20559,1,4,0:0:0:0:
352,104,20892,1,4,0:0:0:0:
352,104,21059,1,4,0:0:0:0:
352,104,21392,1,4,0:0:0:0:
236,112,21642,1,8,0:0:0:0:
336,88,21725,1,8,0:0:0:0:
336,80,22059,1,4,0:0:0:0:
256,136,22392,1,12,0:0:0:0:
256,136,22559,1,0,0:0:0:0:
256,136,22642,1,0,0:0:0:0:
256,136,22725,1,0,0:0:0:0:
256,136,22892,1,0,0:0:0:0:
256,136,23059,1,8,0:0:0:0:
344,232,23225,1,0,0:0:0:0:
344,232,23392,1,8,0:0:0:0:
316,184,23475,1,8,0:0:0:0:
316,184,23559,1,0,0:0:0:0:
296,144,23725,1,8,0:0:0:0:
296,144,23892,1,8,0:0:0:0:
280,96,24059,1,0,0:0:0:0:
280,96,24225,1,0,0:0:0:0:
288,120,24309,1,0,0:0:0:0:
288,92,24392,1,8,0:0:0:0:
200,252,24559,1,0,0:0:0:0:
224,224,24725,1,12,0:0:0:0:
300,224,25059,1,4,0:0:0:0:
288,276,25225,1,8,0:0:0:0:
300,224,25309,1,8,0:0:0:0:
300,224,25392,1,8,0:0:0:0:
276,196,25559,1,0,0:0:0:0:
276,196,25725,1,8,0:0:0:0:
276,196,25892,1,8,0:0:0:0:
304,204,26059,1,0,0:0:0:0:
296,192,26142,1,0,0:0:0:0:
296,192,26225,1,0,0:0:0:0:
296,192,26392,1,8,0:0:0:0:
296,192,26559,1,0,0:0:0:0:
300,196,26892,1,8,0:0:0:0:
296,192,27059,1,8,0:0:0:0:
296,192,27142,1,8,0:0:0:0:
296,192,27225,1,0,0:0:0:0:
296,192,27392,1,12,0:0:0:0:
296,192,27559,1,0,0:0:0:0:
320,240,27642,1,0,0:0:0:0:
300,196,27725,1,0,0:0:0:0:
320,240,27892,1,12,0:0:0:0:
320,240,28225,1,0,0:0:0:0:
320,240,28392,1,8,0:0:0:0:
320,240,28725,1,4,0:0:0:0:
320,240,28892,1,8,0:0:0:0:
308,252,28975,1,8,0:0:0:0:
320,240,29059,1,8,0:0:0:0:
292,236,29225,1,4,0:0:0:0:
296,236,29559,1,0,0:0:0:0:
296,236,29725,1,8,0:0:0:0:
296,236,29892,1,0,0:0:0:0:
296,236,30059,1,8,0:0:0:0:
288,236,30392,1,8,0:0:0:0:
288,236,30559,1,0,0:0:0:0:
300,236,30725,1,8,0:0:0:0:
296,236,30809,1,8,0:0:0:0:
264,240,30892,1,0,0:0:0:0:
296,236,31059,1,8,0:0:0:0:
328,276,31225,1,0,0:0:0:0:
376,268,31559,1,0,0:0:0:0:
376,268,31725,1,12,0:0:0:0:
348,252,31892,1,0,0:0:0:0:
376,268,32059,1,12,0:0:0:0:
348,252,32225,1,0,0:0:0:0:
328,184,32392,1,8,0:0:0:0:
304,192,32475,1,8,0:0:0:0:
328,184,32559,1,8,0:0:0:0:
284,192,32725,1,4,0:0:0:0:
388,208,33059,1,12,0:0:0:0:
388,208,33225,1,0,0:0:0:0:
372,212,33392,1,8,0:0:0:0:
368,216,33475,1,8,0:0:0:0:
276,152,33559,1,0,0:0:0:0:
276,152,33725,1,8,0:0:0:0:
284,176,33892,1,8,0:0:0:0:
284,176,34059,1,0,0:0:0:0:
284,176,34142,1,0,0:0:0:0:
276,172,34225,1,0,0:0:0:0:
276,172,34392,1,8,0:0:0:0:
308,184,34559,1,0,0:0:0:0:
308,184,34642,1,0,0:0:0:0:
288,168,34725,1,8,0:0:0:0:
292,180,34809,1,8,0:0:0:0:
272,140,34892,1,0,0:0:0:0:
272,208,35059,1,8,0:0:0:0:
272,140,35225,1,0,0:0:0:0:
296,160,35392,1,12,0:0:0:0:
376,232,35725,1,4,0:0:0:0:
376,232,35892,1,8,0:0:0:0:
216,220,36059,1,0,0:0:0:0:
248,192,36142,1,0,0:0:0:0:
216,220,36225,1,8,0:0:0:0:
364,216,36392,1,0,0:0:0:0:
360,216,36559,1,0,0:0:0:0:
336,236,36725,1,8,0:0:0:0:
336,236,36809,1,8,0:0:0:0:
340,232,36892,1,0,0:0:0:0:
252,256,36975,1,0,0:0:0:0:
280,184,37059,1,8,0:0:0:0:
328,252,37225,1,0,0:0:0:0:
300,240,37559,1,0,0:0:0:0:
336,236,37725,1,8,0:0:0:0:
332,248,37809,1,8,0:0:0:0:
312,264,37892,1,0,0:0:0:0:
332,248,38059,1,12,0:0:0:0:
232,152,38225,1,0,0:0:0:0:
232,152,38309,1,0,0:0:0:0:
232,152,38392,1,0,0:0:0:0:
232,152,38559,1,12,0:0:0:0:
280,276,38892,1,0,0:0:0:0:
276,188,39059,1,8,0:0:0:0:
276,188,39392,1,4,0:0:0:0:
276,188,39559,1,8,0:0:0:0:
276,188,39642,1,8,0:0:0:0:
276,188,39725,1,8,0:0:0:0:
276,188,39892,1,4,0:0:0:0:
368,232,40225,1,0,0:0:0:0:
368,232,40392,1,8,0:0:0:0:
368,232,40559,1,0,0:0:0:0:
368,240,40725,1,8,0:0:0:0:
288,236,40892,1,0,0:0:0:0:
288,236,40975,1,0,0:0:0:0:
292,240,41059,1,8,0:0:0:0:
292,240,41225,1,0,0:0:0:0:
280,172,41392,1,8,0:0:0:0:
304,208,41475,1,8,0:0:0:0:
264,204,41559,1,0,0:0:0:0:
284,204,41642,1,0,0:0:0:0:
256,152,41725,1,8,0:0:0:0:
320,184,41892,1,4,0:0:0:0:
348,200,42225,1,4,0:0:0:0:
348,200,42392,1,12,0:0:0:0:
292,216,42725,1,4,0:0:0:0:
