osu file format v14

[General]
AudioFilename: audio.mp3
AudioLeadIn: 0
PreviewTime: 22059
Countdown: 0
SampleSet: None
StackLeniency: 0.7
Mode: 0
LetterboxInBreaks: 0
WidescreenStoryboard: 1

[Editor]
Bookmarks: 16725,20559,20892,21725,22059,27059,37725,38059,42392,42725
DistanceSpacing: 3
BeatDivisor: 4
GridSize: 4
TimelineZoom: 1.7

[Metadata]
Title:Yuima-ru*World (TV Ver.)
TitleUnicode:Yuima-ru*World (TV Ver.)
Artist:Ayase Rie
ArtistUnicode:Ayase Rie
Creator:Epiclol
Version:Around the world
Source:
Tags:haitai nanafa
BeatmapID:1200100
BeatmapSetID:566527

[Difficulty]
HPDrainRate:5
CircleSize:4
OverallDifficulty:6
ApproachRate:9
SliderMultiplier:1.6
SliderTickRate:1

[Events]
//Background and Video events
0,0,"Banana.jpg",0,0
//Break Periods
//Storyboard Layer 0 (Background)
//Storyboard Layer 1 (Fail)
//Storyboard Layer 2 (Pass)
//Storyboard Layer 3 (Foreground)
//Storyboard Sound Samples

[TimingPoints]
726,333.333333333333,4,1,0,60,1,0
726,-125,4,3,0,60,0,0
21725,-89.2857142857143,4,3,0,80,0,1
27392,-89.2857142857143,4,3,0,80,0,0
31725,-89.2857142857143,4,3,0,80,0,1
31892,-89.2857142857143,4,3,0,80,0,0
32059,-89.2857142857143,4,3,0,80,0,1
32225,-89.2857142857143,4,3,0,80,0,0
32392,-89.2857142857143,4,3,0,80,0,1
42725,-89.2857142857143,4,3,0,80,0,0

[HitObjects]
112,256,726,5,8,0:0:0:0:
232,300,892,2,0,P|300:292|360:232,1,128,0|8,0:0|0:0,0:0:0:0:
248,176,1392,1,0,0:0:0:0:
152,260,1559,1,0,0:0:0:0:
124,84,1726,1,0,0:0:0:0:
64,196,1892,6,0,P|61:230|68:264,1,64
176,196,2225,2,0,P|184:160|176:124,1,64
128,44,2559,1,0,0:0:0:0:
252,20,2725,1,0,0:0:0:0:
179,133,2892,1,0,0:0:0:0:
308,116,3059,2,0,L|388:104,1,64
312,224,3392,5,0,0:0:0:0:
224,288,3559,2,0,P|208:216|224:160,1,128
272,76,4059,1,0,0:0:0:0:
312,212,4226,1,0,0:0:0:0:
348,36,4392,1,0,0:0:0:0:
362,98,4559,6,0,L|342:14,1,64
424,212,4893,2,0,L|440:136,1,64,8|0,0:0|0:0,0:0:0:0:
437,149,5226,1,8,0:0:0:0:
332,280,5393,1,0,0:0:0:0:
344,152,5560,1,0,0:0:0:0:
448,296,5726,1,0,0:0:0:0:
256,128,6059,5,0,0:0:0:0:
188,60,6225,2,0,P|164:100|184:188,1,128
256,276,6725,2,0,P|220:300|188:308,2,64
328,168,7225,6,0,L|340:80,1,64
312,256,7559,1,0,0:0:0:0:
204,136,7725,1,0,0:0:0:0:
372,160,7892,1,8,0:0:0:0:
232,312,8058,5,0,0:0:0:0:
196,136,8225,1,0,0:0:0:0:
336,248,8392,1,0,0:0:0:0:
156,240,8559,1,8,0:0:0:0:
312,152,8725,1,0,0:0:0:0:
404,196,8892,6,0,P|412:144|376:72,1,128
260,40,9392,1,8,0:0:0:0:
260,40,9559,1,8,0:0:0:0:
220,212,9725,1,8,0:0:0:0:
168,108,9892,5,8,0:0:0:0:
168,108,10059,2,0,L|140:24,1,64,8|0,0:0|0:0,0:0:0:0:
132,200,10393,1,0,0:0:0:0:
264,124,10559,1,0,0:0:0:0:
264,304,10725,2,0,L|236:220,1,64,8|0,0:0|0:0,0:0:0:0:
184,72,11059,1,0,0:0:0:0:
88,224,11392,6,0,L|8:240,2,64
180,132,11892,1,0,0:0:0:0:
272,224,12059,2,0,P|312:228|336:224,1,64
412,120,12392,2,0,P|456:116|500:120,1,64
444,244,12726,1,0,0:0:0:0:
408,124,12892,1,0,0:0:0:0:
344,236,13059,1,0,0:0:0:0:
300,116,13225,1,0,0:0:0:0:
200,196,13392,6,0,P|192:236|200:280,1,64
264,152,13725,2,0,P|228:124|204:120,1,64
96,100,14059,1,0,0:0:0:0:
184,228,14226,1,0,0:0:0:0:
60,204,14392,1,0,0:0:0:0:
210,120,14559,1,0,0:0:0:0:
140,228,14725,6,0,P|168:248|224:248,1,64
108,160,15059,2,0,P|76:184|64:208,1,64
48,340,15392,1,0,0:0:0:0:
65,204,15559,1,0,0:0:0:0:
156,304,15725,1,0,0:0:0:0:
200,176,15892,1,0,0:0:0:0:
272,340,16058,1,0,0:0:0:0:
324,196,16225,1,0,0:0:0:0:
216,268,16392,5,0,0:0:0:0:
216,268,16475,1,0,0:0:0:0:
216,268,16559,1,0,0:0:0:0:
216,268,16642,1,0,0:0:0:0:
216,268,16725,6,0,P|228:316|256:344,1,64
360,232,17059,2,0,P|355:200|339:172,1,64
240,84,17391,5,0,0:0:0:0:
188,200,17558,1,0,0:0:0:0:
136,40,17725,1,0,0:0:0:0:
252,160,17892,1,0,0:0:0:0:
92,208,18058,2,0,P|48:216|8:208,1,64
152,100,18392,2,0,P|196:96|236:100,1,64
336,212,18725,5,0,0:0:0:0:
364,48,18892,1,0,0:0:0:0:
432,148,19059,1,0,0:0:0:0:
272,100,19225,1,0,0:0:0:0:
192,276,19392,6,0,P|168:240|164:200,1,64
332,128,19725,2,0,P|351:153|360:183,1,64
188,96,20059,5,0,0:0:0:0:
156,284,20225,1,0,0:0:0:0:
312,176,20391,1,0,0:0:0:0:
120,152,20558,1,0,0:0:0:0:
220,332,20892,5,0,0:0:0:0:
276,160,21059,1,0,0:0:0:0:
368,312,21225,1,0,0:0:0:0:
204,236,21392,1,0,0:0:0:0:
372,172,21725,6,0,P|428:164|472:172,1,89.60000109375
292,104,22059,2,0,P|244:96|192:104,1,89.60000109375
108,252,22392,2,0,L|104:352,1,90
208,196,22725,2,0,L|212:96,1,90
212,36,23059,5,0,0:0:0:0:
208,216,23226,1,0,0:0:0:0:
116,120,23392,1,0,0:0:0:0:
112,300,23559,1,0,0:0:0:0:
40,188,23725,1,0,0:0:0:0:
208,256,23892,1,0,0:0:0:0:
56,352,24059,2,0,P|44:304|56:248,1,89.60000109375
188,152,24392,2,0,L|300:144,1,89.60000109375
384,292,24725,6,0,L|372:188,1,89.60000109375
460,360,25059,2,0,L|472:268,1,89.60000109375
496,92,25392,1,0,0:0:0:0:
376,228,25559,1,0,0:0:0:0:
392,52,25725,1,0,0:0:0:0:
272,188,25892,1,0,0:0:0:0:
148,60,26059,6,0,P|136:116|148:164,1,89.60000109375
196,316,26392,1,0,0:0:0:0:
272,216,26559,1,0,0:0:0:0:
384,276,26725,2,0,P|396:220|384:172,1,89.60000109375
288,64,27059,1,0,0:0:0:0:
288,64,27142,1,0,0:0:0:0:
288,64,27225,1,0,0:0:0:0:
232,236,27392,5,0,0:0:0:0:
172,68,27559,1,0,0:0:0:0:
108,176,27725,1,0,0:0:0:0:
32,112,27892,2,0,P|8:168|64:268,1,179.2000021875
156,312,28392,1,0,0:0:0:0:
452,80,28725,5,0,0:0:0:0:
396,252,28892,1,0,0:0:0:0:
320,152,29059,1,0,0:0:0:0:
252,68,29225,2,0,P|212:160|244:228,1,179.2000021875
316,304,29725,1,0,0:0:0:0:
428,164,29892,1,0,0:0:0:0:
428,164,30059,6,0,P|448:208|448:280,1,89.60000109375
412,72,30392,2,0,P|360:96|340:132,1,89.60000109375
260,56,30725,1,0,0:0:0:0:
208,228,30892,1,0,0:0:0:0:
152,116,31059,1,0,0:0:0:0:
296,204,31225,2,0,P|284:288|192:324,1,179.2000021875
112,172,31725,6,0,L|96:68,1,89.60000109375
204,232,32059,2,0,L|188:128,1,89.60000109375
304,284,32392,2,0,L|288:180,1,89.60000109375
124,260,32725,6,0,P|156:300|208:316,1,89.60000109375
368,280,33059,2,0,L|384:160,1,89.60000109375
396,80,33392,1,0,0:0:0:0:
276,216,33559,1,0,0:0:0:0:
240,40,33725,1,0,0:0:0:0:
176,152,33892,1,0,0:0:0:0:
72,120,34059,6,0,P|68:168|84:212,1,89.60000109375
132,324,34392,1,0,0:0:0:0:
176,152,34559,1,0,0:0:0:0:
252,252,34725,1,0,0:0:0:0:
296,80,34892,1,0,0:0:0:0:
360,248,35059,1,0,0:0:0:0:
176,152,35225,1,0,0:0:0:0:
360,168,35392,6,0,P|396:120|400:80,1,89.60000109375
296,240,35725,2,0,L|304:336,1,89.60000109375
288,148,36059,1,0,0:0:0:0:
120,208,36225,1,0,0:0:0:0:
156,68,36392,1,0,0:0:0:0:
224,272,36559,1,0,0:0:0:0:
284,104,36725,6,0,P|336:128|360:168,1,89.60000109375
404,268,37059,1,0,0:0:0:0:
488,220,37225,2,0,P|428:176|332:204,1,179.2000021875
232,304,37725,5,0,0:0:0:0:
232,304,37809,1,0,0:0:0:0:
232,304,37892,1,0,0:0:0:0:
232,304,37975,1,0,0:0:0:0:
232,304,38059,6,0,L|220:204,1,89.60000109375
196,36,38392,1,0,0:0:0:0:
96,72,38559,2,0,P|124:116|248:132,1,179.2000021875
348,68,39059,1,0,0:0:0:0:
412,236,39225,1,0,0:0:0:0:
252,152,39392,5,0,0:0:0:0:
204,324,39559,1,0,0:0:0:0:
140,216,39725,1,0,0:0:0:0:
52,212,39892,2,0,P|75:275|196:281,1,179.2000021875
272,216,40392,1,0,0:0:0:0:
272,216,40475,1,0,0:0:0:0:
272,216,40559,1,0,0:0:0:0:
376,72,40725,5,0,0:0:0:0:
392,196,40892,2,0,L|400:296,1,89.60000109375
280,152,41225,5,0,0:0:0:0:
216,320,41392,1,0,0:0:0:0:
144,156,41559,1,0,0:0:0:0:
296,248,41725,1,0,0:0:0:0:
116,272,41892,1,0,0:0:0:0:
256,156,42059,1,0,0:0:0:0:
328,356,42225,5,0,0:0:0:0:
416,244,42392,1,0,0:0:0:0:
416,244,42475,1,0,0:0:0:0:
416,244,42559,1,0,0:0:0:0:
176,124,42725,1,0,0:0:0:0:
