osu file format v14

[General]
AudioFilename: audio.MP3
AudioLeadIn: 0
PreviewTime: -1
Countdown: 1
SampleSet: Normal
StackLeniency: 0.7
Mode: 3
LetterboxInBreaks: 0
SpecialStyle: 0
WidescreenStoryboard: 0

[Editor]
DistanceSpacing: 1.3
BeatDivisor: 2
GridSize: 4
TimelineZoom: 1

[Metadata]
Title:Yuima-ru* World TV-Size
TitleUnicode:Yuima-ru* World TV-Size
Artist:Ayase Rie
ArtistUnicode:Ayase Rie
Creator:EiiMagician
Version:hime hime
Source:lowo!
Tags:lolis,anime,overmapped,free,pp
BeatmapID:1594708
BeatmapSetID:758096

[Difficulty]
HPDrainRate:5
CircleSize:4
OverallDifficulty:4
ApproachRate:6
SliderMultiplier:0.600000005960464
SliderTickRate:1

[Events]
//Background and Video events
0,0,"jrebWIh.jpg",0,0
//Break Periods
//Storyboard Layer 0 (Background)
//Storyboard Layer 1 (Fail)
//Storyboard Layer 2 (Pass)
//Storyboard Layer 3 (Foreground)
//Storyboard Sound Samples

[TimingPoints]
47,333.251914893607,4,1,0,100,1,0

[HitObjects]
64,192,713,5,0,0:0:0:0:
192,192,713,5,0,0:0:0:0:
448,192,713,1,0,0:0:0:0:
64,192,1046,1,0,0:0:0:0:
448,192,1046,1,0,0:0:0:0:
192,192,1046,1,0,0:0:0:0:
64,192,1463,1,0,0:0:0:0:
320,192,1463,1,0,0:0:0:0:
192,192,1629,1,0,0:0:0:0:
192,192,1879,1,0,0:0:0:0:
448,192,1879,1,0,0:0:0:0:
320,192,2046,1,0,0:0:0:0:
192,192,2213,1,0,0:0:0:0:
448,192,2213,1,0,0:0:0:0:
64,192,2296,1,0,0:0:0:0:
320,192,2713,1,0,0:0:0:0:
64,192,2879,1,0,0:0:0:0:
320,192,2962,1,0,0:0:0:0:
448,192,3046,1,0,0:0:0:0:
192,192,3212,1,0,0:0:0:0:
64,192,3296,1,0,0:0:0:0:
192,192,3546,1,0,0:0:0:0:
320,192,3629,1,0,0:0:0:0:
64,192,3796,1,0,0:0:0:0:
192,192,3879,1,0,0:0:0:0:
448,192,4046,1,0,0:0:0:0:
320,192,4046,1,0,0:0:0:0:
192,192,4212,1,0,0:0:0:0:
320,192,4545,1,0,0:0:0:0:
192,192,4545,1,0,0:0:0:0:
192,192,4879,1,0,0:0:0:0:
320,192,4879,1,0,0:0:0:0:
320,192,5212,1,0,0:0:0:0:
192,192,5212,1,0,0:0:0:0:
320,192,5545,1,0,0:0:0:0:
64,192,5545,1,0,0:0:0:0:
192,192,5712,1,0,0:0:0:0:
64,192,5795,1,0,0:0:0:0:
192,192,6045,1,0,0:0:0:0:
448,192,6128,1,0,0:0:0:0:
192,192,6295,1,0,0:0:0:0:
320,192,6545,1,0,0:0:0:0:
64,192,6545,1,0,0:0:0:0:
192,192,6795,1,0,0:0:0:0:
320,192,7045,1,0,0:0:0:0:
64,192,7045,1,0,0:0:0:0:
448,192,7211,1,0,0:0:0:0:
192,192,7295,1,0,0:0:0:0:
64,192,7545,1,0,0:0:0:0:
320,192,7545,1,0,0:0:0:0:
320,192,7795,1,0,0:0:0:0:
64,192,7878,1,0,0:0:0:0:
448,192,8045,1,0,0:0:0:0:
320,192,8211,1,0,0:0:0:0:
192,192,8294,1,0,0:0:0:0:
64,192,8461,1,0,0:0:0:0:
192,192,8711,1,0,0:0:0:0:
448,192,9044,1,0,0:0:0:0:
192,192,9044,1,0,0:0:0:0:
320,192,9294,1,0,0:0:0:0:
64,192,9378,1,0,0:0:0:0:
320,192,9794,1,0,0:0:0:0:
192,192,9877,1,0,0:0:0:0:
192,192,10044,1,0,0:0:0:0:
320,192,10294,1,0,0:0:0:0:
320,192,10544,1,0,0:0:0:0:
64,192,10627,1,0,0:0:0:0:
320,192,10877,1,0,0:0:0:0:
320,192,11127,1,0,0:0:0:0:
192,192,11377,1,0,0:0:0:0:
320,192,11627,1,0,0:0:0:0:
192,192,11960,1,0,0:0:0:0:
320,192,12210,1,0,0:0:0:0:
448,192,12210,1,0,0:0:0:0:
192,192,12543,1,0,0:0:0:0:
64,192,12543,1,0,0:0:0:0:
320,192,12793,1,0,0:0:0:0:
192,192,13043,1,0,0:0:0:0:
320,192,13293,1,0,0:0:0:0:
192,192,13543,1,0,0:0:0:0:
320,192,13543,1,0,0:0:0:0:
64,192,13710,1,0,0:0:0:0:
320,192,13793,1,0,0:0:0:0:
192,192,14043,1,0,0:0:0:0:
448,192,14210,1,0,0:0:0:0:
320,192,14376,1,0,0:0:0:0:
192,192,14376,1,0,0:0:0:0:
192,192,14626,1,0,0:0:0:0:
448,192,14876,1,0,0:0:0:0:
320,192,14876,1,0,0:0:0:0:
192,192,15126,1,0,0:0:0:0:
320,192,15376,1,0,0:0:0:0:
64,192,15376,1,0,0:0:0:0:
192,192,15709,1,0,0:0:0:0:
448,192,16043,1,0,0:0:0:0:
192,192,16043,1,0,0:0:0:0:
320,192,16209,1,0,0:0:0:0:
192,192,16376,1,0,0:0:0:0:
448,192,16542,1,0,0:0:0:0:
192,192,16709,1,0,0:0:0:0:
448,192,17042,1,0,0:0:0:0:
320,192,17042,1,0,0:0:0:0:
192,192,17126,1,0,0:0:0:0:
64,192,17209,1,0,0:0:0:0:
192,192,17542,1,0,0:0:0:0:
320,192,17792,1,0,0:0:0:0:
448,192,18042,1,0,0:0:0:0:
320,192,18209,1,0,0:0:0:0:
192,192,18209,1,0,0:0:0:0:
64,192,18292,1,0,0:0:0:0:
192,192,18542,1,0,0:0:0:0:
320,192,18792,1,0,0:0:0:0:
64,192,18875,1,0,0:0:0:0:
64,192,19042,1,0,0:0:0:0:
320,192,19208,1,0,0:0:0:0:
64,192,19375,1,0,0:0:0:0:
320,192,19708,1,0,0:0:0:0:
192,192,19708,1,0,0:0:0:0:
192,192,19875,1,0,0:0:0:0:
320,192,20042,1,0,0:0:0:0:
192,192,20208,1,0,0:0:0:0:
192,192,20458,1,0,0:0:0:0:
320,192,20625,1,0,0:0:0:0:
320,192,20875,1,0,0:0:0:0:
192,192,20875,1,0,0:0:0:0:
320,192,21125,1,0,0:0:0:0:
192,192,21291,1,0,0:0:0:0:
64,192,21458,1,0,0:0:0:0:
192,192,21541,1,0,0:0:0:0:
64,192,21625,1,0,0:0:0:0:
320,192,21958,1,0,0:0:0:0:
64,192,22041,1,0,0:0:0:0:
448,192,22208,1,0,0:0:0:0:
192,192,22208,1,0,0:0:0:0:
320,192,22291,1,0,0:0:0:0:
320,192,22541,1,0,0:0:0:0:
192,192,22541,1,0,0:0:0:0:
192,192,22874,1,0,0:0:0:0:
320,192,22874,1,0,0:0:0:0:
320,192,23208,1,0,0:0:0:0:
192,192,23208,1,0,0:0:0:0:
320,192,23374,1,0,0:0:0:0:
64,192,23541,1,0,0:0:0:0:
192,192,23624,1,0,0:0:0:0:
448,192,23707,1,0,0:0:0:0:
448,192,23874,1,0,0:0:0:0:
64,192,24041,1,0,0:0:0:0:
320,192,24124,1,0,0:0:0:0:
192,192,24374,1,0,0:0:0:0:
448,192,24374,1,0,0:0:0:0:
320,192,24374,1,0,0:0:0:0:
320,192,24624,1,0,0:0:0:0:
64,192,24707,1,0,0:0:0:0:
448,192,24874,1,0,0:0:0:0:
192,192,24957,1,0,0:0:0:0:
320,192,25124,1,0,0:0:0:0:
64,192,25207,1,0,0:0:0:0:
192,192,25207,1,0,0:0:0:0:
448,192,25457,1,0,0:0:0:0:
192,192,25707,1,0,0:0:0:0:
448,192,25874,1,0,0:0:0:0:
192,192,25874,1,0,0:0:0:0:
320,192,26040,1,0,0:0:0:0:
64,192,26040,1,0,0:0:0:0:
320,192,26207,1,0,0:0:0:0:
192,192,26290,1,0,0:0:0:0:
320,192,26540,1,0,0:0:0:0:
64,192,26540,1,0,0:0:0:0:
192,192,26790,1,0,0:0:0:0:
448,192,26873,1,0,0:0:0:0:
320,192,27040,1,0,0:0:0:0:
192,192,27040,1,0,0:0:0:0:
448,192,27123,1,0,0:0:0:0:
64,192,27290,1,0,0:0:0:0:
448,192,27373,1,0,0:0:0:0:
320,192,27540,1,0,0:0:0:0:
64,192,27540,1,0,0:0:0:0:
320,192,27706,1,0,0:0:0:0:
64,192,27790,1,0,0:0:0:0:
320,192,28040,1,0,0:0:0:0:
192,192,28040,1,0,0:0:0:0:
448,192,28206,1,0,0:0:0:0:
192,192,28206,1,0,0:0:0:0:
192,192,28373,1,0,0:0:0:0:
64,192,28540,1,0,0:0:0:0:
448,192,28540,1,0,0:0:0:0:
192,192,28706,1,0,0:0:0:0:
448,192,28706,1,0,0:0:0:0:
320,192,28873,1,0,0:0:0:0:
320,192,29039,1,0,0:0:0:0:
64,192,29039,1,0,0:0:0:0:
448,192,29206,1,0,0:0:0:0:
192,192,29206,1,0,0:0:0:0:
192,192,29539,1,0,0:0:0:0:
448,192,29539,1,0,0:0:0:0:
192,192,29706,1,0,0:0:0:0:
320,192,29706,1,0,0:0:0:0:
320,192,29873,1,0,0:0:0:0:
64,192,29873,1,0,0:0:0:0:
192,192,30039,1,0,0:0:0:0:
320,192,30206,1,0,0:0:0:0:
448,192,30206,1,0,0:0:0:0:
64,192,30456,1,0,0:0:0:0:
192,192,30456,1,0,0:0:0:0:
320,192,30706,1,0,0:0:0:0:
192,192,30706,1,0,0:0:0:0:
320,192,30872,1,0,0:0:0:0:
64,192,31039,1,0,0:0:0:0:
192,192,31039,1,0,0:0:0:0:
320,192,31206,1,0,0:0:0:0:
64,192,31372,1,0,0:0:0:0:
448,192,31372,1,0,0:0:0:0:
192,192,31455,1,0,0:0:0:0:
448,192,31539,1,0,0:0:0:0:
448,192,31705,1,0,0:0:0:0:
448,192,31872,1,0,0:0:0:0:
192,192,31872,1,0,0:0:0:0:
64,192,32039,1,0,0:0:0:0:
64,192,32372,1,0,0:0:0:0:
192,192,32372,1,0,0:0:0:0:
448,192,32539,1,0,0:0:0:0:
320,192,32539,1,0,0:0:0:0:
64,192,32705,1,0,0:0:0:0:
192,192,32705,1,0,0:0:0:0:
448,192,32872,1,0,0:0:0:0:
320,192,32872,1,0,0:0:0:0:
192,192,33038,1,0,0:0:0:0:
320,192,33038,1,0,0:0:0:0:
320,192,33205,1,0,0:0:0:0:
64,192,33205,1,0,0:0:0:0:
192,192,33372,1,0,0:0:0:0:
448,192,33455,1,0,0:0:0:0:
320,192,33538,1,0,0:0:0:0:
64,192,33538,1,0,0:0:0:0:
448,192,33705,1,0,0:0:0:0:
64,192,33872,1,0,0:0:0:0:
320,192,34038,1,0,0:0:0:0:
192,192,34205,1,0,0:0:0:0:
320,192,34371,1,0,0:0:0:0:
64,192,34538,1,0,0:0:0:0:
192,192,34871,1,0,0:0:0:0:
320,192,34871,1,0,0:0:0:0:
320,192,35205,1,0,0:0:0:0:
192,192,35205,1,0,0:0:0:0:
64,192,35538,1,0,0:0:0:0:
448,192,35704,1,0,0:0:0:0:
192,192,35871,1,0,0:0:0:0:
320,192,36038,1,0,0:0:0:0:
192,192,36204,1,0,0:0:0:0:
320,192,36538,1,0,0:0:0:0:
64,192,36538,1,0,0:0:0:0:
192,192,36871,1,0,0:0:0:0:
320,192,37204,1,0,0:0:0:0:
192,192,37204,1,0,0:0:0:0:
64,192,37537,1,0,0:0:0:0:
320,192,37704,1,0,0:0:0:0:
64,192,37871,1,0,0:0:0:0:
320,192,38037,1,0,0:0:0:0:
192,192,38370,1,0,0:0:0:0:
320,192,38537,1,0,0:0:0:0:
448,192,38704,1,0,0:0:0:0:
192,192,39037,1,0,0:0:0:0:
448,192,39037,1,0,0:0:0:0:
192,192,39370,1,0,0:0:0:0:
320,192,39537,1,0,0:0:0:0:
448,192,39703,1,0,0:0:0:0:
192,192,39870,1,0,0:0:0:0:
192,192,40203,1,0,0:0:0:0:
320,192,40370,1,0,0:0:0:0:
192,192,40703,1,0,0:0:0:0:
320,192,40870,1,0,0:0:0:0:
192,192,41370,1,0,0:0:0:0:
320,192,41370,1,0,0:0:0:0:
320,192,41703,1,0,0:0:0:0:
448,192,41870,1,0,0:0:0:0:
192,192,42036,1,0,0:0:0:0:
64,192,42203,1,0,0:0:0:0:
192,192,42536,1,0,0:0:0:0:
320,192,42703,1,0,0:0:0:0:
192,192,43036,1,0,0:0:0:0:
320,192,43203,1,0,0:0:0:0:
192,192,43536,1,0,0:0:0:0:
