osu file format v14

[General]
AudioFilename: audio.mp3
AudioLeadIn: 0
PreviewTime: 101838
Countdown: 0
SampleSet: Soft
StackLeniency: 0.7
Mode: 0
LetterboxInBreaks: 0
WidescreenStoryboard: 1

[Editor]
DistanceSpacing: 1.3
BeatDivisor: 4
GridSize: 4
TimelineZoom: 2.6

[Metadata]
Title:Yuima-ru * World
TitleUnicode:ゆいまーる☆わーるど
Artist:Ayase Rie
ArtistUnicode:綾瀬理恵
Creator:_kotachi_
Version:sanairrt's Hard
Source:はいたい七葉
Tags:full haitai nanafa ending ed yuimaru anime japanese version lanzhu erisu mayuzumi fuyuko sanairrt Dubturt Kowari -Brethia
BeatmapID:2414282
BeatmapSetID:1151399

[Difficulty]
HPDrainRate:4.5
CircleSize:3.5
OverallDifficulty:6.5
ApproachRate:8
SliderMultiplier:1.4
SliderTickRate:1

[Events]
//Background and Video events
0,0,"BG.jpg",0,0
//Break Periods
2,102121,105172
//Storyboard Layer 0 (Background)
//Storyboard Layer 1 (Fail)
//Storyboard Layer 2 (Pass)
//Storyboard Layer 3 (Foreground)
//Storyboard Layer 4 (Overlay)
//Storyboard Sound Samples

[TimingPoints]
589,333.333333333333,4,2,1,70,1,0
5922,-111.111111111111,4,2,1,60,0,0
16588,-125,4,2,1,60,0,0
21922,-100,4,2,1,60,0,0
26588,-100,4,2,1,60,0,0
27255,-90.9090909090909,4,2,1,70,0,1
27922,-90.9090909090909,4,2,1,70,0,1
28588,-90.9090909090909,4,2,1,70,0,1
30588,-90.9090909090909,4,2,1,70,0,1
31255,-90.9090909090909,4,2,1,70,0,1
36422,-90.9090909090909,4,2,1,70,0,1
37922,-90.9090909090909,4,2,1,70,0,1
38588,-90.9090909090909,4,2,1,70,0,1
39255,-90.9090909090909,4,2,1,70,0,1
41255,-90.9090909090909,4,2,1,70,0,1
41922,-90.9090909090909,4,2,1,70,0,1
47088,-90.9090909090909,4,2,1,70,0,1
48588,-100,4,2,1,60,0,0
58922,-100,4,2,1,60,0,0
59255,-125,4,2,1,60,0,0
64588,-100,4,2,1,60,0,0
69255,-100,4,2,1,60,0,0
69922,-90.9090909090909,4,2,1,70,0,1
70588,-90.9090909090909,4,2,1,70,0,1
71255,-90.9090909090909,4,2,1,70,0,1
73255,-90.9090909090909,4,2,1,70,0,1
73922,-90.9090909090909,4,2,1,70,0,1
79088,-90.9090909090909,4,2,1,70,0,1
80588,-90.9090909090909,4,2,1,70,0,1
81255,-90.9090909090909,4,2,1,70,0,1
81922,-90.9090909090909,4,2,1,70,0,1
83922,-90.9090909090909,4,2,1,70,0,1
84588,-90.9090909090909,4,2,1,70,0,1
89755,-90.9090909090909,4,2,1,70,0,1
91255,-100,4,2,1,65,0,0
101255,-125,4,2,1,65,0,0
101922,-100,4,2,1,65,0,0
102255,-100,4,2,1,50,0,0
105922,-100,4,2,1,50,0,0
107255,-90.9090909090909,4,2,1,70,0,1
111422,-90.9090909090909,4,2,1,50,0,1
111588,-90.9090909090909,4,2,1,60,0,1
111755,-90.9090909090909,4,2,1,70,0,1
111922,-90.9090909090909,4,2,1,50,0,1
112255,-90.9090909090909,4,2,1,60,0,1
112588,-90.9090909090909,4,2,1,70,0,1
113255,-90.9090909090909,4,2,1,70,0,1
113922,-90.9090909090909,4,2,1,70,0,1
115922,-90.9090909090909,4,2,1,70,0,1
116588,-90.9090909090909,4,2,1,70,0,1
119755,-90.9090909090909,4,2,1,70,0,1
120088,-90.9090909090909,4,2,1,70,0,1
121755,-90.9090909090909,4,2,1,70,0,1
122588,-100,4,2,1,70,0,0

[Colours]
Combo1 : 255,125,125
Combo2 : 255,180,104
Combo3 : 142,255,142
Combo4 : 255,140,255

[HitObjects]
80,339,5922,6,0,P|123:342|153:320,1,62.9999980773926,12|10,0:1|0:1,0:0:0:0:
198,276,6255,2,0,P|229:261|260:267,1,62.9999980773926,2|2,0:0|0:0,0:0:0:0:
332,308,6588,1,2,0:0:0:0:
332,308,6755,1,2,0:0:0:0:
396,256,6922,2,0,P|402:213|406:191,1,62.9999980773926,2|10,0:0|0:1,0:0:0:0:
367,100,7255,6,0,P|336:84|290:88,1,62.9999980773926,2|10,0:0|0:1,0:0:0:0:
241,127,7588,1,2,0:0:0:0:
241,127,7755,1,0,0:1:0:0:
169,86,7922,2,0,P|164:32|161:4,1,62.9999980773926,2|0,0:0|0:0,0:0:0:0:
78,54,8255,2,0,P|72:120|65:175,1,94.499997116089,8|0,0:1|0:0,0:0:0:0:
62,188,8588,6,0,P|100:207|144:197,1,62.9999980773926,10|8,0:1|0:1,0:0:0:0:
194,168,8922,1,2,0:0:0:0:
194,168,9088,1,2,0:1:0:0:
240,235,9255,2,0,P|250:294|251:315,1,62.9999980773926,2|0,0:0|0:0,0:0:0:0:
195,358,9588,2,0,P|159:371|124:365,1,62.9999980773926,2|10,3:2|0:1,0:0:0:0:
48,329,9922,6,0,P|56:280|61:253,1,62.9999980773926,2|10,0:0|0:1,0:0:0:0:
140,218,10255,2,0,P|131:169|126:132,1,62.9999980773926,10|0,0:0|0:0,0:0:0:0:
67,109,10588,1,10,0:1:0:0:
67,109,10755,1,8,0:1:0:0:
125,51,10922,2,0,P|166:34|201:39,1,62.9999980773926,10|0,0:0|0:0,0:0:0:0:
274,64,11255,5,12,0:1:0:0:
274,64,11422,1,2,0:0:0:0:
257,156,11588,2,0,P|198:165|170:169,1,62.9999980773926,8|2,0:0|0:0,0:0:0:0:
126,212,11922,2,0,P|112:249|118:282,1,62.9999980773926,2|10,0:0|0:1,0:0:0:0:
153,349,12255,1,8,0:0:0:0:
153,349,12422,1,10,0:1:0:0:
217,299,12588,5,2,0:0:0:0:
285,344,12755,2,0,P|332:350|359:335,1,62.9999980773926,10|8,0:1|0:0,0:0:0:0:
416,304,13088,1,2,0:0:0:0:
388,226,13255,2,0,P|345:217|307:210,1,62.9999980773926,10|8,0:1|0:1,0:0:0:0:
280,132,13588,2,0,P|323:123|361:116,1,62.9999980773926,8|0,0:0|3:0,0:0:0:0:
390,53,13922,5,10,0:1:0:0:
390,53,14088,1,10,0:1:0:0:
301,12,14255,2,0,P|259:6|220:-1,1,62.9999980773926,8|2,0:0|0:0,0:0:0:0:
196,81,14588,2,0,P|161:86|133:93,1,62.9999980773926,10|10,0:1|0:1,0:0:0:0:
68,51,14922,1,8,0:0:0:0:
68,51,15088,1,10,0:1:0:0:
10,127,15255,6,0,P|-3:166|1:208,1,62.9999980773926,2|10,0:0|0:1,0:0:0:0:
52,255,15588,1,8,0:0:0:0:
52,255,15755,1,2,0:0:0:0:
120,210,15922,2,0,P|154:215|188:221,1,62.9999980773926,10|8,0:1|0:1,0:0:0:0:
294,252,16255,2,0,P|305:218|294:188,1,62.9999980773926,12|0,0:0|0:0,0:0:0:0:
236,118,16588,6,0,P|166:107|107:100,1,112,12|0,0:1|0:0,0:0:0:0:
64,151,17088,1,8,0:1:0:0:
64,151,17255,2,0,P|70:197|75:230,1,56,10|0,0:1|0:0,0:0:0:0:
146,227,17588,2,0,P|140:270|137:300,1,56,8|0,0:0|0:0,0:0:0:0:
124,361,17922,6,0,P|175:379|236:374,1,112,10|0,0:1|0:0,0:0:0:0:
296,331,18422,1,10,0:1:0:0:
296,331,18588,2,0,P|293:302|288:263,1,56,10|8,0:1|0:1,0:0:0:0:
367,261,18922,2,0,P|370:232|375:193,1,56,8|2,0:0|0:0,0:0:0:0:
388,128,19255,6,0,P|446:122|498:165,2,112,10|2|10,0:1|0:0|0:1,0:0:0:0:
330,181,20088,1,0,0:0:0:0:
330,181,20255,2,0,P|292:174|258:168,1,56,8|0,0:0|0:0,0:0:0:0:
222,229,20588,6,0,P|187:236|158:243,1,56,10|2,0:1|0:0,0:0:0:0:
120,304,20922,1,2,0:0:0:0:
120,304,21088,1,10,0:1:0:0:
61,251,21255,2,0,P|56:212|53:176,1,56,10|10,0:1|0:0,0:0:0:0:
27,121,21588,2,0,L|-9:115,3,28,8|8|8|8,0:0|0:0|0:0|0:0,0:0:0:0:
47,103,21922,6,0,P|97:92|146:86,1,70,12|0,0:1|0:0,0:0:0:0:
162,175,22255,2,0,P|196:180|230:188,1,70,8|0,0:0|0:0,0:0:0:0:
325,163,22588,2,0,P|335:118|326:81,1,70,10|8,0:1|0:1,0:0:0:0:
236,120,22922,2,0,P|226:165|235:202,1,70,8|0,0:0|0:0,0:0:0:0:
262,280,23255,5,10,0:1:0:0:
262,280,23422,1,8,0:1:0:0:
341,336,23588,2,0,P|384:328|422:321,1,70,8|8,0:0|0:1,0:0:0:0:
453,234,23922,2,0,P|410:226|372:219,1,70,2|8,0:0|0:1,0:0:0:0:
288,201,24255,2,0,P|277:161|290:123,1,70,8|0,0:0|0:0,0:0:0:0:
367,83,24588,6,0,P|383:121|381:158,1,70,10|8,0:0|0:1,0:0:0:0:
288,201,24922,2,0,P|227:191|201:187,1,70,10|8,0:0|0:1,0:0:0:0:
159,111,25255,2,0,P|124:116|89:122,1,70,8|8,0:0|0:1,0:0:0:0:
24,195,25588,1,10,0:0:0:0:
70,281,25755,6,0,P|116:318|196:310,1,140,12|10,0:1|1:0,0:0:0:0:
276,259,26255,1,10,1:0:0:0:
276,259,26422,1,8,0:1:0:0:
216,181,26588,2,0,P|166:172|137:167,1,70,8|0,0:0|0:0,0:0:0:0:
38,139,26922,2,0,P|32:100|48:70,1,70,4|0,0:0|0:0,0:0:0:0:
135,14,27255,6,0,P|191:22|228:27,1,77.0000023498536,12|0,0:1|0:0,0:0:0:0:
268,107,27588,2,0,P|306:101|344:96,1,77.0000023498536,10|0,0:0|0:0,0:0:0:0:
417,26,27922,1,10,0:1:0:0:
417,26,28088,1,8,0:1:0:0:
470,110,28255,2,0,P|480:154|473:198,1,77.0000023498536,10|0,0:0|0:0,0:0:0:0:
402,252,28588,6,0,P|341:240|309:235,1,77.0000023498536,10|8,0:1|0:1,0:0:0:0:
264,157,28922,1,8,0:0:0:0:
204,236,29088,2,0,P|149:285|60:274,1,154.000004699707,10|8,0:1|0:1,0:0:0:0:
15,198,29588,2,0,P|22:149|28:105,1,77.0000023498536,8|2,0:0|0:0,0:0:0:0:
93,47,29922,6,0,P|132:33|178:49,1,77.0000023498536,10|0,0:1|0:0,0:0:0:0:
224,121,30255,2,0,P|218:157|211:218,1,77.0000023498536,10|0,0:0|0:0,0:0:0:0:
264,283,30588,1,10,0:1:0:0:
264,283,30755,1,8,0:1:0:0:
354,238,30922,2,0,P|369:194|362:148,1,77.0000023498536,8|0,0:0|0:0,0:0:0:0:
314,77,31255,5,10,0:1:0:0:
314,77,31422,1,8,0:1:0:0:
224,121,31588,1,8,0:0:0:0:
142,62,31755,2,0,P|72:58|19:128,1,154.000004699707,10|10,0:1|0:0,0:0:0:0:
59,209,32255,2,0,P|104:218|145:227,1,77.0000023498536,10|10,0:0|0:0,0:0:0:0:
217,169,32588,5,12,0:1:0:0:
217,169,32755,1,2,0:0:0:0:
294,232,32922,1,8,0:0:0:0:
230,309,33088,2,0,B|146:294|174:362|74:345,1,154.000004699707,12|10,0:1|0:1,0:0:0:0:
23,269,33588,2,0,P|20:229|16:172,1,77.0000023498536,10|2,0:0|0:0,0:0:0:0:
75,109,33922,5,12,0:1:0:0:
75,109,34088,1,2,0:0:0:0:
158,152,34255,1,8,0:0:0:0:
227,80,34422,2,0,P|278:38|377:56,1,154.000004699707,12|10,0:1|0:1,0:0:0:0:
446,98,34922,2,0,P|442:138|439:193,1,77.0000023498536,10|2,0:0|0:0,0:0:0:0:
428,274,35255,6,0,P|392:293|352:289,1,77.0000023498536,12|0,0:1|0:0,0:0:0:0:
286,219,35588,2,0,B|249:232|214:212|214:212|194:249|146:266,1,154.000004699707,8|10,0:0|0:1,0:0:0:0:
70,315,36088,2,0,P|62:266|56:229,1,77.0000023498536,8|8,0:1|0:0,0:0:0:0:
42,139,36422,6,0,B|143:113|98:186|199:169,1,154.000004699707,12|8,0:1|0:1,0:0:0:0:
280,139,36922,2,0,P|287:88|293:52,1,77.0000023498536,10|0,0:0|0:0,0:0:0:0:
371,2,37255,2,0,P|414:-10|454:6,1,77.0000023498536,10|8,0:1|0:0,0:0:0:0:
486,90,37588,2,0,P|443:102|403:86,1,77.0000023498536,10|8,0:0|0:0,0:0:0:0:
331,33,37922,6,0,P|276:40|231:47,1,77.0000023498536,12|0,0:1|0:0,0:0:0:0:
203,129,38255,2,0,P|164:123|126:118,1,77.0000023498536,10|0,0:0|0:0,0:0:0:0:
60,43,38588,1,10,0:1:0:0:
60,43,38755,1,8,0:1:0:0:
3,127,38922,2,0,P|-12:167|-9:208,1,77.0000023498536,10|0,0:0|0:0,0:0:0:0:
62,269,39255,5,10,0:1:0:0:
62,269,39422,1,8,0:1:0:0:
143,210,39588,1,8,0:0:0:0:
217,277,39755,2,0,B|270:267|270:267|301:230|301:230|357:219,1,154.000004699707,10|8,0:1|0:1,0:0:0:0:
444,258,40255,2,0,P|439:297|434:356,1,77.0000023498536,8|2,0:0|0:0,0:0:0:0:
341,300,40588,6,0,P|336:255|333:224,1,77.0000023498536,10|0,0:1|0:0,0:0:0:0:
257,156,40922,2,0,P|234:197|230:233,1,77.0000023498536,10|0,0:0|0:0,0:0:0:0:
239,326,41255,1,10,0:1:0:0:
239,326,41422,1,8,0:1:0:0:
152,374,41588,2,0,P|109:363|65:353,1,77.0000023498536,10|0,0:0|0:0,0:0:0:0:
12,278,41922,5,10,0:1:0:0:
12,278,42088,1,8,0:1:0:0:
75,200,42255,1,8,0:0:0:0:
2,130,42422,2,0,P|58:102|148:128,1,154.000004699707,10|10,0:1|0:0,0:0:0:0:
204,203,42922,2,0,L|292:189,1,77.0000023498536,10|10,0:0|0:0,0:0:0:0:
359,252,43255,5,12,0:1:0:0:
359,252,43422,1,2,0:0:0:0:
420,173,43588,1,8,0:0:0:0:
338,114,43755,2,0,B|278:103|278:103|257:75|257:75|191:64,1,154.000004699707,12|10,0:1|0:1,0:0:0:0:
130,137,44255,2,0,P|77:147|31:156,1,77.0000023498536,10|2,0:0|0:0,0:0:0:0:
0,236,44588,5,12,0:1:0:0:
0,236,44755,1,2,0:0:0:0:
80,296,44922,1,8,0:0:0:0:
152,227,45088,2,0,P|214:186|302:218,1,154.000004699707,12|10,0:1|0:1,0:0:0:0:
360,271,45588,2,0,P|355:315|351:358,1,77.0000023498536,10|2,0:0|0:0,0:0:0:0:
255,377,45922,5,12,0:1:0:0:
255,377,46088,1,2,0:0:0:0:
178,312,46255,2,0,P|185:261|190:225,1,77.0000023498536,8|2,0:0|0:0,0:0:0:0:
256,161,46588,2,0,B|321:149|321:149|345:118|345:118|416:107,1,154.000004699707,10|8,0:1|0:0,0:0:0:0:
473,170,47088,6,0,B|489:269|489:269|463:288|461:335,1,154.000004699707,12|8,0:1|0:1,0:0:0:0:
371,355,47588,2,0,P|337:337|299:340,1,77.0000023498536,10|8,0:0|0:1,0:0:0:0:
192,279,47921,1,12,0:0:0:0:
82,101,48588,6,0,P|130:94|161:89,1,70,12|10,0:1|0:1,0:0:0:0:
183,176,48922,2,0,P|148:181|113:186,1,70,2|2,0:0|0:0,0:0:0:0:
82,101,49255,2,0,P|139:58|228:75,1,140,2|2,0:0|0:0,0:0:0:0:
287,99,49755,1,10,0:1:0:0:
274,189,49922,6,0,P|264:251|261:279,1,70,2|10,0:0|0:1,0:0:0:0:
319,330,50255,1,2,0:0:0:0:
319,330,50422,1,0,0:1:0:0:
396,282,50588,2,0,P|435:265|480:277,1,70,2|0,0:0|0:0,0:0:0:0:
484,179,50922,2,0,P|438:190|371:157,1,105,8|0,0:1|0:0,0:0:0:0:
367,128,51255,6,0,P|362:80|357:43,1,70,10|8,0:1|0:1,0:0:0:0:
278,15,51588,1,2,0:0:0:0:
278,15,51755,1,2,0:1:0:0:
206,71,51922,2,0,P|177:90|121:85,1,70,2|0,0:0|0:0,0:0:0:0:
72,33,52255,2,0,P|40:20|-3:28,1,70,2|10,3:2|0:1,0:0:0:0:
0,114,52588,6,0,P|4:154|10:201,1,70,2|10,0:0|0:1,0:0:0:0:
96,207,52922,2,0,P|91:247|86:294,1,70,8|2,0:0|0:0,0:0:0:0:
144,348,53255,1,10,0:1:0:0:
144,348,53422,1,8,0:1:0:0:
232,280,53588,2,0,P|265:261|310:266,1,70,10|0,0:0|0:0,0:0:0:0:
369,316,53922,5,12,0:1:0:0:
369,316,54088,1,2,0:0:0:0:
439,257,54255,2,0,P|435:208|431:166,1,70,8|2,0:0|0:0,0:0:0:0:
418,97,54588,2,0,P|382:83|347:92,1,70,2|10,0:0|0:1,0:0:0:0:
276,141,54922,1,8,0:0:0:0:
276,141,55088,1,10,0:1:0:0:
193,102,55255,6,0,P|180:68|192:25,1,70,2|8,0:0|0:1,0:0:0:0:
274,55,55588,1,8,0:0:0:0:
274,55,55755,1,2,0:0:0:0:
276,141,55922,2,0,P|270:188|265:234,1,70,10|8,0:1|0:1,0:0:0:0:
212,283,56255,2,0,P|169:290|125:297,1,70,8|0,0:0|3:0,0:0:0:0:
68,240,56588,5,10,0:1:0:0:
68,240,56755,1,10,0:1:0:0:
143,189,56922,2,0,P|158:153|151:116,1,70,8|2,0:0|0:0,0:0:0:0:
127,35,57255,1,10,0:1:0:0:
127,35,57422,1,10,0:1:0:0:
65,101,57588,2,0,P|54:137|59:174,1,70,8|10,0:0|0:1,0:0:0:0:
143,189,57922,6,0,P|183:183|230:178,1,70,2|10,0:0|0:1,0:0:0:0:
267,107,58255,1,8,0:0:0:0:
267,107,58422,1,2,0:0:0:0:
331,170,58588,2,0,P|339:218|345:258,1,70,10|8,0:1|0:1,0:0:0:0:
361,351,58922,2,0,P|328:373|282:373,1,70,12|0,0:0|0:0,0:0:0:0:
234,331,59255,6,0,P|197:304|131:313,1,112,12|0,0:1|0:0,0:0:0:0:
63,346,59755,1,8,0:1:0:0:
63,346,59922,2,0,P|56:292|52:266,1,56,10|0,0:1|0:0,0:0:0:0:
111,235,60255,2,0,P|118:181|122:155,1,56,8|0,0:0|0:0,0:0:0:0:
54,134,60588,6,0,P|98:102|168:117,1,112,10|0,0:1|0:0,0:0:0:0:
216,152,61088,1,10,0:1:0:0:
216,152,61255,2,0,P|266:147|297:145,1,56,10|8,0:1|0:1,0:0:0:0:
323,87,61588,2,0,P|350:84|378:81,1,56,8|2,0:0|0:0,0:0:0:0:
442,127,61922,6,0,P|470:181|455:242,2,112,10|2|10,0:1|0:0|0:1,0:0:0:0:
378,81,62755,1,0,0:0:0:0:
378,81,62922,2,0,P|356:107|346:132,1,56,8|0,0:0|0:0,0:0:0:0:
391,192,63255,6,0,P|403:230|404:256,1,56,10|2,0:1|0:0,0:0:0:0:
353,305,63588,1,2,0:0:0:0:
353,305,63755,1,10,0:1:0:0:
281,272,63922,2,0,P|233:255|222:256,1,56,10|10,0:1|0:0,0:0:0:0:
163,299,64255,2,0,L|153:352,3,28,8|8|8|8,0:0|0:0|0:0|0:0,0:0:0:0:
118,355,64588,6,0,P|67:361|31:368,1,70,12|0,0:1|0:0,0:0:0:0:
4,275,64922,2,0,P|0:232|-5:189,1,70,8|0,0:0|0:0,0:0:0:0:
66,135,65255,2,0,P|109:120|144:127,1,70,10|8,0:1|0:1,0:0:0:0:
206,187,65588,2,0,P|240:188|272:174,1,70,8|0,0:0|0:0,0:0:0:0:
354,119,65922,5,10,0:1:0:0:
354,119,66088,1,8,0:1:0:0:
302,35,66255,2,0,P|256:26|213:19,1,70,8|8,0:0|0:1,0:0:0:0:
201,110,66588,2,0,P|166:116|132:122,1,70,2|8,0:0|0:1,0:0:0:0:
41,84,66922,2,0,P|33:43|44:13,1,70,8|0,0:0|0:0,0:0:0:0:
132,55,67255,6,0,P|140:96|129:126,1,70,10|8,0:0|0:1,0:0:0:0:
59,189,67588,2,0,P|68:242|74:280,1,70,10|8,0:0|0:1,0:0:0:0:
154,310,67922,2,0,P|192:295|234:303,1,70,8|8,0:0|0:1,0:0:0:0:
306,344,68255,1,10,0:0:0:0:
389,291,68422,6,0,P|420:241|378:154,1,140,12|10,0:1|1:0,0:0:0:0:
321,104,68922,1,10,1:0:0:0:
321,104,69088,1,8,0:1:0:0:
240,160,69255,2,0,P|247:213|251:247,1,70,8|0,0:0|0:0,0:0:0:0:
263,341,69588,2,0,P|230:362|186:365,1,70,4|0,0:0|0:0,0:0:0:0:
109,321,69922,6,0,P|102:278|97:240,1,77.0000023498536,12|0,0:1|0:0,0:0:0:0:
140,154,70255,2,0,P|184:134|221:142,1,77.0000023498536,10|0,0:0|0:0,0:0:0:0:
304,174,70588,1,10,0:1:0:0:
304,174,70755,1,8,0:1:0:0:
388,119,70922,2,0,P|399:76|388:40,1,77.0000023498536,10|0,0:0|0:0,0:0:0:0:
297,8,71255,6,0,P|260:3|215:-2,1,77.0000023498536,10|8,0:1|0:1,0:0:0:0:
140,58,71588,1,8,0:0:0:0:
41,39,71755,2,0,B|32:83|26:148|26:148|50:169|66:203,1,154.000004699707,10|8,0:1|0:1,0:0:0:0:
146,220,72255,2,0,P|195:207|233:198,1,77.0000023498536,8|2,0:0|0:0,0:0:0:0:
285,124,72588,6,0,P|322:133|359:143,1,77.0000023498536,10|0,0:1|0:0,0:0:0:0:
454,176,72922,2,0,P|469:214|457:256,1,77.0000023498536,10|0,0:0|0:0,0:0:0:0:
398,326,73255,1,10,0:1:0:0:
398,326,73422,1,8,0:1:0:0:
305,288,73588,2,0,P|274:271|234:275,1,77.0000023498536,8|0,0:0|0:0,0:0:0:0:
144,321,73922,5,10,0:1:0:0:
144,321,74088,1,8,0:1:0:0:
70,253,74255,1,8,0:0:0:0:
139,181,74422,2,0,B|199:151|199:151|313:173,1,154.000004699707,10|10,0:1|0:0,0:0:0:0:
381,190,74922,2,0,P|398:145|393:111,1,77.0000023498536,10|10,0:0|0:0,0:0:0:0:
319,42,75255,5,12,0:1:0:0:
323,46,75422,1,2,0:0:0:0:
251,115,75588,1,8,0:0:0:0:
179,45,75755,2,0,P|128:5|32:39,1,154.000004699707,12|10,0:1|0:1,0:0:0:0:
0,112,76255,2,0,P|3:155|8:202,1,77.0000023498536,10|2,0:0|0:0,0:0:0:0:
26,282,76588,5,12,0:1:0:0:
30,286,76755,1,2,0:0:0:0:
105,219,76922,1,8,0:0:0:0:
188,273,77088,2,0,B|242:296|242:296|283:248|353:271,1,154.000004699707,12|10,0:1|0:1,0:0:0:0:
400,332,77588,2,0,P|441:354|480:350,1,77.0000023498536,10|2,0:0|0:0,0:0:0:0:
512,260,77922,6,0,P|507:209|503:169,1,77.0000023498536,12|0,0:1|0:0,0:0:0:0:
460,93,78255,2,0,B|398:84|398:84|375:53|375:53|307:43,1,154.000004699707,8|10,0:0|0:1,0:0:0:0:
256,120,78755,2,0,P|252:160|248:212,1,77.0000023498536,8|8,0:1|0:0,0:0:0:0:
248,296,79088,6,0,P|299:307|340:226,1,154.000004699707,12|8,0:1|0:1,0:0:0:0:
249,196,79588,2,0,P|204:201|166:205,1,77.0000023498536,10|0,0:0|0:0,0:0:0:0:
145,301,79922,2,0,P|106:296|68:292,1,77.0000023498536,10|8,0:1|0:0,0:0:0:0:
3,216,80255,2,0,P|-7:176|7:140,1,77.0000023498536,10|8,0:0|0:0,0:0:0:0:
59,59,80588,6,0,P|96:67|133:78,1,77.0000023498536,12|0,0:1|0:0,0:0:0:0:
195,158,80922,2,0,P|238:162|276:136,1,77.0000023498536,10|0,0:0|0:0,0:0:0:0:
336,74,81255,1,10,0:1:0:0:
336,74,81422,1,8,0:1:0:0:
411,139,81588,2,0,P|426:181|420:219,1,77.0000023498536,10|0,0:0|0:0,0:0:0:0:
376,300,81922,5,10,0:1:0:0:
380,304,82088,1,8,0:1:0:0:
302,239,82255,1,8,0:0:0:0:
231,310,82422,2,0,B|185:346|185:346|75:330,1,154.000004699707,10|8,0:1|0:1,0:0:0:0:
15,267,82922,2,0,P|4:228|17:190,1,77.0000023498536,8|2,0:0|0:0,0:0:0:0:
94,134,83255,6,0,B|138:128|138:128|175:148,1,77.0000023498536,10|0,0:1|0:0,0:0:0:0:
243,207,83588,2,0,P|238:243|231:314,1,77.0000023498536,10|0,0:0|0:0,0:0:0:0:
308,352,83922,1,10,0:1:0:0:
308,352,84088,1,8,0:1:0:0:
387,290,84255,2,0,P|379:233|371:187,1,77.0000023498536,10|0,0:0|0:0,0:0:0:0:
312,128,84588,5,10,0:1:0:0:
312,128,84755,1,8,0:1:0:0:
383,57,84922,1,8,0:0:0:0:
295,8,85088,2,0,B|200:22|200:22|185:58|130:74,1,154.000004699707,10|10,0:1|0:0,0:0:0:0:
76,117,85588,2,0,P|59:75|66:32,1,77.0000023498536,10|10,0:0|0:0,0:0:0:0:
156,58,85922,5,12,0:1:0:0:
160,62,86088,1,2,0:0:0:0:
190,157,86255,1,8,0:0:0:0:
264,97,86422,2,0,P|349:93|384:161,1,154.000004699707,12|10,0:1|0:1,0:0:0:0:
381,244,86922,2,0,P|328:254|278:263,1,77.0000023498536,10|2,0:0|0:0,0:0:0:0:
245,338,87255,5,12,0:1:0:0:
245,338,87422,1,2,0:0:0:0:
177,264,87588,1,8,0:0:0:0:
87,309,87755,2,0,B|52:231|119:231|74:147,1,154.000004699707,12|10,0:1|0:1,0:0:0:0:
20,79,88255,2,0,P|60:69|113:58,1,77.0000023498536,10|2,0:0|0:0,0:0:0:0:
177,118,88588,5,12,0:1:0:0:
177,118,88755,1,2,0:0:0:0:
255,55,88922,2,0,P|296:40|334:50,1,77.0000023498536,8|2,0:0|0:0,0:0:0:0:
414,96,89255,2,0,P|411:121|403:200,1,77.0000023498536,10|10,0:1|0:1,0:0:0:0:
473,246,89588,1,8,0:0:0:0:
401,316,89755,6,0,B|338:300|338:300|315:274|315:274|256:263,1,154.000004699707,12|8,0:1|0:1,0:0:0:0:
180,323,90255,1,10,0:0:0:0:
180,323,90422,1,10,0:1:0:0:
103,259,90588,2,0,P|82:206|112:144,2,102.666669799805,10|10|8,1:1|1:0|1:0,0:0:0:0:
224,263,91255,6,0,P|253:196|223:118,1,140,12|8,0:1|0:0,0:0:0:0:
169,71,91755,1,2,0:0:0:0:
169,71,91922,2,0,P|111:81|85:86,1,70,8|2,0:1|0:0,0:0:0:0:
30,142,92255,2,0,P|19:178|27:216,1,70,8|0,0:0|0:0,0:0:0:0:
71,287,92588,6,0,B|142:261|142:317|216:293,1,140,10|8,0:1|0:0,0:0:0:0:
251,216,93088,2,0,P|296:222|332:233,1,70,10|0,0:1|0:0,0:0:0:0:
375,301,93422,1,8,0:1:0:0:
375,301,93588,2,0,P|408:292|443:288,1,70,8|0,0:0|0:0,0:0:0:0:
484,206,93922,6,0,P|474:163|383:146,1,140,10|8,0:1|0:0,0:0:0:0:
312,188,94422,1,8,0:1:0:0:
312,188,94588,2,0,P|302:134|297:97,1,70,2|8,0:0|0:1,0:0:0:0:
219,75,94922,2,0,P|213:109|206:143,1,70,8|0,0:0|0:1,0:0:0:0:
185,232,95255,6,0,B|92:249|92:249|44:228,1,140,10|8,0:1|0:0,0:0:0:0:
4,151,95755,2,0,P|54:138|85:131,1,70,10|0,0:1|0:0,0:0:0:0:
138,71,96088,1,8,0:1:0:0:
211,124,96255,1,8,0:0:0:0:
211,124,96422,1,8,0:0:0:0:
283,69,96588,6,0,P|347:37|420:67,1,140,10|8,0:1|0:0,0:0:0:0:
477,117,97088,2,0,P|470:178|466:207,1,70,10|0,0:1|0:0,0:0:0:0:
383,220,97422,1,8,0:1:0:0:
383,220,97588,2,0,P|390:281|394:310,1,70,8|0,0:0|0:0,0:0:0:0:
322,350,97922,6,0,B|256:313|256:377|173:344,1,140,10|8,0:1|0:0,0:0:0:0:
132,275,98422,2,0,P|140:225|145:191,1,70,8|2,0:1|0:0,0:0:0:0:
211,145,98755,1,8,0:1:0:0:
159,69,98922,1,8,0:0:0:0:
159,69,99088,1,8,0:0:0:0:
77,110,99255,6,0,P|43:167|51:244,1,140,10|8,0:1|0:0,0:0:0:0:
132,275,99755,2,0,P|188:269|226:265,1,70,2|8,0:0|0:1,0:0:0:0:
263,200,100088,1,8,0:1:0:0:
263,200,100255,1,10,0:0:0:0:
330,265,100422,6,0,P|374:303|465:270,1,140,12|10,1:0|1:0,0:0:0:0:
484,203,100922,1,12,0:0:0:0:
420,137,101088,1,8,0:0:0:0:
420,137,101172,1,8,0:0:0:0:
420,137,101255,2,0,B|351:137|282:174|282:174|264:129|205:122,1,224,12|12,0:1|0:1,0:0:0:0:
60,315,105922,5,10,0:1:0:0:
64,319,106088,1,8,0:0:0:0:
136,264,106255,1,8,0:0:0:0:
201,327,106422,2,0,P|250:359|328:341,1,140,10|10,0:1|0:0,0:0:0:0:
375,266,106922,2,0,L|366:212,3,35,14|10|10|2,0:0|0:0|0:0|3:2,0:0:0:0:
393,187,107255,6,0,P|437:179|478:173,1,77.0000023498536,12|10,0:1|0:1,0:0:0:0:
502,79,107588,1,8,0:0:0:0:
419,22,107755,2,0,P|346:-9|273:36,1,154.000004699707,12|8,0:1|0:1,0:0:0:0:
220,100,108255,2,0,P|231:151|237:195,1,77.0000023498536,10|2,0:0|0:0,0:0:0:0:
169,251,108588,5,12,0:1:0:0:
173,255,108755,1,10,0:1:0:0:
94,192,108922,1,8,0:0:0:0:
41,276,109088,2,0,B|127:271|74:353|202:341,1,154.000004699707,12|8,0:1|0:1,0:0:0:0:
251,282,109588,2,0,P|296:268|332:272,1,77.0000023498536,8|10,0:0|0:1,0:0:0:0:
426,311,109922,6,0,P|434:260|441:219,1,77.0000023498536,12|8,0:0|0:1,0:0:0:0:
459,129,110255,2,0,P|422:108|381:104,1,77.0000023498536,10|8,0:0|0:1,0:0:0:0:
294,156,110588,1,10,0:0:0:0:
276,262,110755,2,0,P|328:251|369:244,1,77.0000023498536,10|8,0:1|0:0,0:0:0:0:
294,156,111088,6,0,P|225:142|135:125,1,154.000004699707,10|8,0:1|0:0,0:0:0:0:
50,183,111588,2,0,P|56:237|63:293,1,77.0000023498536,10|8,1:0|0:0,0:0:0:0:
140,331,111922,1,10,1:0:0:0:
140,331,112088,1,8,0:0:0:0:
218,256,112255,2,0,P|222:217|226:179,1,77.0000023498536,10|8,0:0|0:0,0:0:0:0:
306,119,112588,6,0,P|344:102|385:108,1,77.0000023498536,12|0,0:1|0:0,0:0:0:0:
449,177,112922,2,0,P|453:215|457:253,1,77.0000023498536,10|0,0:0|0:0,0:0:0:0:
402,337,113255,1,10,0:1:0:0:
402,337,113422,1,8,0:1:0:0:
313,290,113588,2,0,P|275:277|234:289,1,77.0000023498536,10|0,0:0|0:1,0:0:0:0:
150,333,113922,5,10,0:1:0:0:
154,337,114088,1,2,0:0:0:0:
78,270,114255,1,8,0:0:0:0:
152,202,114422,2,0,P|182:129|151:58,1,154.000004699707,10|8,0:1|0:1,0:0:0:0:
75,2,114922,2,0,P|57:40|57:84,1,77.0000023498536,8|2,0:0|0:0,0:0:0:0:
107,159,115255,6,0,P|166:144|189:138,1,77.0000023498536,10|0,0:1|0:0,0:0:0:0:
255,72,115588,2,0,P|292:81|329:91,1,77.0000023498536,10|0,0:0|0:0,0:0:0:0:
411,32,115922,1,10,0:1:0:0:
411,32,116088,1,8,0:1:0:0:
459,119,116255,2,0,P|472:157|465:206,1,77.0000023498536,10|0,0:0|0:0,0:0:0:0:
427,282,116588,5,10,0:1:0:0:
431,286,116755,1,10,0:1:0:0:
344,235,116922,1,8,0:0:0:0:
271,302,117088,2,0,B|199:265|199:339|113:293,1,154.000004699707,10|10,0:1|0:0,0:0:0:0:
70,212,117588,2,0,P|109:192|155:192,1,77.0000023498536,10|10,0:0|0:0,0:0:0:0:
236,204,117922,5,12,0:1:0:0:
236,204,118088,1,10,0:1:0:0:
311,138,118255,1,8,0:0:0:0:
241,66,118422,2,0,P|192:27|104:45,1,154.000004699707,12|10,0:1|0:1,0:0:0:0:
38,115,118922,2,0,P|40:153|44:208,1,77.0000023498536,10|2,0:0|0:0,0:0:0:0:
116,251,119255,5,12,0:1:0:0:
120,255,119422,1,10,0:1:0:0:
56,332,119588,1,8,0:0:0:0:
142,382,119755,2,0,B|238:364|238:364|255:328|289:315,1,154.000004699707,12|10,0:1|0:1,0:0:0:0:
366,282,120255,2,0,P|378:330|384:363,1,77.0000023498536,10|2,0:0|0:0,0:0:0:0:
468,304,120588,5,12,0:1:0:0:
468,304,120755,1,2,0:0:0:0:
419,216,120922,2,0,P|379:196|336:201,1,77.0000023498536,8|2,0:0|0:0,0:0:0:0:
258,242,121255,2,0,P|245:186|238:150,1,77.0000023498536,10|10,0:1|0:1,0:0:0:0:
294,81,121588,1,8,0:0:0:0:
205,33,121755,6,0,B|108:23|161:89|56:82,1,154.000004699707,12|10,0:1|0:1,0:0:0:0:
22,172,122255,2,0,P|57:187|95:189,1,77.0000023498536,10|8,0:0|0:1,0:0:0:0:
203,158,122588,1,12,0:0:0:0:
