osu file format v14

[General]
AudioFilename: audio.mp3
AudioLeadIn: 0
PreviewTime: 103525
Countdown: 0
SampleSet: Normal
StackLeniency: 0.7
Mode: 1
LetterboxInBreaks: 0
WidescreenStoryboard: 0

[Editor]
DistanceSpacing: 1.5
BeatDivisor: 4
GridSize: 4
TimelineZoom: 2.3

[Metadata]
Title:Hijitsuzaikei Joshitachi wa Dou Surya Ii Desu ka?
TitleUnicode:非実在系女子達はどうすりゃいいですか?
Artist:Ayase Rie
ArtistUnicode:綾瀬理恵
Creator:Nozdormu
Version:Oni
Source:抜きゲーみたいな島に住んでる貧乳(わたし)はどうすりゃいいですか?
Tags:sergom4444 [r] ron gtms2023 gtms global taiko malaysian showdown 2023 quarterfinals qf dt1 japanese pop j-pop jpop 抜きゲーみたいな島に住んでる貧乳はどうすりゃいいですか?is the island utopia or dystopia? nukitashi eroge visual novel video game opening full version ver. qruppo ぬきたし 金閉開羅 巧夢
BeatmapID:4103142
BeatmapSetID:1976687

[Difficulty]
HPDrainRate:5.5
CircleSize:4
OverallDifficulty:5.5
ApproachRate:8
SliderMultiplier:1.4
SliderTickRate:1

[Events]
//Background and Video events
0,0,"api.jpg",0,110
//Break Periods
//Storyboard Layer 0 (Background)
//Storyboard Layer 1 (Fail)
//Storyboard Layer 2 (Pass)
//Storyboard Layer 3 (Foreground)
//Storyboard Layer 4 (Overlay)
//Storyboard Sound Samples

[TimingPoints]
-2424,379.746835443038,4,1,0,40,1,0
424,-108.695652173913,4,1,0,40,0,0
2797,-108.695652173913,4,1,0,80,0,0
2977,-106.382978723404,4,1,0,80,0,0
3072,-104.166666666667,4,1,0,80,0,0
3167,-102.040816326531,4,1,0,80,0,0
3262,-100,4,1,0,80,0,0
8398,-102.040816326531,4,1,0,80,0,0
8683,-104.166666666667,4,1,0,80,0,0
9538,-100,4,1,0,80,0,0
38493,-99.009900990099,4,1,0,70,0,0
38873,-98.0392156862745,4,1,0,60,0,0
39253,-97.0873786407767,4,1,0,50,0,0
40097,-95.2380952380952,4,1,0,85,0,0
40107,-95.2380952380952,4,1,0,85,0,1
51405,-94.3396226415094,4,1,0,85,0,1
51689,-92.5925925925926,4,1,0,85,0,1
52069,-90.9090909090909,4,1,0,85,0,0
52164,-100,4,1,0,85,0,0
53208,-98.0392156862745,4,1,0,85,0,0
53493,-96.1538461538461,4,1,0,85,0,0
53778,-95.2380952380952,4,1,0,85,0,1
66215,-96.1538461538461,4,1,0,85,0,1
66594,-97.0873786407767,4,1,0,85,0,1
66879,-83.3333333333333,4,1,0,40,0,1
67069,-83.3333333333333,4,1,0,40,0,0
67259,-100,4,1,0,80,0,0
72196,-102.040816326531,4,1,0,80,0,0
72481,-104.166666666667,4,1,0,80,0,0
73335,-100,4,1,0,80,0,0
87860,-83.3333333333333,4,1,0,40,0,0
87948,379.746835443038,4,1,0,40,1,8
87948,-83.3333333333333,4,1,0,40,0,0
88620,-100,4,1,0,80,0,0
88715,379.746835443038,4,1,0,80,1,0
102291,-99.009900990099,4,1,0,70,0,0
102670,-98.0392156862745,4,1,0,60,0,0
103050,-97.0873786407767,4,1,0,50,0,0
103895,-95.2380952380952,4,1,0,85,0,0
103904,-95.2380952380952,4,1,0,85,0,1
115202,-94.3396226415094,4,1,0,85,0,1
115487,-92.5925925925926,4,1,0,85,0,1
115866,-90.9090909090909,4,1,0,85,0,0
115962,-100,4,1,0,85,0,0
117006,-98.0392156862745,4,1,0,85,0,0
117291,-96.1538461538461,4,1,0,85,0,0
117575,-95.2380952380952,4,1,0,85,0,1
130012,-96.1538461538461,4,1,0,85,0,1
130392,-97.0873786407767,4,1,0,85,0,1
130677,-83.3333333333333,4,1,0,60,0,1
130866,-83.3333333333333,4,1,0,60,0,0
131057,-100,4,1,0,70,0,0
137038,-94.3396226415094,4,1,0,80,0,0
137227,-89.2857142857143,4,1,0,80,0,0
138557,-94.3396226415094,4,1,0,80,0,0
138746,-89.2857142857143,4,1,0,80,0,0
140076,-94.3396226415094,4,1,0,80,0,0
140265,-89.2857142857143,4,1,0,80,0,0
140835,-94.3396226415094,4,1,0,80,0,0
141025,-89.2857142857143,4,1,0,80,0,0
141594,-100,4,1,0,80,0,0
141784,-102.040816326531,4,1,0,80,0,0
142164,-105.263157894737,4,1,0,80,0,0
142629,-108.695652173913,4,1,0,80,0,0
142755,-109.89010989011,4,1,0,80,0,0
142882,-111.111111111111,4,1,0,80,0,0
143009,-112.359550561798,4,1,0,80,0,0
143208,-100,4,1,0,80,0,0
156974,-101.010101010101,4,1,0,75,0,0
157354,-103.092783505155,4,1,0,70,0,0
157734,-105.263157894737,4,1,0,65,0,0
158208,-111.111111111111,4,1,0,60,0,0
169126,-109.89010989011,4,1,0,80,0,0
169411,-107.52688172043,4,1,0,80,0,0
169696,-105.263157894737,4,1,0,80,0,0
169886,-104.166666666667,4,1,0,80,0,0
170170,-102.040816326531,4,1,0,80,0,0
170455,-100,4,1,0,80,0,0
171689,-98.0392156862745,4,1,0,80,0,0
171974,-96.1538461538461,4,1,0,80,0,0
172249,-95.2380952380952,4,1,0,85,0,0
172259,-95.2380952380952,4,1,0,85,0,1
184696,-96.1538461538461,4,1,0,85,0,1
185076,-97.0873786407767,4,1,0,85,0,1
185360,-83.3333333333333,4,1,0,40,0,1
185550,-83.3333333333333,4,1,0,40,0,0
185740,-100,4,1,0,80,0,0
190572,-99.009900990099,4,1,0,80,0,0
190667,-98.0392156862745,4,1,0,80,0,0
190762,-97.0873786407767,4,1,0,80,0,0
190857,-96.1538461538461,4,1,0,80,0,0
190962,-94.3396226415094,4,1,0,80,0,0
191151,-92.5925925925926,4,1,0,80,0,0
191816,-100,4,1,0,80,0,0
198272,-83.3333333333333,4,1,0,90,0,0

[HitObjects]
137,143,613,5,8,0:0:0:0:
137,143,803,1,8,0:0:0:0:
137,143,898,1,8,0:0:0:0:
137,143,993,1,8,0:0:0:0:
137,143,1183,1,8,0:0:0:0:
137,143,1373,1,8,0:0:0:0:
137,143,1563,1,8,0:0:0:0:
137,143,1753,1,8,0:0:0:0:
137,143,2132,1,8,0:0:0:0:
137,143,2322,1,8,0:0:0:0:
137,143,2417,1,8,0:0:0:0:
137,143,2512,1,8,0:0:0:0:
137,143,2702,1,8,0:0:0:0:
169,139,2892,1,0,0:0:0:0:
169,139,2987,1,0,0:0:0:0:
169,139,3082,1,0,0:0:0:0:
165,142,3177,1,0,0:0:0:0:
169,139,3272,1,8,0:0:0:0:
169,139,3651,1,4,0:0:0:0:
169,139,3841,1,0,0:0:0:0:
169,139,3936,1,0,0:0:0:0:
169,139,4031,1,8,0:0:0:0:
174,139,4221,1,0,0:0:0:0:
169,139,4411,1,8,0:0:0:0:
169,139,4601,1,8,0:0:0:0:
169,139,4696,1,0,0:0:0:0:
167,146,4791,1,8,0:0:0:0:
164,145,4981,1,0,0:0:0:0:
174,139,5170,1,8,0:0:0:0:
169,139,5265,1,8,0:0:0:0:
169,139,5360,1,0,0:0:0:0:
169,139,5455,1,0,0:0:0:0:
173,144,5550,1,8,0:0:0:0:
167,146,5740,1,0,0:0:0:0:
168,148,5930,1,0,0:0:0:0:
168,148,6025,1,0,0:0:0:0:
168,148,6120,1,0,0:0:0:0:
136,147,6310,1,8,0:0:0:0:
136,147,6689,1,0,0:0:0:0:
136,147,6879,1,8,0:0:0:0:
136,147,6974,1,8,0:0:0:0:
136,147,7069,1,0,0:0:0:0:
136,147,7259,1,8,0:0:0:0:
136,147,7449,1,0,0:0:0:0:
136,147,7544,1,0,0:0:0:0:
136,147,7639,1,0,0:0:0:0:
136,147,7829,1,8,0:0:0:0:
136,147,8019,1,8,0:0:0:0:
136,147,8208,1,0,0:0:0:0:
136,147,8493,1,0,0:0:0:0:
136,147,8778,1,0,0:0:0:0:
107,156,9727,1,4,0:0:0:0:
107,156,9917,1,8,0:0:0:0:
107,156,10012,1,0,0:0:0:0:
107,156,10107,1,8,0:0:0:0:
107,156,10297,1,8,0:0:0:0:
107,156,10487,1,0,0:0:0:0:
107,156,10677,1,8,0:0:0:0:
107,156,10772,1,8,0:0:0:0:
107,156,10867,1,0,0:0:0:0:
107,156,11057,1,0,0:0:0:0:
107,156,11246,1,8,0:0:0:0:
107,156,11436,1,8,0:0:0:0:
107,156,11626,1,0,0:0:0:0:
107,156,11721,1,0,0:0:0:0:
107,156,11816,1,0,0:0:0:0:
107,156,12006,1,8,0:0:0:0:
107,156,12196,1,0,0:0:0:0:
107,156,12291,1,0,0:0:0:0:
107,156,12386,1,8,0:0:0:0:
107,156,12576,1,0,0:0:0:0:
107,156,12765,1,8,0:0:0:0:
107,156,12955,1,0,0:0:0:0:
113,156,13050,1,8,0:0:0:0:
107,156,13335,1,0,0:0:0:0:
107,156,13525,1,8,0:0:0:0:
107,156,13620,1,0,0:0:0:0:
107,156,13905,1,0,0:0:0:0:
107,156,14094,1,0,0:0:0:0:
107,156,14284,1,8,0:0:0:0:
107,156,14379,1,8,0:0:0:0:
107,156,14569,1,8,0:0:0:0:
107,156,14759,1,8,0:0:0:0:
107,156,14949,1,8,0:0:0:0:
107,156,15044,1,8,0:0:0:0:
107,156,15139,1,0,0:0:0:0:
107,156,15329,1,0,0:0:0:0:
107,156,15424,1,0,0:0:0:0:
107,156,15613,1,0,0:0:0:0:
107,156,15803,1,12,0:0:0:0:
81,152,16563,1,4,0:0:0:0:
142,140,17322,1,12,0:0:0:0:
142,140,17607,1,12,0:0:0:0:
142,140,17892,1,12,0:0:0:0:
142,140,18082,1,0,0:0:0:0:
142,140,18177,1,0,0:0:0:0:
142,140,18272,1,0,0:0:0:0:
137,136,18367,1,0,0:0:0:0:
142,140,18462,1,8,0:0:0:0:
142,140,18841,1,4,0:0:0:0:
142,140,19031,1,8,0:0:0:0:
142,140,19221,1,0,0:0:0:0:
142,140,19411,1,0,0:0:0:0:
142,140,19506,1,0,0:0:0:0:
142,140,19601,1,8,0:0:0:0:
142,140,19791,1,0,0:0:0:0:
142,140,19981,1,8,0:0:0:0:
136,140,20170,1,8,0:0:0:0:
136,140,20265,1,8,0:0:0:0:
135,140,20360,1,8,0:0:0:0:
142,140,20550,1,0,0:0:0:0:
142,140,20740,1,8,0:0:0:0:
142,140,20930,1,0,0:0:0:0:
141,143,21120,1,0,0:0:0:0:
140,143,21215,1,0,0:0:0:0:
135,140,21310,1,8,0:0:0:0:
142,140,21405,1,8,0:0:0:0:
147,144,21500,1,0,0:0:0:0:
142,140,21879,1,12,0:0:0:0:
148,142,22639,1,4,0:0:0:0:
165,148,23398,1,12,0:0:0:0:
165,148,23683,1,4,0:0:0:0:
165,148,23968,1,4,0:0:0:0:
165,148,24158,1,8,0:0:0:0:
165,148,24253,1,8,0:0:0:0:
165,148,24348,1,8,0:0:0:0:
172,149,24443,1,8,0:0:0:0:
165,148,24538,1,0,0:0:0:0:
165,148,24917,1,12,0:0:0:0:
165,148,25107,1,0,0:0:0:0:
165,148,25202,1,0,0:0:0:0:
165,148,25297,1,8,0:0:0:0:
165,148,25487,1,0,0:0:0:0:
165,148,25677,1,8,0:0:0:0:
165,148,25772,1,0,0:0:0:0:
165,148,25867,1,8,0:0:0:0:
165,148,26057,1,8,0:0:0:0:
162,152,26246,1,8,0:0:0:0:
165,148,26436,1,0,0:0:0:0:
165,148,26626,1,0,0:0:0:0:
165,148,26721,1,0,0:0:0:0:
165,148,26816,1,0,0:0:0:0:
165,148,27006,1,8,0:0:0:0:
165,148,27196,1,0,0:0:0:0:
165,148,27291,1,0,0:0:0:0:
165,148,27386,1,8,0:0:0:0:
165,148,27481,1,8,0:0:0:0:
165,148,27576,1,0,0:0:0:0:
165,148,27955,1,12,0:0:0:0:
165,148,28145,1,8,0:0:0:0:
165,148,28335,1,0,0:0:0:0:
165,148,28525,1,8,0:0:0:0:
165,148,28620,1,8,0:0:0:0:
165,148,28715,1,8,0:0:0:0:
165,148,28905,1,0,0:0:0:0:
165,148,29094,1,8,0:0:0:0:
158,152,29284,1,0,0:0:0:0:
165,148,29474,1,0,0:0:0:0:
165,148,29664,1,8,0:0:0:0:
165,148,29759,1,0,0:0:0:0:
165,148,29854,1,8,0:0:0:0:
165,148,30044,1,0,0:0:0:0:
165,148,30234,1,8,0:0:0:0:
165,148,30329,1,8,0:0:0:0:
165,148,30424,1,0,0:0:0:0:
170,142,30519,1,0,0:0:0:0:
165,148,30613,1,8,0:0:0:0:
165,148,30993,1,0,0:0:0:0:
165,148,31088,1,0,0:0:0:0:
165,148,31183,1,0,0:0:0:0:
165,148,31373,1,8,0:0:0:0:
165,148,31563,1,0,0:0:0:0:
165,148,31753,1,8,0:0:0:0:
165,148,31848,1,8,0:0:0:0:
165,148,31943,1,8,0:0:0:0:
165,148,32132,1,0,0:0:0:0:
165,148,32322,1,0,0:0:0:0:
165,148,32417,1,0,0:0:0:0:
165,148,32512,1,8,0:0:0:0:
165,148,32892,1,8,0:0:0:0:
165,148,33272,1,0,0:0:0:0:
165,148,33367,1,0,0:0:0:0:
165,148,33462,1,0,0:0:0:0:
165,148,33651,1,0,0:0:0:0:
165,148,33841,1,8,0:0:0:0:
165,148,33936,1,8,0:0:0:0:
165,148,34031,1,8,0:0:0:0:
165,148,34411,1,8,0:0:0:0:
165,148,34601,1,0,0:0:0:0:
165,148,34791,1,8,0:0:0:0:
165,148,34886,1,8,0:0:0:0:
165,148,35076,1,0,0:0:0:0:
165,148,35170,1,0,0:0:0:0:
158,148,35360,1,0,0:0:0:0:
158,148,35455,1,0,0:0:0:0:
165,148,35550,1,8,0:0:0:0:
156,152,35740,1,8,0:0:0:0:
165,148,35930,1,0,0:0:0:0:
165,148,36120,1,0,0:0:0:0:
166,149,36215,1,8,0:0:0:0:
166,146,36310,1,0,0:0:0:0:
165,148,36500,1,8,0:0:0:0:
157,150,36594,1,8,0:0:0:0:
157,150,36784,1,0,0:0:0:0:
165,148,36879,1,0,0:0:0:0:
165,148,37069,1,4,0:0:0:0:
166,146,37259,1,8,0:0:0:0:
165,148,37354,1,8,0:0:0:0:
165,148,37449,1,8,0:0:0:0:
164,150,37639,1,8,0:0:0:0:
165,148,37829,1,4,0:0:0:0:
165,148,38019,1,8,0:0:0:0:
165,148,38113,1,8,0:0:0:0:
165,148,38208,1,0,0:0:0:0:
159,146,38398,1,0,0:0:0:0:
164,150,38588,1,12,0:0:0:0:
165,148,38968,1,12,0:0:0:0:
164,148,39348,1,12,0:0:0:0:
164,148,40107,1,4,0:0:0:0:
154,150,40297,1,8,0:0:0:0:
155,150,40392,1,8,0:0:0:0:
155,150,40487,1,0,0:0:0:0:
155,147,40677,1,8,0:0:0:0:
152,152,40867,1,0,0:0:0:0:
152,152,40962,1,0,0:0:0:0:
152,152,41057,1,8,0:0:0:0:
154,150,41246,1,0,0:0:0:0:
155,150,41436,1,0,0:0:0:0:
155,147,41626,1,8,0:0:0:0:
152,152,41816,1,8,0:0:0:0:
152,152,41911,1,8,0:0:0:0:
152,152,42006,1,8,0:0:0:0:
150,155,42196,1,0,0:0:0:0:
150,155,42386,1,0,0:0:0:0:
154,155,42481,1,0,0:0:0:0:
146,151,42576,1,8,0:0:0:0:
152,152,42670,1,8,0:0:0:0:
152,152,42765,1,0,0:0:0:0:
152,152,42955,1,0,0:0:0:0:
150,155,43145,1,8,0:0:0:0:
150,155,43335,1,8,0:0:0:0:
146,151,43525,1,0,0:0:0:0:
146,155,43715,1,8,0:0:0:0:
143,158,43810,1,8,0:0:0:0:
145,155,43905,1,0,0:0:0:0:
150,155,44094,1,8,0:0:0:0:
146,151,44284,1,0,0:0:0:0:
146,151,44379,1,0,0:0:0:0:
140,148,44474,1,0,0:0:0:0:
151,149,44664,1,8,0:0:0:0:
149,148,44759,1,8,0:0:0:0:
145,155,44854,1,0,0:0:0:0:
141,156,44949,1,0,0:0:0:0:
142,152,45044,1,8,0:0:0:0:
146,151,45234,1,0,0:0:0:0:
140,149,45424,1,8,0:0:0:0:
134,148,45519,1,8,0:0:0:0:
142,152,45708,1,0,0:0:0:0:
140,148,45803,1,0,0:0:0:0:
142,152,45993,1,8,0:0:0:0:
146,151,46183,1,4,0:0:0:0:
145,152,46563,1,0,0:0:0:0:
147,150,46753,1,8,0:0:0:0:
147,148,46848,1,8,0:0:0:0:
151,148,46943,1,0,0:0:0:0:
146,151,47132,1,8,0:0:0:0:
145,152,47322,1,0,0:0:0:0:
145,152,47417,1,0,0:0:0:0:
145,152,47512,1,0,0:0:0:0:
147,150,47702,1,8,0:0:0:0:
151,148,47892,1,0,0:0:0:0:
146,151,48082,1,0,0:0:0:0:
145,152,48272,1,8,0:0:0:0:
145,152,48367,1,8,0:0:0:0:
145,152,48462,1,8,0:0:0:0:
145,158,48651,1,8,0:0:0:0:
137,152,48841,1,0,0:0:0:0:
143,156,49031,1,0,0:0:0:0:
145,152,49126,1,0,0:0:0:0:
137,156,49221,1,8,0:0:0:0:
144,158,49411,1,0,0:0:0:0:
145,158,49601,1,0,0:0:0:0:
139,157,49791,1,8,0:0:0:0:
143,156,49981,1,0,0:0:0:0:
143,156,50076,1,8,0:0:0:0:
141,152,50170,1,0,0:0:0:0:
145,158,50360,1,0,0:0:0:0:
145,158,50550,1,8,0:0:0:0:
139,157,50740,1,8,0:0:0:0:
143,156,50835,1,8,0:0:0:0:
143,156,50930,1,8,0:0:0:0:
143,156,51025,1,8,0:0:0:0:
146,156,51120,1,0,0:0:0:0:
145,158,51310,1,8,0:0:0:0:
139,157,51500,1,0,0:0:0:0:
143,156,51784,1,0,0:0:0:0:
146,156,52069,1,8,0:0:0:0:
143,156,52639,1,4,0:0:0:0:
146,156,53019,1,0,0:0:0:0:
143,156,53303,1,8,0:0:0:0:
143,156,53588,1,8,0:0:0:0:
146,156,53778,1,4,0:0:0:0:
146,156,53968,1,8,0:0:0:0:
143,156,54063,1,8,0:0:0:0:
143,156,54158,1,8,0:0:0:0:
143,156,54348,1,0,0:0:0:0:
143,156,54538,1,8,0:0:0:0:
146,156,54632,1,8,0:0:0:0:
146,156,54727,1,0,0:0:0:0:
146,156,54917,1,8,0:0:0:0:
149,156,55107,1,8,0:0:0:0:
143,156,55297,1,0,0:0:0:0:
143,156,55487,1,0,0:0:0:0:
146,156,55582,1,0,0:0:0:0:
137,157,55677,1,8,0:0:0:0:
139,157,55867,1,0,0:0:0:0:
136,157,56057,1,8,0:0:0:0:
136,157,56246,1,8,0:0:0:0:
135,157,56341,1,0,0:0:0:0:
140,161,56436,1,8,0:0:0:0:
137,157,56626,1,0,0:0:0:0:
139,157,56816,1,8,0:0:0:0:
145,161,56911,1,8,0:0:0:0:
136,157,57006,1,0,0:0:0:0:
136,157,57101,1,0,0:0:0:0:
142,161,57196,1,8,0:0:0:0:
140,161,57386,1,8,0:0:0:0:
146,161,57576,1,0,0:0:0:0:
145,163,57765,1,8,0:0:0:0:
142,161,57860,1,0,0:0:0:0:
142,161,58050,1,0,0:0:0:0:
142,161,58145,1,8,0:0:0:0:
140,161,58335,1,4,0:0:0:0:
138,159,58715,1,0,0:0:0:0:
142,161,58905,1,8,0:0:0:0:
142,161,59000,1,8,0:0:0:0:
142,161,59094,1,8,0:0:0:0:
140,161,59284,1,8,0:0:0:0:
138,159,59474,1,0,0:0:0:0:
138,159,59569,1,0,0:0:0:0:
138,159,59664,1,8,0:0:0:0:
132,159,59854,1,0,0:0:0:0:
142,161,60044,1,8,0:0:0:0:
133,166,60234,1,0,0:0:0:0:
128,170,60424,1,8,0:0:0:0:
128,170,60519,1,8,0:0:0:0:
131,171,60613,1,0,0:0:0:0:
131,167,60803,1,0,0:0:0:0:
136,172,60993,1,8,0:0:0:0:
133,166,61183,1,0,0:0:0:0:
138,172,61278,1,8,0:0:0:0:
141,172,61373,1,0,0:0:0:0:
144,172,61753,1,8,0:0:0:0:
145,176,61943,1,8,0:0:0:0:
144,180,62132,1,0,0:0:0:0:
144,180,62227,1,8,0:0:0:0:
145,180,62417,1,8,0:0:0:0:
143,183,62512,1,0,0:0:0:0:
145,182,62702,1,8,0:0:0:0:
143,182,62797,1,8,0:0:0:0:
142,183,62892,1,0,0:0:0:0:
144,180,63082,1,0,0:0:0:0:
143,183,63272,1,8,0:0:0:0:
143,183,63462,1,0,0:0:0:0:
145,182,63557,1,0,0:0:0:0:
145,182,63651,1,0,0:0:0:0:
142,183,63841,1,8,0:0:0:0:
144,180,63936,1,0,0:0:0:0:
143,183,64126,1,0,0:0:0:0:
143,183,64221,1,8,0:0:0:0:
143,183,64411,1,4,0:0:0:0:
142,183,64696,1,0,0:0:0:0:
144,180,64981,1,0,0:0:0:0:
143,183,65170,1,12,0:0:0:0:
142,183,65455,1,8,0:0:0:0:
144,180,65740,1,8,0:0:0:0:
144,180,65930,1,0,0:0:0:0:
144,180,66310,1,0,0:0:0:0:
144,180,66689,1,0,0:0:0:0:
144,180,67069,1,8,0:0:0:0:
169,139,67449,1,4,0:0:0:0:
169,139,67639,1,8,0:0:0:0:
169,139,67734,1,8,0:0:0:0:
169,139,67829,1,0,0:0:0:0:
174,139,68019,1,8,0:0:0:0:
169,139,68208,1,0,0:0:0:0:
169,139,68398,1,8,0:0:0:0:
169,139,68493,1,8,0:0:0:0:
167,146,68588,1,8,0:0:0:0:
171,143,68778,1,8,0:0:0:0:
174,139,68968,1,0,0:0:0:0:
169,139,69063,1,8,0:0:0:0:
169,139,69158,1,0,0:0:0:0:
169,139,69253,1,0,0:0:0:0:
173,144,69348,1,8,0:0:0:0:
167,146,69538,1,8,0:0:0:0:
168,148,69727,1,0,0:0:0:0:
168,148,69822,1,0,0:0:0:0:
168,148,69917,1,0,0:0:0:0:
136,147,70107,1,8,0:0:0:0:
136,147,70487,1,0,0:0:0:0:
136,147,70677,1,8,0:0:0:0:
136,147,70772,1,0,0:0:0:0:
136,147,70867,1,8,0:0:0:0:
136,147,71057,1,8,0:0:0:0:
136,147,71246,1,0,0:0:0:0:
136,147,71341,1,0,0:0:0:0:
136,147,71436,1,0,0:0:0:0:
136,147,71626,1,8,0:0:0:0:
136,147,71816,1,8,0:0:0:0:
136,147,72006,1,0,0:0:0:0:
136,147,72291,1,0,0:0:0:0:
136,147,72576,1,0,0:0:0:0:
107,156,73525,1,4,0:0:0:0:
107,156,73715,1,8,0:0:0:0:
107,156,73810,1,8,0:0:0:0:
107,156,73905,1,8,0:0:0:0:
107,156,74094,1,8,0:0:0:0:
107,156,74284,1,0,0:0:0:0:
107,156,74379,1,8,0:0:0:0:
107,156,74474,1,0,0:0:0:0:
107,156,74569,1,0,0:0:0:0:
107,156,74664,1,8,0:0:0:0:
107,156,74854,1,0,0:0:0:0:
107,156,75044,1,8,0:0:0:0:
107,156,75234,1,0,0:0:0:0:
107,156,75329,1,0,0:0:0:0:
107,156,75424,1,0,0:0:0:0:
107,156,75613,1,0,0:0:0:0:
107,156,75803,1,8,0:0:0:0:
113,156,75898,1,8,0:0:0:0:
107,156,75993,1,0,0:0:0:0:
107,156,76183,1,0,0:0:0:0:
107,156,76373,1,0,0:0:0:0:
107,156,76563,1,8,0:0:0:0:
107,156,76753,1,0,0:0:0:0:
113,156,76848,1,0,0:0:0:0:
107,156,77132,1,0,0:0:0:0:
107,156,77322,1,8,0:0:0:0:
107,156,77417,1,8,0:0:0:0:
107,156,77702,1,0,0:0:0:0:
107,156,77892,1,0,0:0:0:0:
107,156,78082,1,8,0:0:0:0:
107,156,78177,1,8,0:0:0:0:
107,156,78367,1,0,0:0:0:0:
107,156,78557,1,8,0:0:0:0:
107,156,78746,1,0,0:0:0:0:
107,156,78841,1,0,0:0:0:0:
107,156,78936,1,0,0:0:0:0:
107,156,79126,1,8,0:0:0:0:
107,156,79221,1,8,0:0:0:0:
107,156,79411,1,0,0:0:0:0:
107,156,79601,1,12,0:0:0:0:
107,156,80360,1,0,0:0:0:0:
107,156,81120,1,8,0:0:0:0:
112,152,81405,1,0,0:0:0:0:
111,147,81689,1,8,0:0:0:0:
99,146,81879,1,0,0:0:0:0:
99,146,82164,1,0,0:0:0:0:
99,146,82449,1,0,0:0:0:0:
142,140,82639,1,12,0:0:0:0:
142,140,83019,1,0,0:0:0:0:
142,140,83208,1,8,0:0:0:0:
142,140,83303,1,8,0:0:0:0:
142,140,83398,1,0,0:0:0:0:
142,140,83588,1,8,0:0:0:0:
142,140,83778,1,0,0:0:0:0:
136,140,83873,1,0,0:0:0:0:
136,140,83968,1,0,0:0:0:0:
135,140,84158,1,8,0:0:0:0:
132,143,84348,1,0,0:0:0:0:
142,140,84538,1,0,0:0:0:0:
141,147,84632,1,0,0:0:0:0:
142,140,84727,1,8,0:0:0:0:
141,143,84917,1,8,0:0:0:0:
140,143,85012,1,8,0:0:0:0:
135,140,85107,1,8,0:0:0:0:
142,140,85202,1,8,0:0:0:0:
147,144,85297,1,0,0:0:0:0:
142,140,85677,1,12,0:0:0:0:
148,142,86436,1,0,0:0:0:0:
165,148,87196,1,8,0:0:0:0:
165,148,87481,1,0,0:0:0:0:
165,148,87765,1,8,0:0:0:0:
159,147,87948,2,0,L|206:152,6,41.9999987182618
165,148,88715,1,4,0:0:0:0:
165,148,88904,1,8,0:0:0:0:
165,148,88999,1,8,0:0:0:0:
165,148,89094,1,0,0:0:0:0:
165,148,89284,1,8,0:0:0:0:
165,148,89474,1,0,0:0:0:0:
165,148,89569,1,0,0:0:0:0:
165,148,89664,1,0,0:0:0:0:
165,148,89854,1,8,0:0:0:0:
165,148,90044,1,8,0:0:0:0:
165,148,90233,1,0,0:0:0:0:
165,148,90423,1,0,0:0:0:0:
165,148,90518,1,8,0:0:0:0:
165,148,90613,1,0,0:0:0:0:
165,148,90803,1,8,0:0:0:0:
165,148,90993,1,0,0:0:0:0:
165,148,91088,1,0,0:0:0:0:
165,148,91183,1,8,0:0:0:0:
165,148,91278,1,8,0:0:0:0:
165,148,91373,1,0,0:0:0:0:
165,148,91752,1,12,0:0:0:0:
165,148,91942,1,0,0:0:0:0:
165,148,92132,1,8,0:0:0:0:
165,148,92322,1,0,0:0:0:0:
165,148,92417,1,0,0:0:0:0:
165,148,92512,1,0,0:0:0:0:
165,148,92702,1,0,0:0:0:0:
165,148,92892,1,8,0:0:0:0:
165,148,93082,1,8,0:0:0:0:
165,148,93271,1,0,0:0:0:0:
165,148,93461,1,0,0:0:0:0:
165,148,93556,1,0,0:0:0:0:
165,148,93651,1,8,0:0:0:0:
165,148,93841,1,0,0:0:0:0:
165,148,94031,1,8,0:0:0:0:
165,148,94126,1,0,0:0:0:0:
165,148,94221,1,8,0:0:0:0:
165,148,94316,1,8,0:0:0:0:
165,148,94411,1,0,0:0:0:0:
165,148,94790,1,0,0:0:0:0:
165,148,94885,1,8,0:0:0:0:
165,148,94980,1,0,0:0:0:0:
165,148,95170,1,0,0:0:0:0:
165,148,95360,1,8,0:0:0:0:
165,148,95550,1,0,0:0:0:0:
165,148,95740,1,8,0:0:0:0:
165,148,95835,1,8,0:0:0:0:
165,148,95930,1,0,0:0:0:0:
165,148,96120,1,0,0:0:0:0:
165,148,96309,1,8,0:0:0:0:
165,148,96689,1,8,0:0:0:0:
165,148,97069,1,0,0:0:0:0:
165,148,97164,1,0,0:0:0:0:
165,148,97354,1,8,0:0:0:0:
165,148,97449,1,8,0:0:0:0:
165,148,97639,1,8,0:0:0:0:
165,148,97828,1,0,0:0:0:0:
165,148,98208,1,0,0:0:0:0:
165,148,98398,1,8,0:0:0:0:
165,148,98588,1,0,0:0:0:0:
165,148,98683,1,8,0:0:0:0:
165,148,98873,1,8,0:0:0:0:
165,148,98968,1,0,0:0:0:0:
158,148,99158,1,8,0:0:0:0:
158,148,99252,1,8,0:0:0:0:
165,148,99347,1,0,0:0:0:0:
155,152,99537,1,0,0:0:0:0:
165,148,99727,1,8,0:0:0:0:
165,148,99917,1,0,0:0:0:0:
166,149,100012,1,0,0:0:0:0:
166,146,100107,1,0,0:0:0:0:
165,148,100297,1,8,0:0:0:0:
157,150,100392,1,0,0:0:0:0:
157,150,100582,1,0,0:0:0:0:
165,148,100677,1,8,0:0:0:0:
165,148,100866,1,4,0:0:0:0:
158,153,101056,1,8,0:0:0:0:
165,148,101246,1,0,0:0:0:0:
165,148,101341,1,0,0:0:0:0:
164,150,101436,1,8,0:0:0:0:
165,148,101626,1,4,0:0:0:0:
165,148,101816,1,8,0:0:0:0:
165,148,101911,1,8,0:0:0:0:
165,148,102006,1,8,0:0:0:0:
165,148,102101,1,8,0:0:0:0:
159,146,102196,1,0,0:0:0:0:
164,150,102385,1,8,0:0:0:0:
165,148,102765,1,8,0:0:0:0:
164,148,103145,1,8,0:0:0:0:
164,148,103904,1,4,0:0:0:0:
154,150,104094,1,0,0:0:0:0:
155,150,104189,1,0,0:0:0:0:
155,150,104284,1,8,0:0:0:0:
155,147,104474,1,0,0:0:0:0:
152,152,104664,1,8,0:0:0:0:
152,152,104759,1,8,0:0:0:0:
152,152,104854,1,0,0:0:0:0:
154,150,105044,1,8,0:0:0:0:
160,152,105233,1,8,0:0:0:0:
155,147,105423,1,0,0:0:0:0:
152,152,105613,1,0,0:0:0:0:
152,152,105708,1,0,0:0:0:0:
152,152,105803,1,0,0:0:0:0:
150,155,105993,1,8,0:0:0:0:
150,155,106183,1,0,0:0:0:0:
146,151,106278,1,0,0:0:0:0:
152,152,106373,1,8,0:0:0:0:
152,152,106468,1,8,0:0:0:0:
152,152,106563,1,0,0:0:0:0:
152,152,106752,1,0,0:0:0:0:
150,155,106942,1,8,0:0:0:0:
150,155,107132,1,8,0:0:0:0:
150,160,107227,1,8,0:0:0:0:
146,151,107322,1,8,0:0:0:0:
146,155,107512,1,0,0:0:0:0:
145,155,107702,1,8,0:0:0:0:
150,155,107892,1,8,0:0:0:0:
144,156,107987,1,8,0:0:0:0:
146,151,108082,1,0,0:0:0:0:
140,148,108271,1,8,0:0:0:0:
151,149,108461,1,0,0:0:0:0:
141,152,108556,1,0,0:0:0:0:
145,155,108651,1,8,0:0:0:0:
141,151,108746,1,8,0:0:0:0:
142,152,108841,1,0,0:0:0:0:
146,151,109031,1,8,0:0:0:0:
140,149,109221,1,0,0:0:0:0:
151,149,109316,1,0,0:0:0:0:
152,151,109506,1,8,0:0:0:0:
141,148,109601,1,8,0:0:0:0:
142,152,109790,1,8,0:0:0:0:
146,151,109980,1,4,0:0:0:0:
145,152,110360,1,0,0:0:0:0:
147,150,110550,1,8,0:0:0:0:
147,148,110645,1,8,0:0:0:0:
151,148,110740,1,0,0:0:0:0:
146,151,110930,1,8,0:0:0:0:
145,152,111120,1,0,0:0:0:0:
145,152,111215,1,0,0:0:0:0:
145,152,111309,1,0,0:0:0:0:
147,150,111499,1,8,0:0:0:0:
148,154,111689,1,8,0:0:0:0:
146,151,111879,1,0,0:0:0:0:
145,152,112069,1,0,0:0:0:0:
145,152,112164,1,0,0:0:0:0:
145,152,112259,1,8,0:0:0:0:
145,158,112449,1,0,0:0:0:0:
137,152,112639,1,8,0:0:0:0:
143,156,112828,1,8,0:0:0:0:
145,152,112923,1,8,0:0:0:0:
137,156,113018,1,8,0:0:0:0:
145,152,113208,1,0,0:0:0:0:
145,158,113398,1,8,0:0:0:0:
139,157,113588,1,0,0:0:0:0:
143,156,113683,1,0,0:0:0:0:
143,156,113778,1,0,0:0:0:0:
141,152,113968,1,0,0:0:0:0:
145,158,114158,1,8,0:0:0:0:
141,152,114347,1,8,0:0:0:0:
139,157,114537,1,0,0:0:0:0:
143,156,114632,1,0,0:0:0:0:
143,156,114727,1,8,0:0:0:0:
143,156,114822,1,8,0:0:0:0:
146,156,114917,1,0,0:0:0:0:
145,158,115107,1,8,0:0:0:0:
139,157,115297,1,0,0:0:0:0:
143,156,115582,1,0,0:0:0:0:
146,156,115866,1,8,0:0:0:0:
143,156,116436,1,4,0:0:0:0:
146,156,116816,1,0,0:0:0:0:
143,156,117101,1,8,0:0:0:0:
143,156,117385,1,8,0:0:0:0:
146,156,117575,1,4,0:0:0:0:
146,156,117765,1,8,0:0:0:0:
143,156,117860,1,8,0:0:0:0:
143,156,117955,1,8,0:0:0:0:
143,156,118145,1,0,0:0:0:0:
143,156,118335,1,8,0:0:0:0:
146,156,118430,1,8,0:0:0:0:
146,156,118525,1,0,0:0:0:0:
146,156,118620,1,0,0:0:0:0:
146,156,118715,1,8,0:0:0:0:
150,158,118904,1,0,0:0:0:0:
143,156,119094,1,8,0:0:0:0:
143,156,119284,1,0,0:0:0:0:
146,156,119379,1,0,0:0:0:0:
137,157,119474,1,8,0:0:0:0:
139,157,119664,1,0,0:0:0:0:
136,157,119854,1,0,0:0:0:0:
136,157,120044,1,8,0:0:0:0:
135,157,120139,1,8,0:0:0:0:
140,161,120233,1,8,0:0:0:0:
137,157,120423,1,8,0:0:0:0:
139,157,120613,1,0,0:0:0:0:
142,161,120708,1,0,0:0:0:0:
142,161,120803,1,0,0:0:0:0:
136,157,120898,1,0,0:0:0:0:
136,157,120993,1,8,0:0:0:0:
140,161,121183,1,8,0:0:0:0:
146,161,121373,1,0,0:0:0:0:
145,163,121563,1,0,0:0:0:0:
142,161,121658,1,8,0:0:0:0:
130,162,121847,1,8,0:0:0:0:
142,161,121942,1,0,0:0:0:0:
140,161,122132,1,4,0:0:0:0:
138,159,122512,1,0,0:0:0:0:
142,161,122702,1,0,0:0:0:0:
142,161,122797,1,0,0:0:0:0:
142,161,122892,1,8,0:0:0:0:
140,161,123082,1,0,0:0:0:0:
138,159,123271,1,8,0:0:0:0:
138,159,123366,1,8,0:0:0:0:
138,159,123461,1,8,0:0:0:0:
132,159,123651,1,0,0:0:0:0:
132,158,123841,1,0,0:0:0:0:
133,166,124031,1,8,0:0:0:0:
128,170,124221,1,8,0:0:0:0:
128,170,124316,1,8,0:0:0:0:
131,171,124411,1,0,0:0:0:0:
131,167,124601,1,0,0:0:0:0:
136,172,124790,1,8,0:0:0:0:
133,166,124980,1,0,0:0:0:0:
138,172,125075,1,0,0:0:0:0:
141,172,125170,1,8,0:0:0:0:
144,172,125550,1,8,0:0:0:0:
145,176,125740,1,0,0:0:0:0:
144,180,125930,1,8,0:0:0:0:
144,180,126025,1,8,0:0:0:0:
146,181,126215,1,0,0:0:0:0:
143,183,126309,1,0,0:0:0:0:
145,182,126499,1,8,0:0:0:0:
143,182,126594,1,8,0:0:0:0:
142,183,126689,1,0,0:0:0:0:
144,180,126879,1,8,0:0:0:0:
143,183,127069,1,0,0:0:0:0:
143,183,127259,1,0,0:0:0:0:
145,182,127354,1,0,0:0:0:0:
145,182,127449,1,8,0:0:0:0:
142,183,127639,1,0,0:0:0:0:
144,180,127733,1,0,0:0:0:0:
143,183,127923,1,8,0:0:0:0:
143,183,128018,1,8,0:0:0:0:
143,183,128208,1,4,0:0:0:0:
142,183,128493,1,0,0:0:0:0:
144,180,128778,1,0,0:0:0:0:
143,183,128968,1,12,0:0:0:0:
142,183,129252,1,8,0:0:0:0:
144,180,129537,1,8,0:0:0:0:
144,180,129727,1,0,0:0:0:0:
144,180,130107,1,0,0:0:0:0:
144,180,130487,1,0,0:0:0:0:
144,180,130866,1,8,0:0:0:0:
144,180,131246,1,4,0:0:0:0:
144,180,131626,1,8,0:0:0:0:
144,180,131911,1,8,0:0:0:0:
144,180,132196,1,8,0:0:0:0:
144,180,132385,1,0,0:0:0:0:
140,186,132575,1,0,0:0:0:0:
136,183,132765,1,8,0:0:0:0:
136,186,133145,1,0,0:0:0:0:
137,185,133271,1,0,0:0:0:0:
137,185,133398,1,0,0:0:0:0:
134,184,133525,1,8,0:0:0:0:
136,186,133904,1,0,0:0:0:0:
136,186,134094,1,8,0:0:0:0:
137,185,134284,1,0,0:0:0:0:
136,186,134664,1,8,0:0:0:0:
136,186,135044,1,8,0:0:0:0:
136,186,135423,1,8,0:0:0:0:
136,186,135613,1,0,0:0:0:0:
135,177,135803,1,0,0:0:0:0:
136,186,136183,1,8,0:0:0:0:
136,186,136373,1,8,0:0:0:0:
142,187,136468,1,0,0:0:0:0:
136,186,136563,1,8,0:0:0:0:
135,192,136752,1,8,0:0:0:0:
146,182,136942,1,8,0:0:0:0:
136,186,137132,1,4,0:0:0:0:
136,186,137322,1,4,0:0:0:0:
139,170,138651,1,4,0:0:0:0:
139,170,138841,1,4,0:0:0:0:
154,232,140170,1,4,0:0:0:0:
154,232,140360,1,4,0:0:0:0:
160,231,140930,1,4,0:0:0:0:
159,231,141120,1,4,0:0:0:0:
162,224,141689,1,8,0:0:0:0:
162,224,141879,1,8,0:0:0:0:
162,224,142259,1,8,0:0:0:0:
162,224,142639,1,0,0:0:0:0:
162,224,142765,1,0,0:0:0:0:
162,224,142892,1,0,0:0:0:0:
162,224,143018,1,8,0:0:0:0:
157,220,143398,1,4,0:0:0:0:
162,224,143588,1,8,0:0:0:0:
156,222,143683,1,8,0:0:0:0:
156,222,143778,1,8,0:0:0:0:
162,224,143968,1,8,0:0:0:0:
161,225,144158,1,0,0:0:0:0:
162,221,144347,1,0,0:0:0:0:
162,224,144442,1,0,0:0:0:0:
162,224,144537,1,8,0:0:0:0:
161,223,144727,1,8,0:0:0:0:
162,224,144917,1,0,0:0:0:0:
161,225,145107,1,8,0:0:0:0:
162,221,145202,1,8,0:0:0:0:
162,221,145297,1,0,0:0:0:0:
162,224,145392,1,0,0:0:0:0:
157,227,145487,1,8,0:0:0:0:
156,230,145677,1,0,0:0:0:0:
162,221,146056,1,8,0:0:0:0:
162,224,146246,1,0,0:0:0:0:
162,224,146436,1,8,0:0:0:0:
162,221,146816,1,8,0:0:0:0:
162,221,147006,1,0,0:0:0:0:
158,219,147101,1,0,0:0:0:0:
157,219,147196,1,0,0:0:0:0:
162,224,147385,1,0,0:0:0:0:
162,221,147575,1,8,0:0:0:0:
162,221,147765,1,8,0:0:0:0:
162,221,147955,1,0,0:0:0:0:
161,223,148050,1,8,0:0:0:0:
166,222,148145,1,0,0:0:0:0:
166,222,148240,1,0,0:0:0:0:
166,217,148335,1,8,0:0:0:0:
162,221,148525,1,0,0:0:0:0:
162,221,148715,1,8,0:0:0:0:
162,221,148809,1,8,0:0:0:0:
166,222,148999,1,0,0:0:0:0:
166,222,149189,1,8,0:0:0:0:
166,217,149284,1,0,0:0:0:0:
170,217,149474,1,8,0:0:0:0:
168,213,149854,1,0,0:0:0:0:
166,222,150044,1,8,0:0:0:0:
166,222,150139,1,0,0:0:0:0:
166,217,150233,1,8,0:0:0:0:
170,217,150423,1,8,0:0:0:0:
171,218,150613,1,0,0:0:0:0:
176,217,150708,1,0,0:0:0:0:
172,217,150803,1,8,0:0:0:0:
177,214,150993,1,8,0:0:0:0:
181,213,151183,1,0,0:0:0:0:
180,207,151373,1,8,0:0:0:0:
181,206,151468,1,8,0:0:0:0:
181,206,151563,1,0,0:0:0:0:
181,206,151658,1,0,0:0:0:0:
173,206,151752,1,8,0:0:0:0:
182,205,151942,1,0,0:0:0:0:
185,206,152132,1,8,0:0:0:0:
180,207,152322,1,8,0:0:0:0:
181,206,152417,1,8,0:0:0:0:
181,206,152512,1,0,0:0:0:0:
165,148,152892,1,0,0:0:0:0:
165,148,153082,1,8,0:0:0:0:
165,148,153271,1,8,0:0:0:0:
165,148,153366,1,0,0:0:0:0:
165,148,153556,1,0,0:0:0:0:
165,148,153651,1,8,0:0:0:0:
158,148,153841,1,0,0:0:0:0:
158,148,153936,1,0,0:0:0:0:
165,148,154031,1,0,0:0:0:0:
165,148,154221,1,0,0:0:0:0:
165,148,154411,1,8,0:0:0:0:
165,148,154601,1,0,0:0:0:0:
166,149,154696,1,0,0:0:0:0:
166,146,154790,1,8,0:0:0:0:
165,148,154980,1,8,0:0:0:0:
157,150,155075,1,0,0:0:0:0:
157,150,155265,1,0,0:0:0:0:
165,148,155360,1,8,0:0:0:0:
165,148,155550,1,4,0:0:0:0:
166,146,155740,1,8,0:0:0:0:
165,148,155930,1,8,0:0:0:0:
165,148,156025,1,8,0:0:0:0:
164,150,156120,1,8,0:0:0:0:
165,148,156309,1,4,0:0:0:0:
165,148,156499,1,0,0:0:0:0:
159,149,156594,1,0,0:0:0:0:
165,148,156689,1,8,0:0:0:0:
165,148,156784,1,8,0:0:0:0:
159,146,156879,1,0,0:0:0:0:
164,150,157069,1,8,0:0:0:0:
165,148,157449,1,8,0:0:0:0:
164,148,157828,1,8,0:0:0:0:
164,148,158588,1,8,0:0:0:0:
164,148,158968,1,0,0:0:0:0:
164,148,159158,1,0,0:0:0:0:
164,148,159347,1,8,0:0:0:0:
168,151,159917,1,8,0:0:0:0:
166,152,160107,1,0,0:0:0:0:
168,151,160487,1,0,0:0:0:0:
168,151,160866,1,0,0:0:0:0:
168,151,161436,1,0,0:0:0:0:
168,151,161531,1,0,0:0:0:0:
168,151,161626,1,8,0:0:0:0:
168,151,162196,1,8,0:0:0:0:
168,151,162385,1,0,0:0:0:0:
168,151,162670,1,8,0:0:0:0:
168,151,162955,1,0,0:0:0:0:
168,151,163145,1,8,0:0:0:0:
168,151,163525,1,8,0:0:0:0:
168,151,163904,1,0,0:0:0:0:
168,151,164284,1,8,0:0:0:0:
168,151,164474,1,8,0:0:0:0:
168,151,164664,1,0,0:0:0:0:
168,151,165044,1,8,0:0:0:0:
168,151,165233,1,0,0:0:0:0:
168,151,165423,1,8,0:0:0:0:
168,151,165993,1,8,0:0:0:0:
168,151,166183,1,0,0:0:0:0:
168,151,166563,1,0,0:0:0:0:
168,151,166942,1,0,0:0:0:0:
168,151,167512,1,8,0:0:0:0:
168,151,167607,1,8,0:0:0:0:
168,151,167702,1,8,0:0:0:0:
160,153,168271,1,8,0:0:0:0:
161,154,168461,1,8,0:0:0:0:
166,157,168746,1,0,0:0:0:0:
165,157,169031,1,8,0:0:0:0:
167,157,169221,1,0,0:0:0:0:
166,157,169506,1,0,0:0:0:0:
165,157,169790,1,8,0:0:0:0:
165,157,169980,1,4,0:0:0:0:
166,157,170265,1,4,0:0:0:0:
165,157,170550,1,4,0:0:0:0:
165,157,170740,1,8,0:0:0:0:
165,157,170835,1,8,0:0:0:0:
165,157,170930,1,0,0:0:0:0:
157,156,171025,1,0,0:0:0:0:
166,157,171120,1,8,0:0:0:0:
165,157,171499,1,0,0:0:0:0:
165,157,171784,1,0,0:0:0:0:
166,157,172069,1,0,0:0:0:0:
165,157,172259,1,12,0:0:0:0:
146,156,172449,1,0,0:0:0:0:
143,156,172544,1,0,0:0:0:0:
143,156,172639,1,0,0:0:0:0:
143,156,172828,1,0,0:0:0:0:
143,156,173018,1,8,0:0:0:0:
146,156,173113,1,8,0:0:0:0:
146,156,173208,1,0,0:0:0:0:
146,156,173303,1,0,0:0:0:0:
146,156,173398,1,8,0:0:0:0:
143,156,173588,1,0,0:0:0:0:
143,156,173778,1,8,0:0:0:0:
143,156,173968,1,8,0:0:0:0:
146,156,174063,1,8,0:0:0:0:
137,157,174158,1,0,0:0:0:0:
139,157,174347,1,8,0:0:0:0:
136,157,174537,1,0,0:0:0:0:
136,157,174727,1,0,0:0:0:0:
135,157,174822,1,0,0:0:0:0:
140,161,174917,1,8,0:0:0:0:
137,157,175107,1,8,0:0:0:0:
139,157,175297,1,0,0:0:0:0:
142,161,175392,1,0,0:0:0:0:
142,161,175487,1,0,0:0:0:0:
136,157,175582,1,0,0:0:0:0:
136,157,175677,1,8,0:0:0:0:
140,161,175866,1,8,0:0:0:0:
146,161,176056,1,0,0:0:0:0:
145,163,176246,1,0,0:0:0:0:
142,161,176341,1,8,0:0:0:0:
130,162,176531,1,8,0:0:0:0:
142,161,176626,1,0,0:0:0:0:
140,161,176816,1,12,0:0:0:0:
138,159,177196,1,8,0:0:0:0:
142,161,177385,1,0,0:0:0:0:
142,161,177480,1,0,0:0:0:0:
142,161,177575,1,0,0:0:0:0:
140,161,177765,1,8,0:0:0:0:
138,159,177955,1,0,0:0:0:0:
138,159,178050,1,0,0:0:0:0:
138,159,178145,1,8,0:0:0:0:
132,159,178335,1,0,0:0:0:0:
135,167,178525,1,0,0:0:0:0:
133,166,178715,1,8,0:0:0:0:
133,169,178809,1,8,0:0:0:0:
128,170,178904,1,0,0:0:0:0:
131,171,179094,1,8,0:0:0:0:
136,167,179284,1,0,0:0:0:0:
136,172,179474,1,0,0:0:0:0:
133,166,179664,1,8,0:0:0:0:
138,172,179759,1,8,0:0:0:0:
141,172,179854,1,8,0:0:0:0:
144,172,180233,1,0,0:0:0:0:
145,176,180423,1,8,0:0:0:0:
144,180,180613,1,0,0:0:0:0:
144,180,180708,1,0,0:0:0:0:
143,185,180898,1,8,0:0:0:0:
143,183,180993,1,8,0:0:0:0:
145,182,181183,1,0,0:0:0:0:
143,182,181278,1,8,0:0:0:0:
142,183,181373,1,0,0:0:0:0:
144,180,181563,1,0,0:0:0:0:
143,183,181752,1,8,0:0:0:0:
143,183,181942,1,8,0:0:0:0:
145,182,182037,1,8,0:0:0:0:
145,182,182132,1,0,0:0:0:0:
142,183,182322,1,0,0:0:0:0:
144,180,182417,1,0,0:0:0:0:
143,183,182607,1,8,0:0:0:0:
143,183,182702,1,8,0:0:0:0:
143,183,182892,1,4,0:0:0:0:
142,183,183177,1,8,0:0:0:0:
144,180,183461,1,0,0:0:0:0:
143,183,183651,1,4,0:0:0:0:
142,183,183936,1,8,0:0:0:0:
144,180,184221,1,8,0:0:0:0:
144,180,184411,1,0,0:0:0:0:
144,180,184790,1,0,0:0:0:0:
144,180,185170,1,0,0:0:0:0:
144,180,185550,1,8,0:0:0:0:
144,180,185930,1,4,0:0:0:0:
144,180,186120,1,8,0:0:0:0:
144,180,186215,1,8,0:0:0:0:
144,180,186309,1,8,0:0:0:0:
144,180,186499,1,0,0:0:0:0:
144,180,186689,1,8,0:0:0:0:
144,180,186784,1,0,0:0:0:0:
144,180,186879,1,8,0:0:0:0:
144,180,186974,1,8,0:0:0:0:
144,180,187069,1,0,0:0:0:0:
144,180,187259,1,0,0:0:0:0:
144,180,187449,1,8,0:0:0:0:
144,180,187639,1,0,0:0:0:0:
144,180,187733,1,0,0:0:0:0:
144,180,187828,1,8,0:0:0:0:
144,180,188018,1,0,0:0:0:0:
144,180,188208,1,8,0:0:0:0:
144,180,188303,1,8,0:0:0:0:
148,177,188398,1,0,0:0:0:0:
144,180,188588,1,8,0:0:0:0:
144,180,188778,1,8,0:0:0:0:
146,185,188968,1,0,0:0:0:0:
148,177,189347,1,8,0:0:0:0:
144,180,189442,1,8,0:0:0:0:
144,180,189537,1,8,0:0:0:0:
144,180,189727,1,8,0:0:0:0:
146,185,189917,1,0,0:0:0:0:
148,177,190012,1,0,0:0:0:0:
148,177,190107,1,8,0:0:0:0:
148,177,190297,1,0,0:0:0:0:
150,173,190487,1,8,0:0:0:0:
150,173,190582,1,8,0:0:0:0:
151,173,190677,1,0,0:0:0:0:
150,173,190771,1,0,0:0:0:0:
149,172,190866,1,8,0:0:0:0:
155,172,191056,1,0,0:0:0:0:
152,172,191246,1,8,0:0:0:0:
156,158,192006,1,4,0:0:0:0:
154,159,192196,1,0,0:0:0:0:
156,158,192290,1,0,0:0:0:0:
161,161,192385,1,8,0:0:0:0:
161,159,192575,1,8,0:0:0:0:
156,158,192765,1,0,0:0:0:0:
154,159,192860,1,8,0:0:0:0:
156,158,192955,1,0,0:0:0:0:
154,159,193145,1,0,0:0:0:0:
152,161,193335,1,8,0:0:0:0:
161,159,193525,1,0,0:0:0:0:
154,167,193620,1,0,0:0:0:0:
161,157,193715,1,8,0:0:0:0:
156,158,193809,1,8,0:0:0:0:
156,158,193904,1,0,0:0:0:0:
162,153,194094,1,0,0:0:0:0:
158,153,194284,1,8,0:0:0:0:
157,154,194379,1,8,0:0:0:0:
161,159,194474,1,8,0:0:0:0:
156,152,194664,1,0,0:0:0:0:
164,158,194854,1,0,0:0:0:0:
162,153,195044,1,8,0:0:0:0:
158,153,195233,1,0,0:0:0:0:
157,154,195328,1,0,0:0:0:0:
166,156,195613,1,0,0:0:0:0:
162,153,195803,1,8,0:0:0:0:
153,145,195898,1,8,0:0:0:0:
151,145,196183,1,0,0:0:0:0:
151,145,196373,1,0,0:0:0:0:
150,148,196563,1,8,0:0:0:0:
151,147,196658,1,8,0:0:0:0:
153,145,196847,1,8,0:0:0:0:
156,145,197037,1,8,0:0:0:0:
151,145,197227,1,8,0:0:0:0:
151,145,197322,1,8,0:0:0:0:
150,148,197417,1,8,0:0:0:0:
151,147,197607,1,8,0:0:0:0:
153,145,197702,1,8,0:0:0:0:
156,145,197892,1,8,0:0:0:0:
151,147,198461,1,4,0:0:0:0:
