osu file format v14

[General]
AudioFilename: lolirap.mp3
AudioLeadIn: 0
PreviewTime: 39688
Countdown: 0
SampleSet: Soft
StackLeniency: 0.7
Mode: 2
LetterboxInBreaks: 0
WidescreenStoryboard: 1

[Editor]
DistanceSpacing: 1.6
BeatDivisor: 4
GridSize: 8
TimelineZoom: 2.3

[Metadata]
Title:Hijitsuzaikei Joshitachi wa Dou Surya Ii Desu ka?
TitleUnicode:非実在系女子達はどうすりゃいいですか?
Artist:Ayase Rie
ArtistUnicode:綾瀬理恵
Creator:-Luminate
Version:Salad
Source:抜きゲーみたいな島に住んでる貧乳(わたし)はどうすりゃいいですか?
Tags:Is the Island Utopia or Dystopia? Nukitashi Qruppo Eroge op opening Visual Novel vn video game japanese 拔作岛 ぬきたし Nukige Mitai na Shima ni Sunderu Watashi wa Dou Surya Ii Desu ka? 金閉開羅巧夢 Pop JPop J-Pop ナガトサチ sachi nagato 浮丸つぼね 如月千幸 Ukimaru Tsubone Chiyuki Kisaragi
BeatmapID:2660331
BeatmapSetID:1278683

[Difficulty]
HPDrainRate:3
CircleSize:3
OverallDifficulty:7
ApproachRate:7
SliderMultiplier:2
SliderTickRate:1

[Events]
//Background and Video events
0,0,"bruv.jpg",0,0
//Break Periods
//Storyboard Layer 0 (Background)
//Storyboard Layer 1 (Fail)
//Storyboard Layer 2 (Pass)
//Storyboard Layer 3 (Foreground)
//Storyboard Layer 4 (Overlay)
//Storyboard Sound Samples

[TimingPoints]
622,379.746835443038,4,2,1,40,1,0
3280,-100,4,2,1,55,0,0
3659,-100,4,2,1,65,0,0
8976,-100,4,2,1,55,0,0
9735,-100,4,2,1,70,0,0
16191,-100,4,2,1,55,0,0
27963,-100,4,2,1,60,0,0
37077,-100,4,2,1,70,0,0
39735,-100,4,2,1,50,0,0
40115,-100,4,2,1,80,0,1
65938,-100,4,2,1,65,0,0
72773,-100,4,2,1,55,0,0
73533,-100,4,2,1,65,0,0

[Colours]
Combo1 : 255,128,255
Combo2 : 255,128,192
Combo3 : 255,137,81
Combo4 : 242,196,145

[HitObjects]
152,336,622,6,0,P|112:280|168:144,1,200,0|0,0:0|0:0,0:0:0:0:
200,152,1191,1,0,0:0:0:0:
232,104,1381,1,0,0:0:0:0:
208,56,1571,1,0,0:0:0:0:
144,48,1761,1,0,0:0:0:0:
256,328,2140,5,0,0:0:0:0:
320,272,2329,1,0,0:0:0:0:
336,192,2519,1,0,0:0:0:0:
320,128,2709,1,0,0:0:0:0:
256,104,2900,1,8,0:0:0:0:
440,48,3280,1,2,0:0:0:0:
168,328,3659,5,12,0:0:0:0:
232,328,3849,2,0,P|264:296|280:232,1,100,8|8,0:1|0:0,0:0:0:0:
272,224,4229,1,8,0:1:0:0:
208,208,4419,2,0,L|88:104,2,150,8|8|8,0:0|0:0|0:1,0:0:0:0:
392,336,5178,5,8,0:0:0:0:
464,312,5368,2,0,L|456:192,1,100,8|8,0:1|0:0,0:0:0:0:
392,192,5748,1,8,0:1:0:0:
328,184,5938,2,0,L|464:80,2,150,8|8|8,0:0|0:1|0:1,0:0:0:0:
152,320,6697,5,8,0:0:0:0:
72,304,6887,2,0,P|72:208|80:192,1,100,8|8,0:1|0:0,0:0:0:0:
144,192,7267,1,8,0:1:0:0:
224,168,7457,2,0,L|96:48,2,150,8|8|8,0:0|0:0|0:1,0:0:0:0:
400,256,8216,6,0,L|264:144,2,150,8|8|8,0:1|0:1|0:1,0:0:0:0:
320,344,8976,2,0,P|232:328|208:208,1,200,0|0,0:0|0:0,0:0:0:0:
208,168,9546,1,0,0:0:0:0:
368,136,9735,5,4,0:0:0:0:
440,128,9925,2,0,P|448:32|432:8,1,100,8|8,0:1|0:0,0:0:0:0:
368,32,10305,1,8,0:1:0:0:
288,208,10495,2,0,L|424:104,2,150,8|8|8,0:0|0:0|0:1,0:0:0:0:
104,304,11254,5,8,0:0:0:0:
40,264,11444,1,8,0:1:0:0:
24,200,11634,1,8,0:0:0:0:
40,136,11824,1,8,0:1:0:0:
104,112,12014,2,0,L|224:16,2,150,8|8|8,0:0|0:1|0:1,0:0:0:0:
280,176,12773,6,0,P|296:288|280:320,1,150,8|8,0:1|0:1,0:0:0:0:
136,312,13343,2,0,P|112:248|136:168,1,150,8|8,0:1|0:1,0:0:0:0:
240,136,13913,1,8,0:1:0:0:
240,80,14103,1,8,0:1:0:0:
72,80,14292,5,8,0:1:0:0:
192,80,14577,2,0,L|280:152,2,100,8|8|8,0:0|0:0|0:0,0:0:0:0:
144,80,15052,1,8,0:0:0:0:
144,80,15147,1,8,0:0:0:0:
240,80,15432,1,8,0:0:0:0:
240,80,15622,1,8,0:0:0:0:
416,80,15811,5,12,0:0:0:0:
208,176,16571,1,2,0:0:0:0:
336,80,17140,1,0,0:0:0:0:
248,80,17330,6,0,L|128:192,2,150,10|10|8,0:0|0:0|0:0,0:0:0:0:
336,64,18090,1,8,0:1:0:0:
336,64,18280,1,8,0:0:0:0:
160,80,18470,1,8,0:1:0:0:
336,192,18849,6,0,L|424:128,2,100,12|8|8,0:0|0:1|0:0,0:0:0:0:
248,192,19419,1,8,0:1:0:0:
336,192,19609,2,0,P|392:112|320:32,1,200,8|8,0:0|0:0,0:0:0:0:
72,48,20368,5,8,0:0:0:0:
200,272,20748,2,0,L|208:168,1,100,8|8,0:0|0:1,0:0:0:0:
112,168,21128,1,8,3:2:0:0:
112,168,21318,1,8,3:2:0:0:
112,112,21508,1,8,0:0:0:0:
424,112,21887,5,12,0:0:0:0:
200,208,22647,1,2,0:0:0:0:
408,272,23216,1,0,0:0:0:0:
408,272,23406,6,0,L|288:168,2,150,2|2|8,0:0|0:0|0:0,0:0:0:0:
456,312,24166,1,8,0:1:0:0:
408,352,24356,1,8,0:0:0:0:
224,352,24546,1,8,0:1:0:0:
400,272,24925,6,0,L|504:176,2,100,12|8|8,0:0|0:1|0:0,0:0:0:0:
320,272,25495,1,8,0:1:0:0:
248,240,25685,2,0,L|408:96,1,200,8|8,0:0|0:0,0:0:0:0:
128,320,26444,6,0,L|120:176,1,100,8|8,0:0|0:1,0:0:0:0:
216,200,26824,2,0,L|224:80,1,100,8|8,0:0|0:1,0:0:0:0:
128,64,27204,2,0,P|88:192|136:216,1,200,8|8,3:1|0:0,0:0:0:0:
456,232,27963,6,0,L|480:104,2,100,12|8|8,0:0|0:0|0:0,0:0:0:0:
376,232,28533,1,8,0:1:0:0:
208,344,28723,2,0,L|200:184,1,150,8|8,0:1|0:1,0:0:0:0:
320,176,29292,1,8,0:1:0:0:
144,168,29482,6,0,L|56:80,2,100,8|8|8,0:0|0:0|0:0,0:0:0:0:
232,176,30052,1,8,0:0:0:0:
400,296,30242,2,0,P|424:192|368:152,1,150,8|8,0:1|0:0,0:0:0:0:
280,160,30811,1,8,0:0:0:0:
368,144,31001,6,0,L|408:32,2,100,12|8|8,0:0|0:1|0:0,0:0:0:0:
280,160,31571,1,8,0:1:0:0:
104,288,31761,2,0,P|72:224|120:160,1,150,2|8,0:0|0:0,0:0:0:0:
248,160,32330,1,4,0:3:0:0:
168,128,32520,5,12,0:0:0:0:
320,64,32900,1,10,0:0:0:0:
168,128,33280,1,8,0:1:0:0:
112,88,33470,1,8,0:0:0:0:
168,48,33659,1,8,0:1:0:0:
456,312,34039,6,0,L|304:192,2,150,12|8|8,0:0|0:1|0:0,0:0:0:0:
352,336,34799,2,0,L|344:160,1,150,8|8,0:1|0:0,0:0:0:0:
464,160,35368,1,8,0:1:0:0:
288,168,35558,6,0,L|152:64,2,150,8|8|8,0:0|0:0|0:0,0:0:0:0:
384,208,36318,2,0,L|264:312,1,150,8|8,0:1|0:0,0:0:0:0:
144,304,36887,1,8,0:1:0:0:
320,312,37077,6,0,L|464:200,2,150,12|8|8,0:0|0:0|0:1,0:0:0:0:
144,240,37837,2,0,L|8:128,2,150,12|8|8,0:0|0:0|0:1,0:0:0:0:
328,48,38596,5,2,0:1:0:0:
192,96,38976,1,2,0:1:0:0:
328,144,39356,1,2,0:1:0:0:
192,96,39735,2,0,L|192:200,1,100,0|0,0:0|0:0,0:0:0:0:
365,311,40115,6,0,P|432:272|464:136,1,200,12|8,0:0|0:0,0:0:0:0:
376,160,40685,1,8,0:1:0:0:
200,160,40875,2,0,P|136:136|104:16,1,200,8|8,0:0|0:0,0:0:0:0:
200,160,41444,1,8,0:1:0:0:
376,280,41634,6,0,L|248:160,2,150,8|0|8,0:0|0:0|0:1,0:0:0:0:
456,280,42394,2,0,P|480:200|448:88,1,200,8|8,0:0|0:0,0:0:0:0:
368,88,42963,1,8,0:1:0:0:
192,88,43153,6,0,P|152:136|200:256,1,200,8|8,0:0|0:0,0:0:0:0:
288,256,43723,1,8,0:1:0:0:
195,253,43913,2,0,L|75:357,2,150,8|0|8,0:0|0:0|0:1,0:0:0:0:
368,176,44672,5,12,0:1:0:0:
248,144,44957,1,8,0:1:0:0:
120,112,45242,1,8,0:1:0:0:
296,288,45432,2,0,L|424:184,2,150,8|8|8,3:1|3:1|0:1,0:0:0:0:
128,320,46191,6,0,P|80:240|152:144,1,200,14|8,0:0|0:0,0:0:0:0:
208,152,46761,1,8,0:1:0:0:
376,152,46951,2,0,P|384:80|256:16,1,200,8|8,0:0|0:0,0:0:0:0:
208,16,47520,1,8,0:1:0:0:
288,328,47710,6,0,L|456:192,2,200,8|8|8,0:0|0:0|0:0,0:0:0:0:
112,328,48849,1,8,0:0:0:0:
112,328,49039,1,8,0:1:0:0:
288,328,49229,6,0,P|336:256|272:160,1,200,8|8,0:0|0:0,0:0:0:0:
208,160,49799,1,8,0:1:0:0:
128,152,49989,2,0,L|272:32,2,150,8|0|8,0:0|0:0|0:1,0:0:0:0:
288,320,50748,6,0,L|416:192,2,150,12|8|8,0:1|0:1|0:1,0:0:0:0:
184,320,51508,1,10,0:1:0:0:
96,272,51792,1,2,0:1:0:0:
304,224,52077,6,0,P|360:144|280:72,1,200,2|0,0:1|0:0,0:0:0:0:
224,80,52647,1,14,0:0:0:0:
384,336,53027,2,0,L|264:240,2,150,12|12|12,0:1|0:0|0:1,0:0:0:0:
200,352,53786,6,0,L|192:192,1,150,14|0,0:0|0:0,0:0:0:0:
336,192,54356,1,8,0:1:0:0:
256,168,54546,2,0,L|424:48,1,200,8|8,0:0|0:0,0:0:0:0:
344,32,55115,1,8,0:1:0:0:
168,320,55305,6,0,P|120:256|192:152,1,200,8|8,0:0|0:0,0:0:0:0:
248,152,55875,1,8,0:1:0:0:
168,152,56065,2,0,L|48:56,2,150,8|8|8,0:0|0:0|0:1,0:0:0:0:
352,192,56824,5,12,0:1:0:0:
224,248,57109,1,8,0:0:0:0:
224,336,57394,1,8,0:0:0:0:
400,336,57584,1,8,0:1:0:0:
296,304,57963,2,0,L|296:184,1,100,8|8,0:0|0:1,0:0:0:0:
464,192,58343,6,0,P|472:112|360:32,1,200,12|8,0:0|0:0,0:0:0:0:
312,40,58913,1,8,0:1:0:0:
232,224,59103,2,0,L|400:80,1,200,8|8,0:0|0:0,0:0:0:0:
464,96,59672,1,8,0:1:0:0:
296,344,59862,6,0,L|136:216,2,200,8|8|8,0:0|0:0|0:0,0:0:0:0:
144,336,61001,1,8,0:0:0:0:
144,336,61191,1,8,0:1:0:0:
312,336,61381,5,14,0:0:0:0:
432,288,61761,2,0,L|424:176,1,100,8|8,0:0|0:1,0:0:0:0:
256,184,62140,2,0,L|128:72,2,150,8|8|8,0:1|0:0|0:1,0:0:0:0:
432,336,62900,6,0,P|472:264|408:152,1,200,8|8,0:1|0:1,0:0:0:0:
352,144,63470,1,8,0:0:0:0:
272,128,63659,2,0,L|416:8,2,150,8|8|8,0:1|0:1|0:0,0:0:0:0:
112,128,64419,5,12,0:0:0:0:
216,328,64704,2,0,L|216:152,1,150,8|8,0:0|0:1,0:0:0:0:
400,168,65178,1,14,0:0:0:0:
304,320,65463,2,0,L|304:152,1,150,8|8,0:3|0:1,0:0:0:0:
208,168,65938,6,0,L|376:312,2,200,2|2|2,0:1|0:1|0:1,0:0:0:0:
136,104,67077,1,2,0:0:0:0:
432,112,67457,5,12,0:0:0:0:
352,288,67647,2,0,P|352:200|368:168,1,100,8|8,0:1|0:0,0:0:0:0:
432,192,68027,1,8,0:1:0:0:
355,190,68217,2,0,L|240:56,2,150,8|8|8,0:0|0:0|0:1,0:0:0:0:
192,320,68976,5,8,0:0:0:0:
112,312,69166,2,0,L|104:168,1,100,8|8,0:1|0:0,0:0:0:0:
192,320,69546,1,8,0:1:0:0:
112,288,69736,2,0,L|0:176,2,150,8|8|8,0:0|0:0|0:1,0:0:0:0:
288,336,70495,5,8,0:0:0:0:
360,312,70685,2,0,P|368:240|344:192,1,100,8|8,0:1|0:0,0:0:0:0:
288,184,71065,1,8,0:1:0:0:
216,176,71255,2,0,L|80:56,2,150,8|8|8,0:0|0:0|0:1,0:0:0:0:
384,184,72014,5,8,0:1:0:0:
256,224,72299,1,8,0:1:0:0:
136,272,72584,1,8,0:1:0:0:
208,256,72773,2,0,L|240:152,3,100,2|2|2|2,0:3|0:3|0:3|0:3,0:0:0:0:
400,160,73533,5,12,0:0:0:0:
472,136,73723,2,0,L|472:24,1,100,8|8,0:1|0:0,0:0:0:0:
392,24,74103,1,8,0:1:0:0:
216,240,74293,2,0,L|80:136,2,150,8|8|8,0:0|0:0|0:1,0:0:0:0:
392,336,75052,5,8,0:0:0:0:
328,296,75242,1,8,0:1:0:0:
328,232,75432,1,8,0:0:0:0:
400,200,75622,1,8,0:1:0:0:
472,184,75812,2,0,L|336:72,2,150,8|8|8,0:0|0:1|0:1,0:0:0:0:
296,200,76571,6,0,P|280:312|296:344,1,150,8|8,0:1|0:1,0:0:0:0:
424,336,77141,2,0,P|448:272|416:192,1,150,8|8,0:1|0:1,0:0:0:0:
272,200,77710,1,8,0:1:0:0:
344,160,77901,1,8,0:1:0:0:
272,112,78090,5,8,0:0:0:0:
128,152,78375,2,0,L|40:224,2,100,8|8|8,0:0|0:0|0:0,0:0:0:0:
176,128,78849,1,8,0:0:0:0:
176,128,78945,1,8,0:0:0:0:
320,304,79229,2,0,L|320:184,1,100,8|8,0:0|0:0,0:0:0:0:
232,200,79609,6,0,L|232:88,1,100,8|0,0:0|0:0,0:0:0:0:
424,96,79989,1,14,0:0:0:0:
