osu file format v14

[General]
AudioFilename: lolirap.mp3
AudioLeadIn: 0
PreviewTime: 39688
Countdown: 0
SampleSet: Soft
StackLeniency: 0.7
Mode: 2
LetterboxInBreaks: 0
WidescreenStoryboard: 1

[Editor]
DistanceSpacing: 1.6
BeatDivisor: 8
GridSize: 8
TimelineZoom: 2.3

[Metadata]
Title:Hijitsuzaikei Joshitachi wa Dou Surya Ii Desu ka?
TitleUnicode:非実在系女子達はどうすりゃいいですか?
Artist:Ayase Rie
ArtistUnicode:綾瀬理恵
Creator:-Luminate
Version:Rain
Source:抜きゲーみたいな島に住んでる貧乳(わたし)はどうすりゃいいですか?
Tags:Is the Island Utopia or Dystopia? Nukitashi Qruppo Eroge op opening Visual Novel vn video game japanese 拔作岛 ぬきたし Nukige Mitai na Shima ni Sunderu Watashi wa Dou Surya Ii Desu ka? 金閉開羅巧夢 Pop JPop J-Pop ナガトサチ sachi nagato 浮丸つぼね 如月千幸 Ukimaru Tsubone Chiyuki Kisaragi
BeatmapID:2658045
BeatmapSetID:1278683

[Difficulty]
HPDrainRate:5
CircleSize:4
OverallDifficulty:9
ApproachRate:9
SliderMultiplier:2.5
SliderTickRate:1

[Events]
//Background and Video events
0,0,"bruv.jpg",0,0
//Break Periods
//Storyboard Layer 0 (Background)
//Storyboard Layer 1 (Fail)
//Storyboard Layer 2 (Pass)
//Storyboard Layer 3 (Foreground)
//Storyboard Layer 4 (Overlay)
//Storyboard Sound Samples

[TimingPoints]
622,379.746835443038,4,2,1,40,1,0
3280,-100,4,2,1,55,0,0
3659,-100,4,2,1,65,0,0
8976,-100,4,2,1,55,0,0
9735,-100,4,2,1,70,0,0
16191,-100,4,2,1,55,0,0
27963,-100,4,2,1,60,0,0
37077,-100,4,2,1,70,0,0
39735,-100,4,2,1,50,0,0
40115,-100,4,2,1,80,0,1
65938,-100,4,2,1,65,0,0
72773,-100,4,2,1,55,0,0
73533,-100,4,2,1,65,0,0

[Colours]
Combo1 : 255,128,255
Combo2 : 255,128,192
Combo3 : 255,137,81
Combo4 : 242,196,145

[HitObjects]
176,312,622,5,0,0:0:0:0:
112,272,716,1,0,0:0:0:0:
88,200,811,1,0,0:0:0:0:
112,120,906,1,0,0:0:0:0:
176,80,1001,1,0,0:0:0:0:
296,120,1191,1,0,0:0:0:0:
176,176,1381,1,0,0:0:0:0:
296,224,1571,1,0,0:0:0:0:
176,288,1761,1,0,0:0:0:0:
176,288,1951,1,0,0:0:0:0:
360,288,2140,5,0,0:0:0:0:
424,248,2234,1,0,0:0:0:0:
448,176,2329,1,0,0:0:0:0:
424,96,2424,1,0,0:0:0:0:
360,56,2519,1,0,0:0:0:0:
208,56,2710,1,0,0:0:0:0:
360,56,2900,2,0,P|408:128|344:208,1,187.5,8|0,0:0|0:0,0:0:0:0:
160,208,3280,1,2,0:0:0:0:
368,296,3659,5,12,0:0:0:0:
224,296,3849,2,0,L|160:256,2,62.5,8|0|8,0:1|0:0|0:0,0:0:0:0:
280,280,4134,1,8,0:0:0:0:
296,224,4229,1,8,0:1:0:0:
280,168,4324,1,8,0:0:0:0:
224,144,4419,5,8,0:0:0:0:
376,112,4609,1,8,0:1:0:0:
376,112,4704,1,8,0:0:0:0:
216,96,4894,1,8,0:0:0:0:
216,96,4989,1,8,0:1:0:0:
472,312,5178,5,8,0:0:0:0:
496,248,5273,1,0,0:0:0:0:
480,192,5368,1,8,0:1:0:0:
424,168,5463,1,0,0:0:0:0:
424,168,5558,1,8,0:0:0:0:
480,192,5653,1,8,0:0:0:0:
496,248,5748,1,8,0:1:0:0:
472,312,5843,1,8,0:1:0:0:
288,312,5938,6,0,L|128:264,1,125,8|8,0:0|0:1,0:0:0:0:
232,288,6223,2,0,L|240:208,1,62.5,8|8,0:1|0:0,0:0:0:0:
80,168,6413,2,0,L|16:112,2,62.5,8|8|8,0:1|0:1|0:1,0:0:0:0:
288,152,6697,5,8,0:0:0:0:
208,40,6887,2,0,L|200:128,1,62.5,8|0,0:1|0:0,0:0:0:0:
360,152,7077,1,8,0:0:0:0:
352,216,7172,1,8,0:0:0:0:
328,264,7267,1,8,0:1:0:0:
280,288,7362,1,8,0:0:0:0:
216,288,7457,5,8,0:0:0:0:
56,232,7647,1,8,0:1:0:0:
56,232,7742,1,8,0:0:0:0:
232,280,7932,1,8,0:0:0:0:
288,288,8027,1,8,0:1:0:0:
40,312,8216,6,0,L|32:216,1,62.5,8|8,0:1|0:0,0:0:0:0:
104,240,8406,1,8,0:0:0:0:
272,240,8501,2,0,L|352:192,2,62.5,8|8|8,0:1|0:0|0:0,0:0:0:0:
104,240,8786,1,8,0:1:0:0:
224,240,8976,5,0,0:0:0:0:
256,200,9071,1,0,0:0:0:0:
272,136,9166,1,0,0:0:0:0:
256,80,9261,1,0,0:0:0:0:
216,48,9356,1,0,0:0:0:0:
160,32,9451,1,0,0:0:0:0:
112,32,9546,1,0,0:0:0:0:
160,32,9640,1,0,0:0:0:0:
328,328,9735,6,0,L|336:256,1,62.5,4|0,0:0|0:0,0:0:0:0:
264,256,9925,2,0,L|256:168,1,62.5,8|0,0:1|0:0,0:0:0:0:
424,176,10115,2,0,L|480:136,1,62.5,8|8,0:0|0:0,0:0:0:0:
480,104,10305,1,8,0:1:0:0:
464,56,10400,1,0,0:0:0:0:
408,32,10495,5,8,0:0:0:0:
192,168,10685,1,8,0:1:0:0:
192,168,10780,1,8,0:0:0:0:
336,216,10970,1,8,0:0:0:0:
384,224,11065,1,8,0:1:0:0:
104,320,11254,5,8,0:0:0:0:
56,304,11349,1,0,0:0:0:0:
56,240,11444,1,8,0:1:0:0:
104,216,11539,1,0,0:0:0:0:
176,240,11634,2,0,L|184:144,1,62.5,8|8,0:0|0:0,0:0:0:0:
112,160,11824,2,0,L|104:72,1,62.5,8|0,0:1|0:0,0:0:0:0:
288,336,12014,5,8,0:0:0:0:
344,320,12108,1,8,0:0:0:0:
376,272,12203,1,8,0:1:0:0:
368,216,12298,1,8,0:1:0:0:
200,240,12394,1,8,0:0:0:0:
144,224,12488,1,8,0:0:0:0:
112,176,12583,1,8,0:1:0:0:
120,120,12678,1,8,0:1:0:0:
296,112,12773,6,0,L|441:185,1,125,8|0,0:1|0:0,0:0:0:0:
249,329,13058,2,0,L|121:257,1,125,8|0,0:1|0:0,0:0:0:0:
296,226,13343,2,0,P|312:138|264:90,1,125,8|0,0:1|0:0,0:0:0:0:
136,112,13628,1,8,0:1:0:0:
224,136,13818,1,8,0:0:0:0:
224,136,13913,1,8,0:1:0:0:
136,168,14103,1,8,0:1:0:0:
432,304,14292,6,0,L|440:216,1,62.5,8|8,0:1|0:0,0:0:0:0:
272,200,14577,1,8,0:0:0:0:
432,144,14767,1,8,0:0:0:0:
272,88,14957,2,0,L|200:88,2,62.5,8|8|8,0:0|0:0|0:0,0:0:0:0:
432,232,15337,2,0,L|344:232,1,62.5,8|8,0:0|0:0,0:0:0:0:
216,232,15622,1,8,0:0:0:0:
472,160,15811,5,12,0:0:0:0:
240,160,16343,1,0,0:0:0:0:
240,160,16419,1,0,0:0:0:0:
240,160,16495,1,0,0:0:0:0:
312,160,16571,1,2,0:0:0:0:
112,256,17140,1,0,0:0:0:0:
384,256,17330,5,10,0:0:0:0:
232,176,17615,1,10,0:0:0:0:
384,104,17900,1,8,0:0:0:0:
232,336,18090,1,8,0:1:0:0:
183,300,18184,1,8,0:1:0:0:
183,240,18279,1,8,0:0:0:0:
233,206,18374,1,8,0:0:0:0:
312,208,18470,2,0,L|320:72,1,125,8|0,0:1|0:0,0:0:0:0:
48,80,18849,6,0,L|40:216,1,125,12|8,0:0|0:1,0:0:0:0:
112,216,19134,1,0,0:0:0:0:
112,216,19229,1,8,0:0:0:0:
48,248,19324,1,8,0:0:0:0:
208,320,19419,2,0,L|216:232,1,62.5,8|0,0:1|0:0,0:0:0:0:
152,248,19609,5,8,0:0:0:0:
136,200,19703,1,8,0:0:0:0:
144,152,19798,1,8,0:1:0:0:
176,128,19893,1,8,0:0:0:0:
232,120,19989,2,0,L|384:120,1,125,8|8,0:0|0:1,0:0:0:0:
104,344,20368,6,0,L|88:176,1,125,8|8,0:0|0:1,0:0:0:0:
280,240,20748,2,0,L|288:72,1,125,8|8,0:0|0:1,0:0:0:0:
96,144,21128,5,8,3:2:0:0:
104,88,21223,1,8,3:2:0:0:
144,48,21318,1,8,3:2:0:0:
200,40,21413,1,8,3:2:0:0:
376,40,21508,2,0,L|384:192,1,125,8|8,0:0|0:1,0:0:0:0:
320,168,21792,1,8,0:1:0:0:
160,168,21887,5,12,0:0:0:0:
320,240,22419,1,0,0:0:0:0:
320,240,22495,1,0,0:0:0:0:
320,240,22571,1,0,0:0:0:0:
248,240,22647,1,2,0:0:0:0:
448,336,23216,1,0,0:0:0:0:
176,336,23406,5,2,0:0:0:0:
328,256,23691,1,2,0:0:0:0:
176,184,23976,1,8,0:0:0:0:
328,184,24166,1,8,0:1:0:0:
352,128,24260,1,8,0:1:0:0:
336,72,24355,1,8,0:0:0:0:
280,48,24450,1,8,0:0:0:0:
216,40,24546,2,0,L|208:184,1,125,8|0,0:1|0:0,0:0:0:0:
456,80,24925,6,0,L|464:216,1,125,12|8,0:0|0:1,0:0:0:0:
400,216,25210,1,8,0:0:0:0:
272,288,25400,1,8,0:0:0:0:
216,264,25495,2,0,L|208:176,1,62.5,8|0,0:1|0:0,0:0:0:0:
272,192,25685,5,8,0:0:0:0:
320,160,25779,1,8,0:0:0:0:
312,96,25874,1,8,0:1:0:0:
256,72,25969,1,8,0:0:0:0:
200,80,26065,2,0,L|192:256,1,125,8|8,0:0|0:1,0:0:0:0:
472,336,26444,6,0,L|480:224,2,62.5,8|8|8,0:0|0:0|0:1,0:0:0:0:
408,336,26729,1,0,0:0:0:0:
360,312,26824,1,8,0:0:0:0:
360,248,26919,1,8,0:0:0:0:
408,224,27014,1,8,0:1:0:0:
360,200,27109,1,0,0:0:0:0:
200,200,27204,5,8,3:1:0:0:
157,157,27298,1,8,3:1:0:0:
159,96,27393,1,8,3:2:0:0:
206,57,27488,1,8,3:1:0:0:
400,56,27584,2,0,L|408:192,1,125,8|8,0:0|0:0,0:0:0:0:
160,304,27963,5,12,0:0:0:0:
128,256,28058,1,8,0:0:0:0:
160,216,28153,1,8,0:0:0:0:
216,200,28248,1,8,0:0:0:0:
160,184,28343,2,0,L|160:120,1,62.5,8|8,0:0|0:0,0:0:0:0:
232,128,28533,2,0,L|232:64,1,62.5,8|0,0:1|0:0,0:0:0:0:
64,40,28723,6,0,P|48:128|88:168,1,125,8|8,0:1|0:0,0:0:0:0:
141,163,29008,2,0,P|168:208|125:291,1,125,8|8,0:1|0:0,0:0:0:0:
72,288,29292,1,8,0:1:0:0:
352,336,29482,5,8,0:0:0:0:
408,312,29577,1,8,0:0:0:0:
424,256,29672,1,8,0:0:0:0:
408,200,29767,1,8,0:0:0:0:
344,168,29862,2,0,L|336:88,1,62.5,8|8,0:0|0:0,0:0:0:0:
400,72,30052,2,0,L|312:80,1,62.5,8|8,0:0|0:0,0:0:0:0:
176,80,30242,5,8,0:1:0:0:
120,72,30337,1,8,0:1:0:0:
280,240,30527,1,8,0:0:0:0:
352,224,30622,2,0,L|360:96,1,125,8|8,0:1|0:0,0:0:0:0:
96,296,31001,6,0,L|104:224,1,62.5,12|8,0:0|0:0,0:0:0:0:
264,224,31191,2,0,L|272:136,1,62.5,8|8,0:1|0:0,0:0:0:0:
200,152,31381,1,8,0:0:0:0:
368,96,31571,1,8,0:1:0:0:
80,288,31761,6,0,L|16:280,1,62.5,2|8,0:0|0:0,0:0:0:0:
152,224,32046,1,8,0:0:0:0:
232,200,32140,2,0,L|128:112,1,125,8|4,0:1|0:3,0:0:0:0:
416,336,32520,6,0,L|424:184,1,125,12|0,0:0|0:0,0:0:0:0:
232,200,32900,2,0,L|224:64,1,125,10|0,0:0|0:0,0:0:0:0:
416,72,33280,5,8,0:1:0:0:
464,104,33375,1,8,0:1:0:0:
464,160,33470,1,8,0:0:0:0:
416,184,33565,1,8,0:0:0:0:
368,216,33659,2,0,L|504:264,1,125,8|8,0:1|0:0,0:0:0:0:
224,328,34039,6,0,L|72:328,1,125,12|0,0:0|0:0,0:0:0:0:
72,272,34324,1,8,0:1:0:0:
96,216,34419,1,8,0:0:0:0:
184,200,34609,1,8,0:0:0:0:
96,176,34799,5,8,0:1:0:0:
96,176,34894,1,8,0:1:0:0:
232,168,35084,1,8,0:0:0:0:
296,168,35178,2,0,L|168:88,1,125,8|8,0:1|0:1,0:0:0:0:
480,296,35558,5,8,0:0:0:0:
480,296,35653,1,8,0:1:0:0:
320,296,35843,1,8,0:0:0:0:
256,288,35938,2,0,L|248:136,1,125,8|8,0:1|0:0,0:0:0:0:
312,152,36223,1,8,0:0:0:0:
472,152,36318,5,8,0:1:0:0:
491,94,36412,1,8,0:1:0:0:
459,43,36507,1,0,0:0:0:0:
304,40,36603,2,0,L|240:96,2,62.5,8|8|8,0:0|0:1|0:0,0:0:0:0:
464,40,36887,2,0,L|357:45,1,62.5,8|8,0:1|0:1,0:0:0:0:
224,288,37077,6,0,P|192:224|240:168,1,125,12|8,0:0|0:1,0:0:0:0:
280,176,37362,1,8,0:0:0:0:
336,136,37457,1,8,0:0:0:0:
280,96,37552,1,8,0:0:0:0:
112,120,37647,2,0,L|104:32,1,62.5,8|8,0:1|0:1,0:0:0:0:
272,336,37837,6,0,L|440:336,1,125,12|8,0:0|0:3,0:0:0:0:
328,304,38122,1,8,0:0:0:0:
280,264,38216,1,4,0:3:0:0:
328,224,38311,1,4,0:3:0:0:
496,120,38406,2,0,L|400:120,1,62.5,8|8,0:1|0:1,0:0:0:0:
232,120,38596,5,2,0:1:0:0:
432,216,38976,1,2,0:1:0:0:
192,272,39356,1,2,0:1:0:0:
440,336,39735,2,0,L|440:200,1,125,0|0,0:0|0:0,0:0:0:0:
192,200,40115,6,0,L|56:152,1,125,12|8,0:0|0:1,0:0:0:0:
200,136,40495,2,0,L|208:56,1,62.5,8|8,0:0|0:0,0:0:0:0:
136,40,40685,2,0,L|232:40,1,62.5,8|0,0:1|0:0,0:0:0:0:
384,168,40875,6,0,L|288:256,2,125,8|8|8,0:0|0:1|0:0,0:0:0:0:
256,280,41444,2,0,L|248:160,1,62.5,8|0,0:1|0:0,0:0:0:0:
440,168,41634,6,0,P|448:88|416:40,1,125,8|8,0:0|0:1,0:0:0:0:
264,56,41919,2,0,L|248:120,2,62.5,0|8|8,0:0|0:0|0:0,0:0:0:0:
424,56,42204,2,0,L|360:56,1,62.5,8|0,0:1|0:0,0:0:0:0:
208,296,42394,5,8,0:0:0:0:
168,248,42489,1,8,0:0:0:0:
168,184,42584,1,8,0:1:0:0:
200,136,42678,1,8,0:0:0:0:
264,120,42773,1,8,0:0:0:0:
384,120,42963,1,8,0:1:0:0:
112,336,43153,6,0,L|104:176,1,125,8|8,0:0|0:1,0:0:0:0:
160,176,43438,1,0,0:0:0:0:
184,112,43533,1,8,0:0:0:0:
152,56,43628,1,8,0:0:0:0:
96,40,43723,1,8,0:1:0:0:
152,56,43818,1,0,0:0:0:0:
328,328,43913,6,0,L|472:312,1,125,8|8,0:0|0:1,0:0:0:0:
384,288,44197,2,0,L|368:192,2,62.5,0|8|8,0:0|0:0|0:0,0:0:0:0:
456,312,44482,1,8,0:1:0:0:
184,232,44672,6,0,L|112:184,2,62.5,12|8|0,0:1|0:0|0:0,0:0:0:0:
360,224,44957,2,0,L|368:144,1,62.5,8|8,0:1|0:0,0:0:0:0:
312,152,45147,1,8,0:0:0:0:
160,96,45242,2,0,L|232:96,1,62.5,8|8,0:1|0:0,0:0:0:0:
384,336,45432,5,8,3:1:0:0:
440,304,45527,1,8,3:1:0:0:
440,248,45622,1,8,3:2:0:0:
384,232,45716,1,8,3:1:0:0:
224,200,45811,2,0,L|216:128,1,62.5,8|8,0:0|0:0,0:0:0:0:
376,120,46001,2,0,L|384:48,1,62.5,8|0,0:1|0:0,0:0:0:0:
208,56,46191,6,0,L|48:56,1,125,14|8,0:0|0:1,0:0:0:0:
216,272,46571,2,0,L|224:184,1,62.5,8|8,0:0|0:0,0:0:0:0:
152,200,46761,2,0,L|144:104,1,62.5,8|0,0:1|0:0,0:0:0:0:
304,120,46951,6,0,L|408:32,2,125,8|8|8,0:0|0:1|0:0,0:0:0:0:
400,192,47520,2,0,L|408:280,1,62.5,8|0,0:1|0:0,0:0:0:0:
248,312,47710,6,0,L|104:248,1,125,8|8,0:0|0:1,0:0:0:0:
200,240,47995,1,0,0:0:0:0:
400,192,48090,2,0,L|408:48,1,125,8|8,0:0|0:1,0:0:0:0:
136,176,48470,6,0,L|120:16,1,125,8|8,0:0|0:1,0:0:0:0:
192,48,48754,1,0,0:0:0:0:
123,51,48849,2,0,L|120:128,1,62.5,8|8,0:0|0:0,0:0:0:0:
304,200,49039,2,0,L|400:200,1,62.5,8|8,0:1|0:1,0:0:0:0:
184,336,49229,5,8,0:0:0:0:
136,312,49323,1,0,0:0:0:0:
120,264,49418,1,8,0:1:0:0:
136,216,49513,1,0,0:0:0:0:
182,201,49609,2,0,L|248:200,1,62.5,8|8,0:0|0:0,0:0:0:0:
184,152,49799,2,0,L|176:64,1,62.5,8|0,0:1|0:0,0:0:0:0:
352,280,49989,6,0,L|424:328,2,62.5,8|0|8,0:0|0:0|0:1,0:0:0:0:
189,325,50273,2,0,L|181:189,1,125,0|8,0:0|0:0,0:0:0:0:
352,176,50558,2,0,L|360:80,1,62.5,8|0,0:1|0:0,0:0:0:0:
168,80,50748,6,0,L|96:40,2,62.5,12|8|0,0:1|0:0|0:0,0:0:0:0:
360,80,51033,2,0,L|432:48,2,62.5,8|8|8,0:1|0:0|0:0,0:0:0:0:
168,80,51318,1,8,0:1:0:0:
272,112,51508,5,10,0:1:0:0:
104,216,51792,1,2,0:1:0:0:
320,320,52077,6,0,P|400:248|296:96,1,312.5,2|0,0:1|0:0,0:0:0:0:
144,104,52647,2,0,P|176:200|264:232,1,187.5,14|0,0:0|0:0,0:0:0:0:
440,224,53027,1,12,0:1:0:0:
272,144,53311,1,12,0:0:0:0:
440,80,53596,1,12,0:1:0:0:
192,320,53786,6,0,L|192:176,1,125,14|8,0:0|0:1,0:0:0:0:
240,184,54071,2,0,L|296:128,2,62.5,0|8|8,0:0|0:0|0:0,0:0:0:0:
80,184,54356,2,0,L|72:264,1,62.5,8|0,0:1|0:0,0:0:0:0:
240,184,54546,6,0,L|336:264,2,125,8|8|8,0:0|0:1|0:0,0:0:0:0:
80,288,55115,2,0,L|160:288,1,62.5,8|8,0:1|0:1,0:0:0:0:
304,288,55305,5,8,0:0:0:0:
351,249,55399,1,0,0:0:0:0:
367,190,55494,1,8,0:1:0:0:
346,132,55589,1,0,0:0:0:0:
294,98,55684,1,8,0:0:0:0:
248,80,55780,1,8,0:0:0:0:
248,80,55875,1,8,0:1:0:0:
312,64,55970,1,0,0:0:0:0:
384,328,56065,6,0,L|384:176,1,125,8|8,0:0|0:1,0:0:0:0:
216,192,56349,2,0,L|152:160,2,62.5,8|0|8,0:0|0:0|0:0,0:0:0:0:
384,192,56634,1,8,0:1:0:0:
384,264,56824,5,12,0:1:0:0:
160,304,56919,2,0,L|152:160,1,125,8|8,0:1|0:0,0:0:0:0:
336,192,57204,2,0,L|208:128,1,125,8|8,0:1|0:0,0:0:0:0:
472,48,57584,5,8,0:1:0:0:
336,48,57773,1,8,0:0:0:0:
328,104,57868,1,8,0:1:0:0:
320,160,57963,1,8,0:0:0:0:
424,160,58153,1,8,0:1:0:0:
160,320,58343,5,14,0:0:0:0:
312,240,58533,2,0,L|320:168,1,62.5,8|0,0:1|0:0,0:0:0:0:
264,160,58723,1,8,0:0:0:0:
400,96,58913,1,8,0:1:0:0:
152,64,59103,6,0,L|48:160,2,125,8|8|8,0:0|0:1|0:0,0:0:0:0:
344,200,59672,2,0,L|288:168,1,62.5,8|0,0:1|0:0,0:0:0:0:
112,296,59862,6,0,L|104:144,1,125,8|8,0:0|0:1,0:0:0:0:
272,168,60242,2,0,L|280:16,1,125,8|8,0:0|0:1,0:0:0:0:
24,288,60622,6,0,L|152:208,2,125,8|8|8,0:0|0:1|0:0,0:0:0:0:
272,336,61191,2,0,L|360:336,1,62.5,8|8,0:1|0:1,0:0:0:0:
160,248,61381,6,0,L|160:88,1,125,14|8,0:0|0:0,0:0:0:0:
224,120,61666,1,8,0:1:0:0:
288,112,61761,1,8,0:0:0:0:
160,320,61951,1,8,0:1:0:0:
432,312,62140,6,0,L|432:232,1,62.5,8|8,0:1|0:1,0:0:0:0:
184,224,62425,2,0,L|120:224,1,62.5,8|8,0:0|0:1,0:0:0:0:
288,304,62710,1,8,0:1:0:0:
40,256,62900,5,8,0:1:0:0:
40,256,62995,2,0,L|176:256,1,125,8|8,0:1|0:1,0:0:0:0:
120,224,63280,1,8,0:1:0:0:
96,168,63375,1,8,0:0:0:0:
120,112,63470,1,8,0:0:0:0:
168,96,63565,1,0,0:0:0:0:
336,96,63659,5,8,0:1:0:0:
400,104,63754,2,0,L|408:248,1,125,8|8,0:1|0:1,0:0:0:0:
238,340,64039,1,8,0:1:0:0:
182,316,64134,1,8,0:0:0:0:
182,260,64229,1,8,0:0:0:0:
238,236,64324,1,8,0:1:0:0:
406,228,64419,5,12,0:0:0:0:
320,216,64609,2,0,L|312:128,1,62.5,8|8,0:1|0:0,0:0:0:0:
368,136,64799,1,8,0:0:0:0:
384,88,64894,1,0,0:0:0:0:
368,56,64989,1,8,0:1:0:0:
312,32,65084,1,8,0:1:0:0:
152,32,65178,5,14,0:0:0:0:
256,280,65368,1,8,0:3:0:0:
256,280,65463,1,8,0:3:0:0:
184,264,65558,2,0,L|192:168,1,62.5,8|8,0:0|0:0,0:0:0:0:
360,184,65748,2,0,L|368:104,1,62.5,8|8,0:1|0:1,0:0:0:0:
184,120,65938,5,2,0:1:0:0:
376,208,66318,1,2,0:1:0:0:
184,312,66697,1,2,0:1:0:0:
384,312,67077,2,0,L|384:272,2,31.25,2|0|0,0:0|0:0|0:0,0:0:0:0:
160,312,67457,5,12,0:0:0:0:
304,312,67647,2,0,L|368:272,2,62.5,8|0|8,0:1|0:0|0:0,0:0:0:0:
248,296,67932,1,8,0:0:0:0:
232,240,68027,1,8,0:1:0:0:
248,184,68122,1,8,0:0:0:0:
304,160,68217,5,8,0:0:0:0:
176,112,68407,1,8,0:1:0:0:
176,112,68502,1,8,0:0:0:0:
312,112,68692,1,8,0:0:0:0:
312,112,68787,1,8,0:1:0:0:
56,328,68976,5,8,0:0:0:0:
32,264,69071,1,0,0:0:0:0:
48,208,69166,1,8,0:1:0:0:
104,184,69261,1,0,0:0:0:0:
152,200,69356,1,8,0:0:0:0:
144,256,69451,1,8,0:0:0:0:
112,304,69546,1,8,0:1:0:0:
56,328,69641,1,8,0:0:0:0:
240,328,69736,6,0,L|400:280,1,125,8|8,0:0|0:1,0:0:0:0:
296,304,70021,2,0,L|288:224,1,62.5,8|8,0:0|0:0,0:0:0:0:
448,184,70211,2,0,L|512:128,2,62.5,8|8|8,0:0|0:1|0:1,0:0:0:0:
240,192,70495,5,8,0:0:0:0:
320,128,70685,2,0,L|328:24,1,62.5,8|0,0:1|0:0,0:0:0:0:
240,56,70875,1,8,0:0:0:0:
192,80,70970,1,8,0:0:0:0:
176,128,71065,1,8,0:1:0:0:
192,176,71160,1,0,0:0:0:0:
240,200,71255,5,8,0:0:0:0:
368,224,71445,1,8,0:1:0:0:
368,224,71540,1,8,0:0:0:0:
232,272,71730,1,8,0:0:0:0:
232,272,71825,1,8,0:1:0:0:
488,328,72014,6,0,L|496:232,1,62.5,8|8,0:1|0:0,0:0:0:0:
424,256,72204,1,8,0:0:0:0:
256,256,72299,2,0,L|176:208,2,62.5,8|8|8,0:1|0:0|0:0,0:0:0:0:
424,256,72584,1,8,0:1:0:0:
320,256,72774,5,2,0:3:0:0:
320,256,72869,1,2,0:3:0:0:
384,184,72964,1,2,0:3:0:0:
384,184,73059,1,2,0:3:0:0:
320,128,73154,1,2,0:3:0:0:
320,128,73249,1,2,0:3:0:0:
384,48,73344,1,2,0:3:0:0:
384,48,73438,1,2,0:3:0:0:
192,256,73533,5,14,0:0:0:0:
296,264,73723,2,0,L|360:216,1,62.5,8|0,0:1|0:0,0:0:0:0:
288,232,73913,2,0,L|280:152,1,62.5,8|8,0:0|0:0,0:0:0:0:
336,160,74103,1,8,0:1:0:0:
368,120,74198,1,0,0:0:0:0:
336,88,74293,5,8,0:0:0:0:
184,80,74483,1,8,0:1:0:0:
184,80,74578,1,8,0:0:0:0:
336,224,74768,1,8,0:0:0:0:
336,224,74863,1,8,0:1:0:0:
80,344,75052,5,8,0:0:0:0:
32,328,75147,1,0,0:0:0:0:
32,264,75242,1,8,0:1:0:0:
80,240,75337,1,0,0:0:0:0:
152,264,75432,2,0,L|160:168,1,62.5,8|8,0:0|0:0,0:0:0:0:
88,184,75622,2,0,L|80:96,1,62.5,8|8,0:1|0:0,0:0:0:0:
240,352,75812,5,8,0:0:0:0:
288,328,75906,1,8,0:0:0:0:
288,272,76001,1,8,0:1:0:0:
240,248,76096,1,8,0:1:0:0:
400,232,76192,1,8,0:0:0:0:
448,200,76286,1,8,0:0:0:0:
448,160,76381,1,8,0:1:0:0:
400,136,76476,1,8,0:1:0:0:
232,128,76571,6,0,L|87:201,1,125,8|0,0:1|0:0,0:0:0:0:
279,345,76856,2,0,L|407:273,1,125,8|0,0:1|0:0,0:0:0:0:
232,242,77141,2,0,P|216:154|264:106,1,125,8|0,0:1|0:0,0:0:0:0:
392,128,77426,1,8,0:1:0:0:
296,152,77616,1,8,0:0:0:0:
296,152,77711,1,8,0:1:0:0:
392,184,77901,1,8,0:1:0:0:
96,320,78090,6,0,L|88:232,1,62.5,8|8,0:0|0:0,0:0:0:0:
256,216,78375,1,8,0:0:0:0:
96,160,78565,1,8,0:0:0:0:
256,104,78755,2,0,L|328:104,2,62.5,8|8|8,0:0|0:0|0:0,0:0:0:0:
96,248,79135,2,0,L|184:248,1,62.5,8|8,0:0|0:0,0:0:0:0:
312,248,79420,1,8,0:0:0:0:
160,248,79609,6,0,P|112:168|176:96,1,187.5,8|0,0:0|0:0,0:0:0:0:
360,104,79989,1,14,0:0:0:0:
