osu file format v14

[General]
AudioFilename: lolirap.mp3
AudioLeadIn: 0
PreviewTime: 39688
Countdown: 0
SampleSet: Soft
StackLeniency: 0.7
Mode: 2
LetterboxInBreaks: 0
WidescreenStoryboard: 1

[Editor]
DistanceSpacing: 1.6
BeatDivisor: 4
GridSize: 8
TimelineZoom: 2.3

[Metadata]
Title:Hijitsuzaikei Joshitachi wa Dou Surya Ii Desu ka?
TitleUnicode:非実在系女子達はどうすりゃいいですか?
Artist:Ayase Rie
ArtistUnicode:綾瀬理恵
Creator:-Luminate
Version:Cup
Source:抜きゲーみたいな島に住んでる貧乳(わたし)はどうすりゃいいですか?
Tags:Is the Island Utopia or Dystopia? Nukitashi Qruppo Eroge op opening Visual Novel vn video game japanese 拔作岛 ぬきたし Nukige Mitai na Shima ni Sunderu Watashi wa Dou Surya Ii Desu ka? 金閉開羅巧夢 Pop JPop J-Pop ナガトサチ sachi nagato 浮丸つぼね 如月千幸 Ukimaru Tsubone Chiyuki Kisaragi
BeatmapID:2660420
BeatmapSetID:1278683

[Difficulty]
HPDrainRate:2
CircleSize:2.5
OverallDifficulty:6
ApproachRate:6
SliderMultiplier:1.8
SliderTickRate:1

[Events]
//Background and Video events
0,0,"bruv.jpg",0,0
//Break Periods
//Storyboard Layer 0 (Background)
//Storyboard Layer 1 (Fail)
//Storyboard Layer 2 (Pass)
//Storyboard Layer 3 (Foreground)
//Storyboard Layer 4 (Overlay)
//Storyboard Sound Samples

[TimingPoints]
622,379.746835443038,4,2,1,40,1,0
3280,-100,4,2,1,55,0,0
3659,-100,4,2,1,65,0,0
8976,-100,4,2,1,55,0,0
9735,-100,4,2,1,70,0,0
16191,-100,4,2,1,55,0,0
27963,-100,4,2,1,60,0,0
37077,-100,4,2,1,70,0,0
39735,-100,4,2,1,50,0,0
40115,-100,4,2,1,80,0,1
65938,-100,4,2,1,65,0,0
72773,-100,4,2,1,55,0,0
73533,-100,4,2,1,65,0,0

[Colours]
Combo1 : 255,128,255
Combo2 : 255,128,192
Combo3 : 255,137,81
Combo4 : 242,196,145

[HitObjects]
160,320,622,6,0,P|120:232|160:168,1,180,0|0,0:0|0:0,0:0:0:0:
272,152,1381,1,0,0:0:0:0:
272,152,1571,1,0,0:0:0:0:
200,152,1761,1,0,0:0:0:0:
376,336,2140,6,0,P|408:224|360:160,1,180,0|0,0:0|0:0,0:0:0:0:
232,176,2900,2,0,P|192:88|256:0,1,180,8|2,0:0|0:0,0:0:0:0:
400,24,3659,5,12,0:0:0:0:
456,88,3849,1,8,0:1:0:0:
400,160,4039,1,8,0:0:0:0:
256,160,4419,2,0,L|136:48,2,135,8|8|8,0:0|0:0|0:1,0:0:0:0:
336,160,5178,5,8,0:0:0:0:
368,304,5368,1,8,0:1:0:0:
376,232,5558,1,8,0:0:0:0:
232,192,5938,2,0,L|352:88,2,135,8|8|8,0:0|0:1|0:1,0:0:0:0:
152,160,6697,5,8,0:0:0:0:
120,208,6887,1,8,0:1:0:0:
152,256,7077,1,8,0:0:0:0:
304,344,7457,2,0,L|288:192,1,135,8|8,0:0|0:0,0:0:0:0:
160,216,8027,1,8,0:1:0:0:
128,352,8216,5,8,0:1:0:0:
256,304,8501,1,8,0:1:0:0:
392,248,8786,1,8,0:1:0:0:
336,216,8976,2,0,P|296:120|416:16,1,270,0|0,0:0|0:0,0:0:0:0:
328,328,9735,5,4,0:0:0:0:
264,288,9925,1,8,0:1:0:0:
248,232,10115,1,8,0:0:0:0:
376,136,10495,2,0,L|488:16,2,135,8|8|8,0:0|0:0|0:1,0:0:0:0:
304,152,11254,5,8,0:0:0:0:
376,176,11444,1,8,0:1:0:0:
376,240,11634,1,8,0:0:0:0:
248,344,12014,2,0,L|112:240,2,135,8|8|8,0:0|0:1|0:1,0:0:0:0:
304,336,12773,6,0,L|296:173,1,135,8|8,0:1|0:1,0:0:0:0:
176,224,13343,2,0,L|168:56,1,135,8|8,0:1|0:1,0:0:0:0:
328,160,13913,1,8,0:1:0:0:
256,128,14103,1,8,0:1:0:0:
169,224,14292,6,8,L|169:56,1,135,8|8,0:1|0:0,0:0:0:0:
272,104,14767,2,8,L|344:24,2,90,8|8|8,0:0|0:0|0:0,0:0:0:0:
136,320,15432,2,8,L|136:192,1,90,8|8,0:0|0:0,0:0:0:0:
192,192,15811,5,12,0:0:0:0:
384,120,16571,1,2,0:0:0:0:
168,136,17330,2,0,L|48:40,2,135,10|10|8,0:0|0:0|0:0,0:0:0:0:
248,136,18090,1,8,0:1:0:0:
128,216,18470,1,8,0:1:0:0:
304,344,18849,6,0,P|352:256|288:192,1,180,12|8,0:0|0:0,0:0:0:0:
224,304,19419,1,8,0:1:0:0:
304,344,19609,2,0,P|344:240|288:192,1,180,8|8,0:0|0:0,0:0:0:0:
224,200,20178,1,8,0:1:0:0:
144,192,20368,5,8,0:0:0:0:
312,104,20748,1,8,0:0:0:0:
120,48,21128,2,0,P|80:96|72:224,1,180,8|8,3:2|0:0,0:0:0:0:
240,216,21887,5,12,0:0:0:0:
464,272,22647,1,2,0:0:0:0:
224,352,23406,2,0,L|104:256,2,135,2|2|8,0:0|0:0|0:0,0:0:0:0:
304,328,24166,1,8,0:1:0:0:
480,232,24546,1,8,0:1:0:0:
288,200,24925,6,0,P|360:168|344:48,1,180,12|8,0:0|0:0,0:0:0:0:
240,40,25685,2,0,P|160:104|168:192,1,180,8|8,0:0|0:0,0:0:0:0:
344,200,26444,6,0,L|480:344,2,180,8|8|8,0:0|0:0|3:1,0:0:0:0:
216,200,27584,1,8,0:0:0:0:
56,296,27963,6,0,L|48:112,1,180,12|8,0:0|0:0,0:0:0:0:
120,96,28533,1,8,0:1:0:0:
200,128,28723,2,0,L|80:16,1,135,8|8,0:1|0:1,0:0:0:0:
296,336,29482,6,0,L|304:136,1,180,8|8,0:0|0:0,0:0:0:0:
224,160,30052,1,8,0:0:0:0:
152,160,30242,2,0,P|128:80|168:16,1,135,8|8,0:1|0:0,0:0:0:0:
320,312,31001,6,0,L|400:248,2,90,12|8|8,0:0|0:1|0:0,0:0:0:0:
176,304,31761,2,0,L|64:216,2,135,2|8|4,0:0|0:0|0:3,0:0:0:0:
248,304,32520,5,12,0:0:0:0:
376,224,32900,1,10,0:0:0:0:
248,200,33280,2,0,L|240:8,1,180,8|8,0:1|0:1,0:0:0:0:
416,24,34039,6,0,P|488:88|392:224,1,270,12|8,0:0|0:0,0:0:0:0:
344,224,34799,1,8,0:1:0:0:
232,208,35084,2,0,L|352:96,1,135,8|8,0:0|0:1,0:0:0:0:
328,80,35558,5,8,0:0:0:0:
152,104,36128,1,8,0:0:0:0:
88,248,36318,2,0,L|32:96,2,135,8|8|8,0:1|0:0|0:1,0:0:0:0:
176,280,37077,5,12,0:0:0:0:
288,240,37362,1,8,0:0:0:0:
400,200,37647,1,8,0:1:0:0:
400,160,37837,1,12,0:0:0:0:
288,136,38122,1,8,0:0:0:0:
176,112,38406,1,8,0:1:0:0:
176,80,38596,5,2,0:1:0:0:
368,40,38976,1,2,0:1:0:0:
368,40,39356,1,2,0:1:0:0:
272,200,39735,2,0,L|272:80,1,90,0|0,0:0|0:0,0:0:0:0:
360,288,40115,6,0,P|448:184|440:112,1,180,12|8,0:0|0:0,0:0:0:0:
368,136,40685,1,8,0:1:0:0:
288,192,40875,2,0,L|144:64,1,180,8|8,0:0|0:0,0:0:0:0:
320,312,41634,6,0,L|440:208,2,135,8|0|8,0:0|0:0|0:1,0:0:0:0:
240,312,42394,2,0,P|152:272|128:168,1,180,8|8,0:0|0:0,0:0:0:0:
272,184,43153,6,0,P|312:96|256:32,1,180,8|8,0:0|0:0,0:0:0:0:
208,40,43723,1,8,0:1:0:0:
136,40,43913,1,8,0:0:0:0:
128,296,44197,2,0,L|128:160,1,135,0|8,0:0|0:1,0:0:0:0:
200,152,44672,6,0,L|328:40,2,135,12|8|8,0:1|0:1|0:1,0:0:0:0:
128,152,45432,1,8,3:1:0:0:
272,240,45811,1,8,0:0:0:0:
424,344,46191,6,0,L|416:144,1,180,14|8,0:0|0:0,0:0:0:0:
344,240,46761,1,8,0:1:0:0:
272,240,46951,2,0,P|248:144|280:72,1,180,8|8,0:0|0:0,0:0:0:0:
464,80,47710,6,0,L|312:200,2,180,8|8|8,0:0|0:0|0:0,0:0:0:0:
304,104,48849,2,0,L|216:176,1,90,8|8,0:0|0:1,0:0:0:0:
160,320,49229,6,0,P|120:232|176:160,1,180,8|8,0:0|0:0,0:0:0:0:
234,160,49799,1,8,0:1:0:0:
312,160,49989,2,0,L|408:56,2,135,8|0|8,0:0|0:0|0:1,0:0:0:0:
248,320,50748,5,12,0:1:0:0:
136,232,51033,1,8,0:1:0:0:
248,176,51318,1,8,0:1:0:0:
312,160,51508,2,0,L|192:48,1,135,10|2,0:1|0:1,0:0:0:0:
368,56,52077,6,0,P|448:136|352:248,1,270,2|14,0:1|0:0,0:0:0:0:
264,256,53027,1,12,0:1:0:0:
152,256,53311,2,0,L|144:104,1,135,12|12,0:0|0:1,0:0:0:0:
224,112,53786,6,0,L|328:24,2,135,14|0|8,0:0|0:0|0:1,0:0:0:0:
144,112,54546,2,0,P|104:184|168:280,1,180,8|8,0:0|0:0,0:0:0:0:
224,272,55115,1,8,0:1:0:0:
304,264,55305,5,8,0:0:0:0:
208,64,55875,1,8,0:1:0:0:
304,64,56065,2,0,L|440:168,2,135,8|8|8,0:0|0:0|0:1,0:0:0:0:
208,64,56824,6,0,L|96:168,1,135,12|8,0:1|0:0,0:0:0:0:
216,224,57394,1,8,0:0:0:0:
216,224,57584,1,8,0:1:0:0:
64,296,57963,1,8,0:0:0:0:
216,296,58343,6,0,L|352:176,1,180,12|8,0:0|0:0,0:0:0:0:
352,64,58913,1,8,0:1:0:0:
270,64,59103,2,0,L|262:264,1,180,8|8,0:0|0:0,0:0:0:0:
416,272,59862,5,8,0:0:0:0:
304,208,60242,1,8,0:0:0:0:
472,192,60622,2,0,P|480:80|456:16,1,180,8|8,0:0|0:0,0:0:0:0:
304,16,61381,6,0,L|168:128,1,135,14|8,0:0|0:1,0:0:0:0:
64,232,61951,1,8,0:1:0:0:
64,232,62140,2,0,L|56:88,1,135,8|8,0:1|0:0,0:0:0:0:
184,80,62710,1,8,0:1:0:0:
248,80,62900,6,0,L|360:184,2,135,8|8|8,0:1|0:1|0:0,0:0:0:0:
184,80,63659,1,8,0:1:0:0:
288,128,63944,2,0,P|304:184|272:264,1,135,8|8,0:1|0:0,0:0:0:0:
208,272,64419,6,0,L|72:168,2,135,12|8|8,0:0|0:0|0:1,0:0:0:0:
304,272,65178,2,0,L|440:160,2,135,14|8|8,0:0|0:3|0:1,0:0:0:0:
208,272,65938,5,2,0:1:0:0:
208,272,66318,1,2,0:1:0:0:
208,272,66697,1,2,0:1:0:0:
320,272,67077,1,2,0:0:0:0:
144,24,67457,5,12,0:0:0:0:
72,64,67647,1,8,0:1:0:0:
56,136,67837,1,8,0:0:0:0:
192,288,68217,2,0,L|312:184,2,135,8|8|8,0:0|0:0|0:1,0:0:0:0:
256,344,68976,5,8,0:0:0:0:
304,288,69166,1,8,0:1:0:0:
256,224,69356,1,8,0:0:0:0:
112,136,69736,2,0,L|232:24,2,135,8|8|8,0:0|0:0|0:1,0:0:0:0:
56,192,70495,5,8,0:0:0:0:
56,256,70685,1,8,0:1:0:0:
112,288,70875,1,8,0:0:0:0:
248,304,71255,2,0,L|112:192,2,135,8|8|8,0:0|0:0|0:1,0:0:0:0:
328,312,72014,5,8,0:1:0:0:
448,240,72299,1,8,0:1:0:0:
320,200,72584,1,8,0:1:0:0:
256,200,72773,2,0,P|160:152|136:-8,1,270,2|2,0:3|0:3,0:0:0:0:
224,312,73533,5,12,0:0:0:0:
304,288,73723,1,8,0:1:0:0:
304,224,73913,1,8,0:0:0:0:
176,136,74293,2,0,L|64:32,2,135,8|8|8,0:0|0:0|0:1,0:0:0:0:
256,144,75052,5,8,0:0:0:0:
320,176,75242,1,8,0:1:0:0:
320,240,75432,1,8,0:0:0:0:
192,352,75812,2,0,L|328:256,2,135,8|8|8,0:0|0:1|0:1,0:0:0:0:
128,344,76571,6,0,L|120:189,1,135,8|8,0:1|0:1,0:0:0:0:
256,232,77141,2,0,L|264:64,1,135,8|8,0:1|0:1,0:0:0:0:
128,88,77711,1,8,0:1:0:0:
192,72,77901,1,8,0:1:0:0:
256,304,78090,6,8,L|256:136,1,135
184,160,78565,2,8,L|112:80,2,90
312,200,79229,2,8,L|312:96,1,90
376,88,79609,5,8,0:0:0:0:
216,88,79989,1,14,0:0:0:0:
