osu file format v14

[General]
AudioFilename: audio.mp3
AudioLeadIn: 0
PreviewTime: 16726
Countdown: 0
SampleSet: Soft
StackLeniency: 0.2
Mode: 0
LetterboxInBreaks: 0
WidescreenStoryboard: 1

[Editor]
DistanceSpacing: 2.4
BeatDivisor: 4
GridSize: 16
TimelineZoom: 2.74

[Metadata]
Title:Yuima-ru*World vs. Harumachi Clover
TitleUnicode:ゆいまーる☆わーるど vs. 春待ちクローバー
Artist:Ayase Rie & Hanasaka Yui(CV: M.A.O)
ArtistUnicode:綾瀬 理恵 & 花坂結衣(CV:M・A・O)
Creator:realy0_
Version:Harder
Source:
Tags:haitai はいたい七葉 kantoku カントク typhoon graphics ワンルーム one room nanafa yuimaru world いちみち まお (Mao Ichimichi) ChuuritsuTv Joe Castle [amb1d3x] Flowziee Toruchii FruityEnLoops Minorsonek Petite Loli sinn bite you death byd amb1 Elcheer Arche-kun
BeatmapID:1587068
BeatmapSetID:724901

[Difficulty]
HPDrainRate:5
CircleSize:5.5
OverallDifficulty:7.7
ApproachRate:8.6
SliderMultiplier:1.5
SliderTickRate:1

[Events]
//Background and Video events
0,0,"Haitai clover.jpg",0,0
Video,0,"Haitai clover.avi"
//Break Periods
//Storyboard Layer 0 (Background)
//Storyboard Layer 1 (Fail)
//Storyboard Layer 2 (Pass)
//Storyboard Layer 3 (Foreground)
//Storyboard Sound Samples

[TimingPoints]
727,333.333333333333,4,2,1,30,1,0
5726,-66.6666666666667,4,2,1,45,0,0
6060,-83.3333333333333,4,2,1,40,0,0
9893,-100,4,2,1,40,0,0
10061,-90.9090909090909,4,2,1,40,0,0
11060,-66.6666666666667,4,2,1,45,0,0
11393,-111.111111111111,4,2,1,35,0,0
16060,-111.111111111111,4,2,1,25,0,0
16393,-111.111111111111,4,2,1,30,0,0
16560,-111.111111111111,4,2,1,35,0,0
16643,-111.111111111111,4,2,1,40,0,0
16726,-83.3333333333333,4,1,1,50,0,0
19393,-83.3333333333333,4,1,1,55,0,0
20560,-133.333333333333,4,2,1,55,0,0
21726,-66.6666666666667,4,2,1,55,0,0
21893,-66.6666666666667,4,2,1,15,0,0
22062,422.535211267606,4,2,1,65,1,1
22062,-66.6666666666667,4,2,1,65,0,1
22167,-66.6666666666667,4,2,1,45,0,1
33892,-100,4,2,1,50,0,0
35583,-66.6666666666667,4,2,1,55,0,1
42343,-80,4,2,1,40,0,0
43188,-66.6666666666667,4,2,1,55,0,0
43822,-80,4,2,1,55,0,0
44033,-80,4,2,1,40,0,0
44245,-80,4,2,1,40,0,0
44878,-66.6666666666667,4,2,1,55,0,0
45512,-80,4,2,1,55,0,0
45829,-80,4,2,1,40,0,0
51005,-100,4,2,1,10,0,0

[Colours]
Combo1 : 255,128,255
Combo2 : 255,221,26
Combo3 : 83,174,0
Combo4 : 0,128,255

[HitObjects]
128,122,727,5,6,0:3:0:0:
256,164,893,1,6,0:3:0:0:
232,242,1060,2,0,P|200:264|136:274,1,75,0|0,0:0|0:0,0:0:0:0:
173,193,1393,2,0,P|245:246|289:250,1,112.5,0|0,0:0|0:0,0:0:0:0:
289,284,1726,1,0,0:0:0:0:
340,219,1893,6,0,L|357:138,1,75,14|0,0:3|0:0,0:0:0:0:
280,29,2226,2,0,L|295:102,1,75,14|0,0:3|0:0,0:0:0:0:
348,179,2560,1,0,0:0:0:0:
275,236,2726,2,0,P|257:165|295:102,1,150,0|8,0:0|0:3,0:0:0:0:
476,137,3393,5,6,0:3:0:0:
348,179,3559,1,6,0:3:0:0:
407,246,3726,2,0,P|442:256|473:277,1,75,0|0,0:0|0:0,0:0:0:0:
324,248,4060,2,0,P|330:211|348:178,1,75
407,246,4393,1,0,0:0:0:0:
332,340,4560,6,0,L|413:323,1,75,14|0,0:3|0:0,0:0:0:0:
263,301,4893,2,0,L|251:244,1,37.5,14|0,0:3|0:0,0:0:0:0:
182,250,5060,2,0,L|255:265,1,75,14|0,0:3|0:0,0:0:0:0:
299,176,5393,2,0,P|292:212|274:245,1,75,12|0,0:3|0:0,0:0:0:0:
328,203,5726,6,0,P|312:134|259:181,1,168.750006437302,10|0,0:1|0:0,0:0:0:0:
288,219,6060,5,6,0:3:0:0:
128,240,6226,1,6,0:3:0:0:
163,342,6393,2,0,P|131:320|67:310,1,89.9999972534181,10|0,0:0|0:0,0:0:0:0:
288,219,6726,2,0,P|256:241|192:251,1,89.9999972534181,4|0,0:3|0:0,0:0:0:0:
128,240,7060,1,10,0:0:0:0:
259,268,7226,6,0,L|229:183,1,89.9999972534181,10|4,0:3|0:3,0:0:0:0:
39,256,7560,2,0,L|133:238,1,89.9999972534181,10|10,0:3|0:0,0:0:0:0:
205,113,7893,1,0,0:0:0:0:
73,178,8060,2,0,B|163:131|176:219|265:157,1,179.999994506836,4|10,0:3|0:2,0:0:0:0:
57,52,8726,5,6,0:3:0:0:
206,113,8892,1,6,0:3:0:0:
190,203,9060,2,0,P|154:186|114:135,1,89.9999972534181,10|0,0:0|0:0,0:0:0:0:
99,254,9393,2,0,P|115:218|166:178,1,89.9999972534181,4|0,0:3|0:0,0:0:0:0:
51,178,9726,1,10,0:0:0:0:
258,247,9893,6,0,L|164:265,1,75,10|4,0:3|0:3,0:0:0:0:
269,311,10226,2,0,L|257:254,1,41.2500012588501,10|0,0:3|0:0,0:0:0:0:
349,182,10393,2,0,L|333:263,1,82.5000025177003,10|0,0:0|0:0,0:0:0:0:
207,155,10726,2,0,P|246:176|290:181,1,82.5000025177003,12|0,0:3|0:0,0:0:0:0:
383,202,11060,6,0,P|328:147|319:205,1,168.750006437302,10|0,0:1|0:0,0:0:0:0:
350,182,11393,6,0,L|344:107,1,67.4999979400635,14|0,0:3|0:0,0:0:0:0:
319,23,11726,2,0,L|313:90,1,67.4999979400635,0|0,0:0|0:0,0:0:0:0:
194,119,12060,1,6,0:3:0:0:
232,110,12226,1,0,0:0:0:0:
350,182,12393,1,0,0:0:0:0:
312,173,12559,1,0,0:0:0:0:
221,254,12726,6,0,L|226:186,1,67.4999979400635,14|0,0:3|0:0,0:0:0:0:
360,280,13060,2,0,L|293:268,1,67.4999979400635,0|0,0:0|0:0,0:0:0:0:
159,198,13393,2,0,L|225:186,1,67.4999979400635,6|0,0:3|0:0,0:0:0:0:
291,231,13726,1,0,0:0:0:0:
373,159,13893,1,0,0:0:0:0:
228,254,14060,6,0,P|264:267|321:259,1,67.4999979400635,14|0,0:3|0:0,0:0:0:0:
379,248,14394,2,0,P|342:236|285:244,1,67.4999979400635,0|0,0:0|0:0,0:0:0:0:
227,280,14727,2,0,P|263:268|320:276,1,67.4999979400635,6|0,0:3|0:0,0:0:0:0:
378,225,15060,2,0,P|341:237|284:229,1,67.4999979400635,0|0,0:0|0:0,0:0:0:0:
322,115,15393,5,14,0:3:0:0:
331,153,15559,1,0,0:0:0:0:
241,200,15726,1,0,0:0:0:0:
250,162,15892,1,0,0:0:0:0:
158,116,16060,1,14,0:3:0:0:
167,154,16226,1,8,0:3:0:0:
149,190,16393,2,0,L|106:197,3,33.7499989700318,14|8|8|8,0:3|0:3|0:3|0:3,0:0:0:0:
118,222,16726,6,0,P|155:257|214:261,1,89.9999972534181,2|0,0:0|3:0,0:0:0:0:
344,283,17060,2,0,P|307:248|248:244,1,89.9999972534181,8|0,0:0|3:0,0:0:0:0:
247,328,17393,2,0,L|270:241,1,89.9999972534181,2|0,0:0|3:0,0:0:0:0:
375,171,17726,2,0,L|351:84,1,89.9999972534181,8|0,0:0|3:0,0:0:0:0:
449,128,18060,6,0,P|412:163|353:167,1,89.9999972534181,2|0,0:0|3:0,0:0:0:0:
198,204,18393,2,0,P|235:169|294:165,1,89.9999972534181,8|0,0:0|3:0,0:0:0:0:
357,264,18726,2,0,L|270:240,1,89.9999972534181,2|0,0:0|3:0,0:0:0:0:
101,134,19060,2,0,L|187:110,1,89.9999972534181,8|0,0:0|3:0,0:0:0:0:
376,93,19393,5,10,0:0:0:0:
338,84,19559,1,2,3:0:0:0:
234,170,19726,1,10,0:0:0:0:
272,161,19892,1,2,3:0:0:0:
362,266,20060,1,10,0:0:0:0:
324,257,20226,1,2,3:0:0:0:
286,266,20393,1,2,3:0:0:0:
269,233,20560,1,2,1:0:0:0:
178,299,20893,5,2,1:0:0:0:
170,335,21060,1,2,1:0:0:0:
91,179,21226,5,0,1:0:0:0:
99,215,21393,1,2,1:0:0:0:
153,267,21726,6,0,P|118:281|88:283,1,56.2500021457673,8|0,1:0|0:0,0:0:0:0:
18,209,21893,2,0,P|53:223|83:225,1,56.2500021457673
106,171,22062,6,0,L|100:283,1,112.500004291535,6|0,0:3|0:0,0:0:0:0:
183,170,22484,1,10,0:2:0:0:
29,237,22695,1,0,0:0:0:0:
116,92,22907,2,0,P|164:118|183:170,1,112.500004291535,6|0,0:3|0:0,0:0:0:0:
106,171,23329,1,10,0:2:0:0:
267,219,23540,1,0,0:0:0:0:
155,234,23752,6,0,L|279:217,1,112.500004291535,6|0,0:3|0:0,0:0:0:0:
366,298,24174,2,0,L|241:281,1,112.500004291535,10|0,0:2|0:0,0:0:0:0:
377,221,24597,2,0,P|426:248|445:300,1,112.500004291535,6|0,0:3|0:0,0:0:0:0:
196,181,25019,2,0,P|238:216|293:215,1,112.500004291535,10|0,0:2|0:0,0:0:0:0:
366,298,25442,6,0,L|372:173,1,112.500004291535,6|0,0:3|0:0,0:0:0:0:
379,28,25864,1,10,0:2:0:0:
261,149,26076,1,0,0:0:0:0:
441,139,26287,2,0,P|398:103|343:104,1,112.500004291535,6|0,0:3|0:0,0:0:0:0:
366,298,26709,1,10,0:2:0:0:
371,185,26921,1,0,0:0:0:0:
208,261,27132,6,0,P|256:233|310:243,1,112.500004291535,6|0,0:3|0:0,0:0:0:0:
468,149,27554,2,0,P|425:185|370:184,1,112.500004291535,10|0,0:2|0:0,0:0:0:0:
179,155,27977,2,0,L|303:172,1,112.500004291535,6|0,0:3|0:0,0:0:0:0:
401,111,28400,2,0,L|289:95,1,112.500004291535,10|0,0:2|0:0,0:0:0:0:
297,283,28822,6,0,L|291:170,1,112.500004291535,6|0,0:3|0:0,0:0:0:0:
218,241,29245,1,10,0:2:0:0:
375,183,29456,1,0,0:0:0:0:
176,309,29667,2,0,P|140:259|159:187,1,112.500004291535,6|0,0:3|0:0,0:0:0:0:
186,142,30090,2,0,P|222:192|203:264,1,112.500004291535,10|0,0:2|0:0,0:0:0:0:
36,192,30512,6,0,P|88:212|144:210,1,112.500004291535,6|0,0:3|0:0,0:0:0:0:
55,297,30935,1,10,0:2:0:0:
105,130,31146,1,0,0:0:0:0:
217,240,31357,2,0,L|232:128,1,112.500004291535,6|0,0:3|0:0,0:0:0:0:
94,49,31780,2,0,L|109:160,1,112.500004291535,10|0,0:2|0:0,0:0:0:0:
268,120,32202,5,6,0:3:0:0:
232,128,32414,1,0,0:0:0:0:
94,49,32625,5,10,0:2:0:0:
130,57,32837,1,0,0:0:0:0:
324,171,33047,5,6,0:3:0:0:
288,179,33259,1,0,0:0:0:0:
342,19,33470,5,10,0:2:0:0:
334,55,33682,1,0,0:0:0:0:
459,135,33892,5,14,0:2:0:0:
331,73,34104,1,6,0:3:0:0:
334,215,34315,5,14,0:0:0:0:
462,153,34526,1,6,0:3:0:0:
367,307,34738,6,0,L|355:271,1,37.5,12|8,0:2|0:3,0:0:0:0:
291,330,34949,2,0,L|280:366,1,37.5,8|8,0:3|0:3,0:0:0:0:
226,285,35160,2,0,L|191:274,1,37.5,14|10,0:2|0:3,0:0:0:0:
148,362,35371,2,0,L|183:350,1,37.5,10|10,0:3|0:3,0:0:0:0:
190,273,35583,6,0,P|133:272|88:222,1,112.500004291535,14|0,0:3|0:0,0:0:0:0:
53,143,36005,1,10,0:2:0:0:
160,210,36216,1,0,0:0:0:0:
165,97,36428,2,0,L|159:209,1,112.500004291535,6|0,0:3|0:0,0:0:0:0:
232,178,36850,1,10,0:2:0:0:
93,80,37062,1,0,0:0:0:0:
50,184,37273,6,0,L|174:167,1,112.500004291535,6|0,0:3|0:0,0:0:0:0:
226,76,37695,2,0,L|350:93,1,112.500004291535,10|0,0:2|0:0,0:0:0:0:
229,246,38118,2,0,P|180:219|161:167,1,112.500004291535,6|0,0:3|0:0,0:0:0:0:
307,248,38540,2,0,P|287:299|239:325,1,112.500004291535,10|0,0:2|0:0,0:0:0:0:
234,175,38963,6,0,L|346:160,1,112.500004291535,6|0,0:3|0:0,0:0:0:0:
307,248,39385,1,10,0:2:0:0:
247,101,39597,1,0,0:0:0:0:
240,280,39808,6,0,P|281:316|336:316,1,112.500004291535,6|0,0:3|0:0,0:0:0:0:
486,238,40231,1,10,0:2:0:0:
307,248,40442,1,0,0:0:0:0:
344,83,40653,6,0,P|395:103|421:151,1,112.500004291535,6|0,0:3|0:0,0:0:0:0:
268,228,41076,2,0,P|319:207|345:159,1,112.500004291535,10|0,0:2|0:0,0:0:0:0:
249,33,41498,2,0,L|264:144,1,112.500004291535,6|0,0:3|0:0,0:0:0:0:
329,270,41921,2,0,L|344:158,1,112.500004291535,10|0,0:2|0:0,0:0:0:0:
177,205,42343,6,0,P|229:225|285:223,1,93.75,6|0,0:3|0:0,0:0:0:0:
214,174,42766,2,0,P|178:204|135:222,1,93.75,6|0,0:3|0:0,0:0:0:0:
60,144,43188,5,10,0:0:0:0:
98,135,43400,1,10,0:0:0:0:
136,144,43611,1,10,0:0:0:0:
72,236,43822,6,0,L|57:124,1,93.75,6|0,0:3|0:0,0:0:0:0:
213,294,44245,2,0,P|185:285|157:289,1,46.875,6|0,0:3|0:0,0:0:0:0:
72,236,44456,2,0,P|124:256|180:254,1,93.75,6|0,0:3|0:0,0:0:0:0:
320,231,44878,5,10,0:0:0:0:
282,222,45090,1,10,0:0:0:0:
244,231,45301,1,10,0:0:0:0:
308,324,45512,6,0,L|323:212,1,93.75,6|0,0:3|0:0,0:0:0:0:
241,114,45935,2,0,P|232:142|230:172,1,46.875,6|0,0:3|0:0,0:0:0:0:
164,72,46146,2,0,P|216:92|272:90,1,93.75,6|0,0:3|0:0,0:0:0:0:
401,107,46569,2,0,P|349:87|293:89,1,93.75,6|0,0:3|0:0,0:0:0:0:
331,169,46991,1,6,0:3:0:0:
145,194,47202,6,0,L|330:169,1,187.5,14|2,3:3|0:0,0:0:0:0:
252,274,47836,1,2,0:0:0:0:
438,299,48047,2,0,L|252:274,1,187.5,2|2,0:0|0:0,0:0:0:0:
315,122,48681,2,0,P|319:146|318:169,1,46.875,12|8,0:2|0:3,0:0:0:0:
197,262,48892,2,0,P|193:238|194:215,1,46.875,8|8,0:3|0:3,0:0:0:0:
256,192,49104,5,14,0:2:0:0:
256,192,49209,12,0,51005,0:0:0:0:
