osu file format v14

[General]
AudioFilename: audio.mp3
AudioLeadIn: 0
PreviewTime: 16726
Countdown: 0
SampleSet: Soft
StackLeniency: 0.5
Mode: 0
LetterboxInBreaks: 0
WidescreenStoryboard: 0

[Editor]
DistanceSpacing: 1
BeatDivisor: 4
GridSize: 16
TimelineZoom: 3.099999

[Metadata]
Title:Yuima-ru*World vs. Harumachi Clover
TitleUnicode:ゆいまーる☆わーるど vs. 春待ちクローバー
Artist:Ayase Rie & Hanasaka Yui(CV: M.A.O)
ArtistUnicode:綾瀬 理恵 & 花坂結衣(CV:M・A・O)
Creator:realy0_
Version:Hard
Source:
Tags:haitai はいたい七葉 kantoku カントク typhoon graphics ワンルーム one room nanafa yuimaru world いちみち まお (Mao Ichimichi) ChuuritsuTv Joe Castle [amb1d3x] Flowziee Toruchii FruityEnLoops Minorsonek Petite Loli sinn bite you death byd amb1 Elcheer Arche-kun
BeatmapID:1533385
BeatmapSetID:724901

[Difficulty]
HPDrainRate:4.8
CircleSize:3.5
OverallDifficulty:5.8
ApproachRate:7.4
SliderMultiplier:1.4
SliderTickRate:1

[Events]
//Background and Video events
0,0,"Haitai clover.jpg",0,0
//Break Periods
//Storyboard Layer 0 (Background)
//Storyboard Layer 1 (Fail)
//Storyboard Layer 2 (Pass)
//Storyboard Layer 3 (Foreground)
//Storyboard Sound Samples

[TimingPoints]
727,333.333333333333,4,2,1,30,1,0
727,-83.3333333333333,4,2,1,30,0,0
5726,-66.6666666666667,4,2,1,45,0,0
6060,-80,4,2,1,40,0,0
11060,-66.6666666666667,4,2,1,45,0,0
11393,-125,4,2,1,35,0,0
16060,-125,4,2,1,25,0,0
16393,-125,4,2,1,30,0,0
16560,-125,4,2,1,35,0,0
16643,-125,4,2,1,40,0,0
16726,-90.9090909090909,4,1,1,50,0,0
19393,-83.3333333333333,4,1,1,55,0,0
20560,-100,4,2,1,55,0,0
20893,-100,4,2,1,55,0,0
21393,-100,4,2,1,55,0,0
22062,422.535211267606,4,2,1,65,1,1
22062,-90.9090909090909,4,2,1,65,0,1
22167,-90.9090909090909,4,2,1,45,0,1
33892,-90.9090909090909,4,2,1,50,0,0
35583,-90.9090909090909,4,2,1,55,0,1
42343,-90.9090909090909,4,2,1,40,0,0
43188,-90.9090909090909,4,2,1,55,0,0
43822,-90.9090909090909,4,2,1,55,0,0
44033,-90.9090909090909,4,2,1,40,0,0
44878,-90.9090909090909,4,2,1,55,0,0
45512,-90.9090909090909,4,2,1,40,0,0
51005,-90.9090909090909,4,2,1,10,0,0

[Colours]
Combo1 : 255,128,255
Combo2 : 255,221,26
Combo3 : 83,174,0
Combo4 : 0,128,255

[HitObjects]
447,67,727,6,0,L|437:153,1,83.9999974365235,6|6,0:3|0:3,0:0:0:0:
359,214,1060,2,0,L|349:130,1,83.9999974365235
337,47,1393,2,0,B|271:65|264:107|264:129|266:143|270:163|272:180|274:195,1,167.999994873047,0|0,0:0|0:0,0:0:0:0:
284,272,1893,5,14,0:3:0:0:
199,310,2060,1,0,0:0:0:0:
284,272,2226,1,14,0:3:0:0:
369,306,2393,2,0,P|422:282|444:248,1,83.9999974365235
359,215,2726,2,0,P|343:167|438:123,1,167.999994873047,0|8,0:0|0:3,0:0:0:0:
284,272,3393,6,0,B|232:266|185:304|184:304,1,83.9999974365235,6|6,0:3|0:3,0:0:0:0:
143,350,3726,1,0,0:0:0:0:
62,328,3893,2,0,P|39:282|42:234,2,83.9999974365235
143,350,4393,1,0,0:0:0:0:
122,268,4560,6,0,L|137:166,1,83.9999974365235,14|0,0:3|0:0,0:0:0:0:
206,114,4893,2,0,L|218:197,2,83.9999974365235,14|14|0,0:3|0:3|0:0,0:0:0:0:
190,31,5393,1,12,0:3:0:0:
23,91,5726,6,0,P|82:88|140:86,1,105.000004005432,10|0,0:1|0:0,0:0:0:0:
210,118,6060,5,6,0:3:0:0:
210,118,6226,1,6,0:3:0:0:
290,155,6393,2,0,P|340:164|392:144,1,87.5,10|0,0:0|0:0,0:0:0:0:
417,79,6726,2,0,P|366:69|314:89,2,87.5,6|0|10,3:0|0:0|0:0,0:0:0:0:
485,133,7226,6,0,L|470:227,1,87.5,10|0,0:3|0:0,0:0:0:0:
386,241,7560,2,0,L|374:155,1,87.5,10|10,0:3|0:0,0:0:0:0:
299,108,7893,1,0,0:0:0:0:
217,138,8060,2,0,L|120:131,2,87.5,4|0|10,0:3|0:0|0:2,0:0:0:0:
118,287,8726,6,0,L|205:280,1,87.5,6|6,0:3|0:3,0:0:0:0:
293,275,9060,2,0,P|343:218|387:212,1,87.5,10|0,0:0|0:0,0:0:0:0:
420,159,9393,1,4,0:3:0:0:
462,82,9560,1,0,0:0:0:0:
420,159,9726,1,10,0:0:0:0:
481,220,9893,6,0,P|490:262|481:304,1,87.5,10|4,0:3|0:3,0:0:0:0:
413,361,10226,1,10,0:3:0:0:
351,299,10393,2,0,P|341:256|351:214,1,87.5,10|0,0:0|0:0,0:0:0:0:
420,159,10726,1,12,0:3:0:0:
239,94,11060,6,0,L|337:130,1,105.000004005432,10|0,0:1|0:0,0:0:0:0:
350,214,11393,6,0,P|336:280|300:320,2,112,14|0|6,0:3|0:0|0:3,0:0:0:0:
338,131,12393,1,0,0:0:0:0:
258,156,12726,2,0,P|206:153|150:128,1,112,14|0,0:3|0:0,0:0:0:0:
116,46,13393,2,0,P|168:49|224:74,1,112,6|0,0:3|0:0,0:0:0:0:
253,109,13893,1,0,0:0:0:0:
258,156,14060,6,0,P|249:201|261:270,2,112,14|0|6,0:3|0:0|0:3,0:0:0:0:
306,87,15060,1,0,0:0:0:0:
386,113,15393,2,0,P|437:123|497:113,1,112,14|0,0:3|0:0,0:0:0:0:
439,43,16060,2,0,P|403:33|377:17,1,56,14|8,0:3|0:3,0:0:0:0:
289,49,16393,6,0,L|279:9,3,28,14|8|8|8,0:3|0:3|0:3|0:3,0:0:0:0:
293,67,16726,6,0,L|310:151,1,77.0000023498536,2|0,0:0|3:0,0:0:0:0:
219,170,17060,2,0,L|168:112,1,77.0000023498536,8|0,0:0|3:0,0:0:0:0:
88,221,17393,2,0,L|160:245,1,77.0000023498536,2|0,0:0|3:0,0:0:0:0:
147,336,17726,2,0,L|69:330,1,77.0000023498536,8|0,0:0|3:0,0:0:0:0:
88,221,18060,6,0,L|81:128,1,77.0000023498536,2|0,0:0|3:0,0:0:0:0:
196,160,18393,2,0,L|201:83,1,77.0000023498536,8|0,0:0|3:0,0:0:0:0:
314,58,18726,2,0,L|319:134,1,77.0000023498536,2|0,0:0|3:0,0:0:0:0:
433,119,19059,2,0,L|427:195,1,77.0000023498536,8|0,0:0|3:0,0:0:0:0:
398,275,19393,5,10,0:0:0:0:
323,236,19560,1,2,3:0:0:0:
241,254,19726,2,0,P|219:292|219:345,1,83.9999974365235,10|2,0:0|3:0,0:0:0:0:
299,316,20060,1,10,0:0:0:0:
323,236,20226,1,2,3:0:0:0:
265,174,20393,1,2,3:0:0:0:
182,192,20560,6,0,P|185:147|178:105,1,70,2|0,1:0|0:0,0:0:0:0:
100,82,20893,2,0,P|97:127|104:169,2,70,2|2|0,1:0|1:0|1:0,0:0:0:0:
177,33,21393,2,0,P|254:49|336:22,1,140,2|8,1:0|1:0,0:0:0:0:
369,182,22062,6,0,L|384:269,1,77.0000023498536,6|0,0:3|0:0,0:0:0:0:
271,289,22484,2,0,L|284:213,1,77.0000023498536,10|0,0:2|0:0,0:0:0:0:
185,195,22907,2,0,L|97:179,1,77.0000023498536,6|0,0:3|0:0,0:0:0:0:
81,293,23329,2,0,L|156:279,1,77.0000023498536,10|0,0:2|0:0,0:0:0:0:
263,263,23752,5,6,0:3:0:0:
282,157,23963,1,0,0:0:0:0:
372,215,24174,2,0,P|379:280|367:322,1,77.0000023498536,10|0,0:2|0:0,0:0:0:0:
298,365,24597,5,6,0:3:0:0:
263,263,24808,1,0,0:0:0:0:
192,344,25019,2,0,P|158:288|158:249,1,77.0000023498536,10|0,0:2|0:0,0:0:0:0:
153,223,25336,1,0,0:0:0:0:
162,169,25442,6,0,L|175:93,1,77.0000023498536,6|0,0:3|0:0,0:0:0:0:
260,62,25864,2,0,L|273:137,1,77.0000023498536,10|0,0:2|0:0,0:0:0:0:
367,101,26287,2,0,L|454:85,1,77.0000023498536,6|0,0:3|0:0,0:0:0:0:
497,208,26709,2,0,L|421:194,1,77.0000023498536,10|0,0:2|0:0,0:0:0:0:
315,172,27132,5,6,0:3:0:0:
209,152,27343,1,0,0:0:0:0:
137,232,27554,2,0,P|106:181|100:130,1,77.0000023498536,10|0,0:2|0:0,0:0:0:0:
209,152,27977,5,6,0:3:0:0:
229,258,28188,1,0,0:0:0:0:
162,342,28399,2,0,P|196:358|234:365,1,77.0000023498536,10|0,0:2|0:0,0:0:0:0:
324,304,28822,5,6,0:3:0:0:
414,370,29033,1,0,0:0:0:0:
423,261,29245,2,0,L|428:185,1,77.0000023498536,10|0,0:2|0:0,0:0:0:0:
337,126,29667,6,0,L|331:201,2,77.0000023498536,6|0|10,0:3|0:0|0:2,0:0:0:0:
384,37,30301,1,0,0:0:0:0:
284,43,30512,2,0,P|246:35|208:42,1,77.0000023498536,6|0,0:3|0:0,0:0:0:0:
104,74,30935,2,0,P|99:36|107:-1,1,77.0000023498536,10|0,0:2|0:0,0:0:0:0:
208,42,31357,6,0,L|218:118,2,77.0000023498536,6|0|10,0:3|0:0|0:2,0:0:0:0:
107,0,31991,1,0,0:0:0:0:
13,51,32202,2,0,L|3:127,1,77.0000023498536,6|0,0:3|0:0,0:0:0:0:
108,153,32625,2,0,P|115:202|135:234,1,77.0000023498536,10|0,0:2|0:0,0:0:0:0:
47,297,33047,2,0,P|39:247|20:216,1,77.0000023498536,6|0,0:3|0:0,0:0:0:0:
108,153,33470,2,0,L|184:143,1,77.0000023498536,10|0,0:2|0:0,0:0:0:0:
294,129,33892,5,14,0:2:0:0:
259,231,34104,1,6,0:3:0:0:
364,211,34315,1,14,0:2:0:0:
329,313,34527,1,6,0:3:0:0:
222,331,34738,2,0,L|184:336,3,38.5000011749268,12|8|8|8,0:2|0:3|0:3|0:3,0:0:0:0:
137,307,35160,2,0,L|99:312,3,38.5000011749268,14|10|10|10,0:2|0:3|0:3|0:3,0:0:0:0:
83,259,35583,6,0,L|73:183,1,77.0000023498536,14|0,0:3|0:0,0:0:0:0:
149,106,36005,2,0,L|159:182,1,77.0000023498536,10|0,0:2|0:0,0:0:0:0:
266,205,36428,2,0,L|342:215,1,77.0000023498536,6|0,0:3|0:0,0:0:0:0:
417,138,36850,2,0,L|341:128,1,77.0000023498536,10|0,0:2|0:0,0:0:0:0:
234,106,37273,5,6,0:3:0:0:
305,25,37484,1,0,0:0:0:0:
340,127,37695,2,0,P|314:182|273:214,1,77.0000023498536,10|0,0:2|0:0,0:0:0:0:
196,208,38118,5,6,0:3:0:0:
94,174,38329,1,0,0:0:0:0:
115,279,38540,2,0,P|165:313|216:320,1,77.0000023498536,10|0,0:2|0:0,0:0:0:0:
232,333,38857,1,0,0:0:0:0:
285,343,38963,6,0,L|361:353,1,77.0000023498536,6|0,0:3|0:0,0:0:0:0:
436,276,39385,2,0,L|360:266,1,77.0000023498536,10|0,0:2|0:0,0:0:0:0:
252,249,39808,2,0,L|242:173,1,77.0000023498536,6|0,0:3|0:0,0:0:0:0:
319,98,40230,2,0,L|329:174,1,77.0000023498536,10|0,0:2|0:0,0:0:0:0:
252,249,40653,5,6,0:3:0:0:
148,217,40864,1,0,0:0:0:0:
158,109,41075,2,0,P|213:133|247:172,1,77.0000023498536,10|0,0:2|0:0,0:0:0:0:
252,249,41498,5,6,0:3:0:0:
329,174,41709,1,0,0:0:0:0:
417,235,41920,2,0,P|389:262|355:279,1,77.0000023498536,10|0,0:2|0:0,0:0:0:0:
302,267,42238,1,0,0:0:0:0:
252,249,42343,6,0,L|162:222,2,77.0000023498536,6|0|6,0:3|0:0|0:3,0:0:0:0:
329,174,42977,1,0,0:0:0:0:
230,130,43188,5,10,0:0:0:0:
178,226,43400,1,10,0:0:0:0:
126,322,43611,1,10,0:0:0:0:
62,234,43822,6,0,L|98:166,1,77.0000023498536,6|0,0:3|0:0,0:0:0:0:
154,73,44245,2,0,L|227:50,2,77.0000023498536,6|6|0,0:3|0:3|0:0,0:0:0:0:
212,163,44878,5,10,0:0:0:0:
312,206,45089,1,10,0:0:0:0:
413,250,45301,1,10,0:0:0:0:
327,314,45512,6,0,L|227:276,1,77.0000023498536,6|0,0:3|0:0,0:0:0:0:
151,253,45935,2,0,P|145:297|170:354,2,77.0000023498536,6|6|0,0:3|0:3|0:0,0:0:0:0:
231,180,46569,1,6,0:3:0:0:
184,84,46780,2,0,P|178:40|203:-17,1,77.0000023498536,0|6,0:0|0:3,0:0:0:0:
285,49,47202,6,0,P|289:93|225:183,1,154.000004699707,14|2,3:3|0:0,0:0:0:0:
128,147,47836,1,2,0:0:0:0:
151,253,48047,2,0,P|212:286|248:287,1,77.0000023498536,2|0,0:0|0:0,0:0:0:0:
317,243,48470,1,2,0:0:0:0:
413,290,48681,2,0,L|423:213,1,77.0000023498536,12|8,0:2|0:3,0:0:0:0:
384,113,49104,1,14,0:2:0:0:
256,192,49209,12,0,51005,0:0:0:0:
