osu file format v14

[General]
AudioFilename: audio.mp3
AudioLeadIn: 0
PreviewTime: 19626
Countdown: 0
SampleSet: None
StackLeniency: 0.7
Mode: 1
LetterboxInBreaks: 0
WidescreenStoryboard: 0

[Editor]
DistanceSpacing: 0.1
BeatDivisor: 6
GridSize: 32
TimelineZoom: 4.999998

[Metadata]
Title:haitai but every time it says hai it gets faster
TitleUnicode:haitai but every time it says hai it gets faster
Artist:Ayase Rie & [- Vanilla -]
ArtistUnicode:綾瀬 理恵 & [- Vanilla -]
Creator:jakads
Version:ONI
Source:YouTube
Tags:dank meme just why はいたい七葉
BeatmapID:1138975
BeatmapSetID:537498

[Difficulty]
HPDrainRate:0
CircleSize:4
OverallDifficulty:0
ApproachRate:10
SliderMultiplier:1.39999991989136
SliderTickRate:1

[Events]
//Background and Video events
//Break Periods
//Storyboard Layer 0 (Background)
//Storyboard Layer 1 (Fail)
//Storyboard Layer 2 (Pass)
//Storyboard Layer 3 (Foreground)
//Storyboard Sound Samples

[TimingPoints]
791,333.333333333333,4,2,0,50,1,0
6094,303.030303030303,4,2,0,50,1,0
10628,275.482093663912,4,2,0,50,1,0
10903,275.482093663912,4,2,0,50,1,0
19442,-50,4,2,0,50,0,0
19716,250.438266967193,4,2,0,50,1,1
20216,227.671151788357,4,2,0,50,1,1
20671,227.671151788357,4,2,0,50,1,1
21581,206.973774353052,4,2,0,50,1,1
21999,188.157976684592,4,2,0,50,1,1
22375,188.157976684592,4,2,0,50,1,1
25950,171.052706076902,4,2,0,50,1,1
26121,155.502460069911,4,2,0,50,1,1
26520,141.365872790828,4,2,0,50,1,1
26731,141.365872790828,4,2,0,50,1,1
27367,128.514429809844,4,2,0,50,1,1
27429,116.831299827131,4,2,0,50,1,1
27779,116.831299827131,4,2,0,50,1,1
29881,-100,4,2,0,50,0,0

[HitObjects]
256,192,791,5,4,0:0:0:0:
256,192,957,1,4,0:0:0:0:
256,192,1124,1,8,0:0:0:0:
256,192,1290,1,0,0:0:0:0:
256,192,1457,1,8,0:0:0:0:
256,192,1790,1,0,0:0:0:0:
256,192,1957,1,12,0:0:0:0:
256,192,2124,1,0,0:0:0:0:
256,192,2290,1,12,0:0:0:0:
256,192,2457,1,0,0:0:0:0:
256,192,2624,1,8,0:0:0:0:
256,192,2790,1,8,0:0:0:0:
256,192,2957,1,0,0:0:0:0:
256,192,3040,1,0,0:0:0:0:
256,192,3124,1,12,0:0:0:0:
256,192,3457,1,4,0:0:0:0:
256,192,3624,1,4,0:0:0:0:
256,192,3790,1,8,0:0:0:0:
256,192,3957,1,0,0:0:0:0:
256,192,4124,1,8,0:0:0:0:
256,192,4291,1,8,0:0:0:0:
256,192,4457,1,0,0:0:0:0:
256,192,4624,1,12,0:0:0:0:
256,192,4790,1,0,0:0:0:0:
256,192,4957,1,12,0:0:0:0:
256,192,5124,1,12,0:0:0:0:
256,192,5290,1,0,0:0:0:0:
256,192,5457,1,12,0:0:0:0:
256,192,5624,1,0,0:0:0:0:
256,192,5707,1,0,0:0:0:0:
256,192,5790,1,8,0:0:0:0:
256,192,5957,1,0,0:0:0:0:
256,192,6094,1,4,0:0:0:0:
256,192,6245,1,4,0:0:0:0:
256,192,6397,1,8,0:0:0:0:
256,192,6548,1,8,0:0:0:0:
256,192,6700,1,0,0:0:0:0:
256,192,6851,1,0,0:0:0:0:
256,192,6927,1,0,0:0:0:0:
256,192,7003,1,8,0:0:0:0:
256,192,7154,1,12,0:0:0:0:
256,192,7306,1,0,0:0:0:0:
256,192,7457,1,12,0:0:0:0:
256,192,7609,1,8,0:0:0:0:
256,192,7760,1,8,0:0:0:0:
256,192,7836,1,8,0:0:0:0:
256,192,7912,1,0,0:0:0:0:
256,192,8063,1,0,0:0:0:0:
256,192,8215,1,12,0:0:0:0:
256,192,8366,1,0,0:0:0:0:
256,192,8518,1,4,0:0:0:0:
256,192,8669,1,4,0:0:0:0:
256,192,8821,1,8,0:0:0:0:
256,192,8972,1,8,0:0:0:0:
256,192,9124,1,0,0:0:0:0:
256,192,9275,1,8,0:0:0:0:
256,192,9351,1,8,0:0:0:0:
256,192,9427,1,0,0:0:0:0:
256,192,9578,1,12,0:0:0:0:
256,192,9730,1,0,0:0:0:0:
256,192,9881,1,12,0:0:0:0:
256,192,10033,1,12,0:0:0:0:
256,192,10184,1,0,0:0:0:0:
256,192,10260,1,0,0:0:0:0:
256,192,10336,1,12,0:0:0:0:
256,192,10487,1,0,0:0:0:0:
256,192,10563,1,0,0:0:0:0:
256,192,10628,1,8,0:0:0:0:
256,192,10696,1,0,0:0:0:0:
256,192,10765,1,0,0:0:0:0:
256,192,10903,1,12,0:0:0:0:
256,192,11040,1,0,0:0:0:0:
256,192,11109,1,0,0:0:0:0:
256,192,11178,1,0,0:0:0:0:
256,192,11316,1,8,0:0:0:0:
256,192,11453,1,8,0:0:0:0:
256,192,11591,1,0,0:0:0:0:
256,192,11660,1,0,0:0:0:0:
256,192,11729,1,8,0:0:0:0:
256,192,12004,1,0,0:0:0:0:
256,192,12073,1,0,0:0:0:0:
256,192,12142,1,0,0:0:0:0:
256,192,12280,1,8,0:0:0:0:
256,192,12418,1,0,0:0:0:0:
256,192,12487,1,0,0:0:0:0:
256,192,12555,1,0,0:0:0:0:
256,192,12693,1,8,0:0:0:0:
256,192,12831,1,8,0:0:0:0:
256,192,13106,1,0,0:0:0:0:
256,192,13244,1,8,0:0:0:0:
256,192,13313,1,8,0:0:0:0:
256,192,13382,1,8,0:0:0:0:
256,192,13520,1,0,0:0:0:0:
256,192,13657,1,0,0:0:0:0:
256,192,13795,1,8,0:0:0:0:
256,192,13864,1,0,0:0:0:0:
256,192,13933,1,8,0:0:0:0:
256,192,14071,1,8,0:0:0:0:
256,192,14208,1,0,0:0:0:0:
256,192,14346,1,8,0:0:0:0:
256,192,14415,1,0,0:0:0:0:
256,192,14484,1,8,0:0:0:0:
256,192,14553,1,8,0:0:0:0:
256,192,14622,1,0,0:0:0:0:
256,192,14759,1,0,0:0:0:0:
256,192,14828,1,0,0:0:0:0:
256,192,14897,1,8,0:0:0:0:
256,192,15035,1,8,0:0:0:0:
256,192,15104,1,8,0:0:0:0:
256,192,15172,1,8,0:0:0:0:
256,192,15241,1,8,0:0:0:0:
256,192,15310,1,0,0:0:0:0:
256,192,15448,1,0,0:0:0:0:
256,192,15517,1,0,0:0:0:0:
256,192,15586,1,8,0:0:0:0:
256,192,15723,1,8,0:0:0:0:
256,192,15792,1,0,0:0:0:0:
256,192,15861,1,0,0:0:0:0:
256,192,15999,1,0,0:0:0:0:
256,192,16137,1,8,0:0:0:0:
256,192,16206,1,8,0:0:0:0:
256,192,16274,1,0,0:0:0:0:
256,192,16412,1,8,0:0:0:0:
256,192,16550,1,0,0:0:0:0:
256,192,16619,1,0,0:0:0:0:
256,192,16688,1,8,0:0:0:0:
256,192,16825,1,0,0:0:0:0:
256,192,16894,1,8,0:0:0:0:
256,192,16963,1,8,0:0:0:0:
256,192,17101,1,0,0:0:0:0:
256,192,17170,1,0,0:0:0:0:
256,192,17239,1,8,0:0:0:0:
256,192,17376,1,8,0:0:0:0:
256,192,17514,1,8,0:0:0:0:
256,192,17583,1,0,0:0:0:0:
256,192,17652,1,0,0:0:0:0:
256,192,17721,1,0,0:0:0:0:
256,192,17790,1,8,0:0:0:0:
256,192,17858,1,8,0:0:0:0:
256,192,17927,1,8,0:0:0:0:
256,192,17996,1,0,0:0:0:0:
256,192,18065,1,8,0:0:0:0:
256,192,18134,1,0,0:0:0:0:
256,192,18203,1,8,0:0:0:0:
256,192,18272,1,8,0:0:0:0:
256,192,18341,1,8,0:0:0:0:
256,192,18478,1,12,0:0:0:0:
256,192,18754,1,12,0:0:0:0:
256,192,18891,1,12,0:0:0:0:
256,192,19029,1,12,0:0:0:0:
256,192,19167,1,12,0:0:0:0:
256,192,19442,1,12,0:0:0:0:
256,192,19716,1,12,0:0:0:0:
256,192,19966,1,4,0:0:0:0:
256,192,20216,1,12,0:0:0:0:
256,192,20443,1,12,0:0:0:0:
256,192,20671,1,0,0:0:0:0:
256,192,20784,1,0,0:0:0:0:
256,192,20841,1,0,0:0:0:0:
256,192,20898,1,8,0:0:0:0:
256,192,21012,1,8,0:0:0:0:
256,192,21126,1,0,0:0:0:0:
256,192,21183,1,8,0:0:0:0:
256,192,21240,1,0,0:0:0:0:
256,192,21297,1,0,0:0:0:0:
256,192,21354,1,8,0:0:0:0:
256,192,21467,1,8,0:0:0:0:
256,192,21581,1,12,0:0:0:0:
256,192,21787,1,4,0:0:0:0:
256,192,21999,1,12,0:0:0:0:
256,192,22187,1,12,0:0:0:0:
256,192,22375,1,0,0:0:0:0:
256,192,22469,1,8,0:0:0:0:
256,192,22516,1,8,0:0:0:0:
256,192,22563,1,8,0:0:0:0:
256,192,22657,1,0,0:0:0:0:
256,192,22751,1,8,0:0:0:0:
256,192,22798,1,8,0:0:0:0:
256,192,22845,1,8,0:0:0:0:
256,192,22892,1,8,0:0:0:0:
256,192,22939,1,0,0:0:0:0:
256,192,22986,1,0,0:0:0:0:
256,192,23033,1,0,0:0:0:0:
256,192,23080,1,0,0:0:0:0:
256,192,23127,1,8,0:0:0:0:
256,192,23221,1,0,0:0:0:0:
256,192,23268,1,0,0:0:0:0:
256,192,23315,1,8,0:0:0:0:
256,192,23409,1,8,0:0:0:0:
256,192,23503,1,0,0:0:0:0:
256,192,23550,1,0,0:0:0:0:
256,192,23598,1,8,0:0:0:0:
256,192,23692,1,0,0:0:0:0:
256,192,23739,1,8,0:0:0:0:
256,192,23786,1,8,0:0:0:0:
256,192,23833,1,8,0:0:0:0:
256,192,23880,1,0,0:0:0:0:
256,192,23974,1,8,0:0:0:0:
256,192,24021,1,8,0:0:0:0:
256,192,24068,1,0,0:0:0:0:
256,192,24162,1,0,0:0:0:0:
256,192,24256,1,8,0:0:0:0:
256,192,24303,1,8,0:0:0:0:
256,192,24350,1,0,0:0:0:0:
256,192,24444,1,8,0:0:0:0:
256,192,24491,1,0,0:0:0:0:
256,192,24538,1,8,0:0:0:0:
256,192,24585,1,0,0:0:0:0:
256,192,24632,1,8,0:0:0:0:
256,192,24726,1,0,0:0:0:0:
256,192,24774,1,0,0:0:0:0:
256,192,24821,1,8,0:0:0:0:
256,192,24915,1,0,0:0:0:0:
256,192,24962,1,8,0:0:0:0:
256,192,25009,1,8,0:0:0:0:
256,192,25056,1,0,0:0:0:0:
256,192,25103,1,8,0:0:0:0:
256,192,25197,1,0,0:0:0:0:
256,192,25291,1,8,0:0:0:0:
256,192,25479,1,0,0:0:0:0:
256,192,25526,1,0,0:0:0:0:
256,192,25573,1,8,0:0:0:0:
256,192,25667,1,0,0:0:0:0:
256,192,25714,1,0,0:0:0:0:
256,192,25761,1,8,0:0:0:0:
256,192,25855,1,0,0:0:0:0:
256,192,25902,1,0,0:0:0:0:
256,192,25950,1,8,0:0:0:0:
256,192,26035,1,0,0:0:0:0:
256,192,26121,1,12,0:0:0:0:
256,192,26276,1,4,0:0:0:0:
256,192,26432,1,12,0:0:0:0:
256,192,26590,1,12,0:0:0:0:
256,192,26731,1,0,0:0:0:0:
256,192,26801,1,8,0:0:0:0:
256,192,26837,1,8,0:0:0:0:
256,192,26872,1,8,0:0:0:0:
256,192,26943,1,0,0:0:0:0:
256,192,26978,1,0,0:0:0:0:
256,192,27013,1,8,0:0:0:0:
256,192,27049,1,8,0:0:0:0:
256,192,27084,1,0,0:0:0:0:
256,192,27155,1,8,0:0:0:0:
256,192,27190,1,0,0:0:0:0:
256,192,27225,1,0,0:0:0:0:
256,192,27296,1,12,0:0:0:0:
256,192,27431,1,4,0:0:0:0:
256,192,27545,1,12,0:0:0:0:
256,192,27662,1,12,0:0:0:0:
256,192,27779,1,8,0:0:0:0:
256,192,27837,1,0,0:0:0:0:
256,192,27866,1,0,0:0:0:0:
256,192,27895,1,8,0:0:0:0:
256,192,27954,1,8,0:0:0:0:
256,192,28012,1,0,0:0:0:0:
256,192,28041,1,0,0:0:0:0:
256,192,28071,1,8,0:0:0:0:
256,192,28100,1,8,0:0:0:0:
256,192,28129,1,0,0:0:0:0:
256,192,28158,1,8,0:0:0:0:
256,192,28187,1,8,0:0:0:0:
256,192,28217,1,8,0:0:0:0:
256,192,28246,1,0,0:0:0:0:
256,192,28304,1,8,0:0:0:0:
256,192,28333,1,8,0:0:0:0:
256,192,28363,1,0,0:0:0:0:
256,192,28421,1,8,0:0:0:0:
256,192,28479,1,0,0:0:0:0:
256,192,28509,1,8,0:0:0:0:
256,192,28538,1,0,0:0:0:0:
256,192,28567,1,0,0:0:0:0:
256,192,28596,1,8,0:0:0:0:
256,192,28626,1,8,0:0:0:0:
256,192,28655,1,0,0:0:0:0:
256,192,28684,1,0,0:0:0:0:
256,192,28713,1,8,0:0:0:0:
256,192,28772,1,0,0:0:0:0:
256,192,28801,1,8,0:0:0:0:
256,192,28830,1,8,0:0:0:0:
256,192,28888,1,0,0:0:0:0:
256,192,28947,1,8,0:0:0:0:
256,192,28976,1,0,0:0:0:0:
256,192,29005,1,8,0:0:0:0:
256,192,29034,1,8,0:0:0:0:
256,192,29064,1,0,0:0:0:0:
256,192,29093,1,0,0:0:0:0:
256,192,29122,1,8,0:0:0:0:
256,192,29151,1,8,0:0:0:0:
256,192,29180,1,8,0:0:0:0:
256,192,29210,1,0,0:0:0:0:
256,192,29239,1,8,0:0:0:0:
256,192,29268,1,8,0:0:0:0:
256,192,29297,1,8,0:0:0:0:
256,192,29327,1,0,0:0:0:0:
256,192,29356,1,8,0:0:0:0:
256,192,29385,1,8,0:0:0:0:
256,192,29414,1,0,0:0:0:0:
256,192,29443,1,0,0:0:0:0:
256,192,29473,1,8,0:0:0:0:
256,192,29502,1,0,0:0:0:0:
256,192,29531,1,8,0:0:0:0:
256,192,29560,1,8,0:0:0:0:
256,192,29589,1,8,0:0:0:0:
256,192,29648,1,0,0:0:0:0:
256,192,29677,1,0,0:0:0:0:
256,192,29706,1,8,0:0:0:0:
256,192,29765,1,8,0:0:0:0:
256,192,29794,1,0,0:0:0:0:
256,192,29823,1,8,0:0:0:0:
256,192,29843,1,8,0:0:0:0:
256,192,29862,1,0,0:0:0:0:
256,192,29881,1,8,0:0:0:0:
