osu file format v14

[General]
AudioFilename: audio.ogg
AudioLeadIn: 1500
PreviewTime: 62143
Countdown: 0
SampleSet: Normal
StackLeniency: 0.7
Mode: 2
LetterboxInBreaks: 0
WidescreenStoryboard: 1

[Editor]
DistanceSpacing: 0.8
BeatDivisor: 4
GridSize: 4
TimelineZoom: 2.299999

[Metadata]
Title:Garasu no Hanazono
TitleUnicode:硝子の花園
Artist:Ayase Eli (CV: Nanjo Yoshino) & Tojo Nozomi (CV: Kusuda Aina)
ArtistUnicode:絢瀬絵里 (CV: 南條愛乃) & 東條希 (CV: 楠田亜衣奈)
Creator:Secre
Version:Garden of Glass
Source:Love Live! School idol project
Tags:chickenbible astreachan ラブライブ! 絢瀬絵里 東條希 Ayase Eli Eri Toujou Nozomi Original Song CD 6 1st season Garden of Glass NozoEli NozoEri anime japanese jpop pop j-pop lovelive! µ's u's
BeatmapID:3628061
BeatmapSetID:1772072

[Difficulty]
HPDrainRate:5
CircleSize:4
OverallDifficulty:9
ApproachRate:9
SliderMultiplier:1.84
SliderTickRate:2

[Events]
//Background and Video events
0,0,"waiting for the day an og lovelive member joins hololive.jpg",0,0
//Break Periods
//Storyboard Layer 0 (Background)
//Storyboard Layer 1 (Fail)
//Storyboard Layer 2 (Pass)
//Storyboard Layer 3 (Foreground)
//Storyboard Layer 4 (Overlay)
//Storyboard Sound Samples

[TimingPoints]
812,355.029585798817,4,1,1,60,1,0
812,-100,4,1,1,60,0,0
6492,-100,4,1,1,70,0,0
29214,-100,4,2,1,50,0,0
40575,-100,4,2,1,60,0,0
54776,-100,4,2,1,50,0,0
57616,-100,4,2,1,60,0,0
60456,-100,4,2,1,60,0,0
61522,-100,4,2,1,70,0,0
62587,-100,4,2,1,60,0,0
63297,-100,4,1,1,80,0,1
83178,-100,4,2,1,60,0,0
84598,-100,4,2,1,70,0,0
86019,-100,4,1,1,70,0,1
86107,-100,4,1,1,70,0,0
97380,-100,4,2,1,50,0,0
108740,-100,4,2,1,60,0,0
128622,-100,4,2,1,60,0,0
129687,-100,4,2,1,60,0,0
130575,-100,4,2,1,60,0,0
131462,-100,4,1,1,80,0,1
151344,-100,4,2,1,60,0,0
152764,-100,4,2,1,70,0,0
154184,-100,4,1,1,70,0,1
154273,-100,4,1,1,70,0,0
176906,-100,4,1,1,60,0,0
178326,-100,4,2,1,50,0,0
191107,-100,4,1,1,60,0,0
192527,-100,4,1,1,70,0,0
195368,-90.9090909090909,4,1,1,90,0,1
216669,-90.9090909090909,4,1,1,90,0,0
218090,-90.9090909090909,4,1,1,90,0,1
237971,-90.9090909090909,4,2,1,75,0,0
239391,-90.9090909090909,4,2,1,90,0,0
240812,-90.9090909090909,4,1,1,80,0,1
240900,-100,4,1,1,80,0,0
263533,-100,4,2,1,50,0,0
263888,-100,4,1,1,80,0,1
264243,-100,4,2,1,50,0,1
264421,-100,4,1,1,80,0,1
264776,-100,4,2,1,50,0,1
264954,-100,4,1,1,80,0,0
265131,-100,4,1,1,60,0,0
266019,-100,4,1,1,50,0,0
267084,-100,4,1,1,40,0,0
267794,-100,4,2,1,30,0,0

[Colours]
Combo1 : 50,205,128
Combo2 : 255,255,119
Combo3 : 147,51,114
Combo4 : 0,198,198

[HitObjects]
331,204,811,6,0,L|161:203,1,138,4|0,0:0|0:0,0:0:0:0:
407,281,1343,2,0,P|469:257|401:197,1,184,4|0,0:0|0:0,0:0:0:0:
317,176,1876,2,0,L|314:68,1,92
405,52,2231,5,4,0:3:0:0:
243,57,2408,1,4,0:3:0:0:
405,52,2586,2,8,L|415:137,1,46
241,198,2852,1,8,0:3:0:0:
197,204,2942,1,8,0:3:0:0:
172,169,3030,1,8,0:3:0:0:
194,130,3119,1,8,0:3:0:0:
237,133,3208,1,8,0:3:0:0:
401,128,3297,2,8,L|467:131,2,46,8|8|8,0:3|0:3|0:3,0:3:0:0:
161,296,3651,6,0,L|332:294,1,138,4|0,0:0|0:0,0:0:0:0:
95,215,4183,2,0,P|34:183|111:122,1,184,4|0,0:0|0:0,0:0:0:0:
148,112,4627,1,8,0:0:0:0:
316,108,4716,1,8,0:0:0:0:
57,235,5071,6,0,L|232:225,2,138,4|8|8,0:0|0:0|0:0,0:0:0:0:
340,147,5781,2,0,L|191:145,2,138,4|8|8,0:0|0:0|0:0,0:0:0:0:
71,261,6491,6,0,P|16:231|81:159,1,184,4|8,0:0|0:0,0:0:0:0:
325,198,7024,2,0,L|123:193,1,184,4|8,0:3|0:0,0:0:0:0:
300,38,7556,2,0,L|411:40,1,92,8|8,0:0|0:0,0:0:0:0:
156,136,7911,6,0,L|355:133,1,184,4|8,0:3|0:0,0:0:0:0:
193,243,8444,2,0,L|79:244,1,92,4|0,0:3|0:0,0:0:0:0:
379,108,8799,2,0,L|272:105,2,92,8|0|0,0:0|0:0|0:0,0:0:0:0:
133,244,9331,6,0,L|352:246,1,184,4|8,0:3|0:0,0:0:0:0:
77,184,9864,2,0,P|77:129|205:82,1,184,4|0,0:3|0:0,0:0:0:0:
329,73,10396,2,0,L|452:78,1,92,8|0,0:0|0:0,0:0:0:0:
164,265,10751,6,0,L|362:256,1,184,4|8,0:3|0:0,0:0:0:0:
208,202,11284,2,0,L|81:207,1,92,4|0,0:3|0:0,0:0:0:0:
369,106,11639,2,0,L|163:112,1,184,8|0,0:0|0:0,0:0:0:0:
461,214,12171,6,0,L|470:104,1,92,4|0,0:3|0:0,0:0:0:0:
221,118,12526,2,0,L|105:115,1,92,8|0,0:0|0:0,0:0:0:0:
285,201,12882,2,0,L|388:202,1,92,4|0,0:2|0:0,0:0:0:0:
221,118,13237,2,0,L|105:115,1,92,8|0,0:0|0:0,0:0:0:0:
426,275,13592,6,0,P|492:246|413:197,1,184,4|8,0:2|0:0,0:0:0:0:
194,225,14124,2,0,L|410:215,1,184,4|8,0:3|0:0,0:0:0:0:
232,133,14657,2,0,L|99:134,1,92,8|8,0:0|0:0,0:0:0:0:
378,176,15012,6,0,L|394:48,1,92,4|0,0:0|0:0,0:0:0:0:
152,45,15367,2,0,L|28:47,1,92,8|0,0:0|0:0,0:0:0:0:
217,144,15722,2,0,L|109:143,1,92,4|0,0:3|0:0,0:0:0:0:
293,209,16077,2,0,L|406:212,1,92,8|0,0:0|0:0,0:0:0:0:
145,296,16432,5,4,0:3:0:0:
292,226,16609,2,0,L|303:107,1,92,8|4,0:0|0:3,0:0:0:0:
61,114,16964,2,0,L|263:106,1,184,8|8,0:0|0:0,0:0:0:0:
77,177,17497,2,8,L|1:176,2,46
342,238,17852,6,0,L|115:237,1,184,12|8,0:0|0:0,0:0:0:0:
440,210,18562,2,0,L|451:102,1,92,8|0,0:0|0:0,0:0:0:0:
295,85,18917,1,8,0:0:0:0:
449,118,19095,1,0,0:0:0:0:
207,61,19272,6,0,P|124:68|93:178,1,184,12|8,0:0|0:0,0:0:0:0:
249,167,19805,1,0,0:0:0:0:
93,152,19982,1,8,0:0:0:0:
249,167,20160,2,0,L|378:162,2,92,0|8|0,0:0|0:0|0:0,0:0:0:0:
492,251,20692,6,0,L|502:58,1,184,12|8,0:0|0:0,0:0:0:0:
223,137,21402,2,0,L|341:128,1,92,8|0,0:0|0:0,0:0:0:0:
190,57,21757,2,0,L|94:57,1,92,8|0,0:0|0:0,0:0:0:0:
336,223,22112,6,0,P|391:198|324:114,1,184,12|8,0:0|0:0,0:0:0:0:
186,105,22645,1,8,0:0:0:0:
436,75,22822,6,4,L|353:64,1,46,4|4,0:3|0:3,0:3:0:0:
239,27,23000,2,4,L|167:22,1,46,4|4,0:3|0:3,0:3:0:0:
239,27,23177,1,4,0:3:0:0:
284,94,23267,1,4,0:3:0:0:
237,118,23356,1,4,0:3:0:0:
191,147,23445,1,4,0:3:0:0:
402,270,23532,6,0,P|469:245|392:224,1,184,4|8,0:0|0:0,0:0:0:0:
165,217,24065,2,0,L|380:207,1,184,4|0,0:2|0:0,0:0:0:0:
113,116,24597,2,0,L|13:112,1,92,8|0,0:0|0:0,0:0:0:0:
301,185,24953,6,0,L|113:182,1,184,4|8,0:0|0:0,0:0:0:0:
381,155,25485,2,0,L|391:44,1,92,4|0,0:3|0:0,0:0:0:0:
95,79,25840,2,0,L|207:73,2,92,0|8|8,0:0|0:0|0:0,0:0:0:0:
336,208,26373,6,0,L|123:211,1,184,4|8,0:0|0:0,0:0:0:0:
416,281,26905,2,0,P|470:261|402:173,1,184,4|0,0:3|0:0,0:0:0:0:
281,157,27438,1,8,0:0:0:0:
430,168,27615,1,0,0:0:0:0:
175,155,27793,5,4,0:2:0:0:
316,109,27970,2,0,L|326:7,1,92,4|0,0:2|0:0,0:0:0:0:
88,92,28325,2,0,L|289:89,1,184,4|4,0:0|0:3,0:0:0:0:
112,156,28858,2,8,L|40:156,2,46
355,148,29213,6,0,L|364:41,1,92,4|0,0:0|0:0,0:0:0:0:
220,45,29568,2,0,L|114:48,1,92,8|4,0:1|0:3,0:0:0:0:
277,62,29923,2,0,P|352:70|388:177,1,184,0|8,0:0|0:1,0:0:0:0:
242,173,30455,1,0,0:0:0:0:
480,189,30633,6,0,P|487:127|377:78,1,184,4|8,0:3|0:1,0:0:0:0:
237,212,31166,2,0,L|438:198,1,184,4|2,0:3|0:0,0:0:0:0:
276,120,31698,1,8,0:1:0:0:
420,199,31876,1,0,0:0:0:0:
181,88,32053,6,0,L|80:91,1,92,4|0,0:3|0:0,0:0:0:0:
250,154,32408,2,0,L|154:155,1,92,8|4,0:1|0:3,0:0:0:0:
316,90,32763,2,0,L|423:89,2,92,0|0|8,0:0|0:0|0:1,0:0:0:0:
162,97,33296,1,0,0:0:0:0:
400,183,33473,6,0,L|177:182,1,184,4|8,0:3|0:1,0:0:0:0:
452,276,34006,2,0,P|498:257|436:173,1,184,4|0,0:3|0:0,0:0:0:0:
300,166,34538,1,8,0:1:0:0:
446,169,34716,1,0,0:0:0:0:
196,122,34893,6,0,L|85:121,1,92,4|0,0:3|0:0,0:0:0:0:
258,181,35248,2,0,L|143:180,1,92,8|4,0:1|0:3,0:0:0:0:
333,219,35603,2,0,P|389:182|310:111,1,184,0|8,0:0|0:1,0:0:0:0:
181,91,36136,1,0,0:0:0:0:
438,201,36313,6,0,P|489:168|416:96,1,184,4|8,0:3|0:1,0:0:0:0:
186,175,36846,2,0,L|409:167,1,184,4|8,0:3|0:1,0:0:0:0:
221,94,37379,1,8,0:1:0:0:
369,168,37556,1,0,0:0:0:0:
111,220,37734,6,0,L|102:109,1,92,4|0,0:3|0:0,0:0:0:0:
257,91,38089,2,0,L|129:93,1,92,8|4,0:1|0:3,0:0:0:0:
319,162,38444,2,0,L|109:156,1,184,0|8,0:0|0:1,0:0:0:0:
289,98,38976,1,0,0:0:0:0:
46,160,39154,5,4,0:3:0:0:
189,163,39331,1,8,0:1:0:0:
46,160,39509,1,8,0:1:0:0:
308,114,39686,2,0,L|369:115,1,46,4|2,0:3|0:0,0:0:0:0:
202,50,39864,5,2,0:0:0:0:
148,51,39954,1,2,0:0:0:0:
149,92,40041,1,2,0:0:0:0:
201,98,40130,1,2,0:0:0:0:
410,163,40219,2,8,L|499:163,2,46,8|8|8,0:1|0:1|0:1,0:1:0:0:
151,265,40574,6,0,L|346:267,1,184,4|8,0:0|0:1,0:0:0:0:
75,178,41284,2,0,L|71:60,1,92,8|0,0:1|0:0,0:0:0:0:
233,72,41639,2,0,L|338:71,1,92,8|0,0:1|0:0,0:0:0:0:
73,250,41994,6,0,P|20:231|91:166,1,184,4|8,0:0|0:1,0:0:0:0:
337,176,42704,2,0,L|346:68,1,92,8|0,0:1|0:0,0:0:0:0:
198,69,43059,2,0,L|83:72,1,92,8|0,0:1|0:0,0:0:0:0:
352,144,43414,6,0,L|159:145,1,184,4|8,0:0|0:1,0:0:0:0:
418,262,43947,2,0,P|479:224|421:156,1,184,4|0,0:0|0:0,0:0:0:0:
268,168,44479,1,8,0:1:0:0:
421,155,44657,1,0,0:0:0:0:
181,231,44834,5,4,0:3:0:0:
342,190,45012,2,8,L|347:84,1,92,8|8,0:1|0:1,0:1:0:0:
108,143,45367,1,0,0:0:0:0:
251,137,45544,1,8,0:1:0:0:
293,124,45634,1,8,0:1:0:0:
313,84,45723,1,0,0:1:0:0:
295,43,45812,1,8,0:1:0:0:
253,28,45900,1,8,0:1:0:0:
108,143,46077,1,4,0:3:0:0:
365,231,46254,6,0,L|151:224,1,184,4|8,0:0|0:1,0:0:0:0:
456,175,46787,2,0,L|265:173,1,184,4|0,0:3|0:0,0:0:0:0:
428,93,47319,2,0,L|426:212,1,92,8|0,0:1|0:0,0:0:0:0:
161,265,47674,6,0,L|376:267,1,184,4|8,0:3|0:1,0:0:0:0:
195,188,48207,1,0,0:0:0:0:
344,266,48384,2,4,L|348:152,1,92,4|4,0:3|0:3,0:3:0:0:
195,188,48739,2,0,L|82:187,1,92,8|0,0:1|0:0,0:0:0:0:
344,245,49095,6,0,P|410:221|341:154,1,184,4|8,0:0|0:1,0:0:0:0:
120,184,49627,2,0,L|328:185,2,184,4|0|0,0:3|0:0|0:0,0:0:0:0:
391,113,50515,6,0,L|259:111,2,92,4|4|8,0:3|0:3|0:1,0:0:0:0:
127,264,51047,2,0,P|65:236|144:192,1,184,4|8,0:3|0:1,0:0:0:0:
379,150,51580,2,8,L|441:148,2,46,8|8|8,0:3|0:3|0:3,0:3:0:0:
127,249,51935,6,0,L|334:248,1,184,4|8,0:0|0:1,0:0:0:0:
163,175,52467,1,0,0:0:0:0:
310,248,52645,2,0,L|410:251,1,92,8|0,0:1|0:0,0:0:0:0:
244,127,53000,2,0,L|131:127,1,92,8|0,0:1|0:0,0:0:0:0:
416,229,53355,6,0,P|474:206|397:129,1,184,4|8,0:0|0:1,0:0:0:0:
174,168,54065,2,0,L|172:63,1,92,8|0,0:1|0:0,0:0:0:0:
315,55,54420,2,0,L|423:52,1,92,8|0,0:1|0:0,0:0:0:0:
153,52,54775,6,0,P|105:73|161:167,1,184,4|8,0:0|0:1,0:0:0:0:
218,162,55219,1,8,0:1:0:0:
287,159,55308,1,8,0:1:0:0:
47,236,55485,2,0,P|43:177|154:123,1,184,4|8,0:0|0:1,0:0:0:0:
200,118,55929,1,8,0:1:0:0:
372,99,56018,2,8,L|439:97,1,46,8|8,0:1|0:1,0:1:0:0:
207,210,56195,6,0,L|80:207,1,92,4|8,0:0|0:1,0:0:0:0:
276,131,56550,2,0,L|390:132,1,92,8|8,0:1|0:3,0:0:0:0:
320,182,56816,1,8,0:3:0:0:
137,120,56905,2,0,L|126:21,1,92,8|8,0:3|0:3,0:0:0:0:
377,39,57260,2,8,L|498:37,1,92,8|8,0:3|0:3,0:3:0:0:
229,41,57615,6,0,P|155:45|106:150,1,184,4|8,0:0|0:1,0:0:0:0:
405,173,58148,2,0,L|293:174,2,92,4|0|0,0:3|0:0|0:0,0:0:0:0:
162,251,58680,1,8,0:1:0:0:
304,254,58858,1,0,0:0:0:0:
67,171,59035,6,0,L|175:174,2,92,4|0|8,0:3|0:0|0:1,0:0:0:0:
216,116,59568,2,0,L|317:113,2,92,4|0|0,0:3|0:0|0:0,0:0:0:0:
370,195,60100,2,0,L|480:195,1,92,8|0,0:1|0:0,0:0:0:0:
205,90,60455,6,0,L|12:89,1,184,4|0,0:0|0:0,0:0:0:0:
286,196,60988,2,0,L|86:193,1,184,4|0,0:0|0:0,0:0:0:0:
372,112,61521,1,4,0:0:0:0:
65,220,61876,6,0,L|57:27,1,184,4|0,0:0|0:0,0:0:0:0:
144,17,62408,1,4,0:3:0:0:
382,201,62586,2,0,L|219:196,1,138,4|0,0:0|0:0,0:0:0:0:
408,272,62941,2,0,P|456:253|401:212,1,138,4|0,0:0|0:0,0:0:0:0:
222,181,63296,6,0,L|31:187,1,184,6|8,0:0|0:0,0:0:0:0:
280,271,63828,2,0,P|343:246|270:197,1,184,4|0,0:3|0:0,0:0:0:0:
131,172,64361,1,8,0:0:0:0:
280,190,64538,1,8,0:0:0:0:
37,115,64716,6,0,L|227:114,1,184,4|8,0:0|0:0,0:0:0:0:
475,217,65248,2,0,L|274:210,1,184,4|0,0:3|0:0,0:0:0:0:
446,137,65781,1,8,0:1:0:0:
291,210,65958,1,8,0:1:0:0:
39,152,66136,6,0,L|154:147,1,92,4|0,0:3|0:0,0:0:0:0:
282,124,66491,1,8,0:0:0:0:
130,148,66668,2,0,L|128:56,1,92,4|0,0:3|0:0,0:0:0:0:
400,69,67024,2,0,L|297:69,1,92,0|8,0:0|0:0,0:0:0:0:
149,119,67379,1,8,0:0:0:0:
428,227,67556,6,0,P|491:206|416:142,1,184,4|8,0:3|0:0,0:0:0:0:
194,176,68089,2,0,L|382:177,1,184,4|0,0:3|0:0,0:0:0:0:
140,83,68621,2,8,L|15:82,1,92
321,217,68976,6,0,L|131:216,1,184,4|8,0:3|0:0,0:0:0:0:
393,146,69509,2,0,L|201:143,1,184,4|0,0:3|0:0,0:0:0:0:
373,68,70041,2,8,L|496:69,1,92
202,222,70396,6,0,L|415:218,1,184,4|8,0:3|0:0,0:0:0:0:
288,152,70929,1,4,0:3:0:0:
128,127,71106,2,0,L|131:31,1,92
291,37,71461,2,8,L|400:39,1,92
129,260,71816,6,0,P|61:222|147:185,1,184,4|8,0:3|0:0,0:0:0:0:
273,168,72349,1,4,0:3:0:0:
121,129,72526,2,0,L|120:29,1,92
358,47,72882,2,8,L|472:50,1,92
180,213,73237,6,0,L|298:206,1,92,4|0,0:2|0:0,0:0:0:0:
424,156,73592,1,8,0:0:0:0:
188,97,73769,2,0,P|88:115|80:191,1,184,4|0,0:3|0:0,0:0:0:0:
336,228,74302,1,8,0:0:0:0:
377,220,74390,1,8,0:3:0:0:
380,178,74479,1,8,0:3:0:0:
340,165,74568,1,8,0:3:0:0:
167,147,74657,6,0,L|70:148,1,92,4|0,0:2|0:0,0:0:0:0:
236,212,75012,2,0,L|117:212,1,92,8|0,0:0|0:0,0:0:0:0:
387,134,75367,2,0,L|484:135,1,92,8|0,0:0|0:0,0:0:0:0:
318,199,75722,2,0,L|437:199,1,92,8|0,0:0|0:0,0:0:0:0:
94,159,76077,6,0,L|87:45,1,92,4|0,0:2|0:0,0:0:0:0:
231,40,76432,1,8,0:0:0:0:
88,67,76609,1,0,0:0:0:0:
368,159,76787,2,0,L|375:45,1,92,8|0,0:0|0:0,0:0:0:0:
231,40,77142,1,8,0:0:0:0:
374,67,77319,1,0,0:0:0:0:
61,184,77497,6,0,L|168:185,2,92,4|0|0,0:2|0:0|0:0,0:0:0:0:
321,129,78029,2,0,L|428:126,1,92,4|0,0:2|0:0,0:0:0:0:
168,69,78384,2,0,L|170:191,1,92,8|4,0:0|0:3,0:0:0:0:
321,170,78739,1,4,0:3:0:0:
81,193,78917,6,0,L|302:197,1,184,4|8,0:2|0:0,0:0:0:0:
126,124,79450,1,4,0:3:0:0:
408,69,79627,2,8,L|476:73,2,46
173,183,79982,1,4,0:3:0:0:
321,182,80160,1,4,0:3:0:0:
72,226,80337,6,0,P|22:203|104:122,1,184,4|8,0:2|0:0,0:0:0:0:
310,230,80870,1,0,0:0:0:0:
168,147,81047,2,4,L|163:38,1,92,4|4,0:3|0:3,0:3:0:0:
334,45,81402,2,0,L|458:46,1,92,8|0,0:0|0:0,0:0:0:0:
182,242,81757,5,4,0:3:0:0:
320,235,81935,1,0,0:0:0:0:
182,242,82112,1,8,0:0:0:0:
320,235,82290,1,0,0:0:0:0:
78,170,82467,6,0,L|71:65,1,92,4|8,0:3|0:3,0:0:0:0:
131,48,82734,1,8,0:3:0:0:
292,117,82822,2,8,L|356:118,1,46,8|8,0:3|0:3,0:3:0:0:
182,39,83000,2,8,L|123:40,1,46,8|8,0:3|0:3,0:3:0:0:
336,195,83177,5,4,0:0:0:0:
256,192,83355,12,0,84242,0:0:0:0:
146,166,84597,6,8,L|294:163,2,138,8|8|8,0:3|0:3|0:3,0:3:0:0:
448,168,85308,2,8,L|299:171,2,138,8|8|8,0:3|0:3|0:3,0:3:0:0:
180,246,86018,6,0,P|115:218|192:163,1,184,12|8,0:0|0:0,0:0:0:0:
430,158,86728,2,0,L|304:162,1,92,8|0,0:0|0:0,0:0:0:0:
192,142,87083,2,0,L|187:33,1,92,8|0,0:0|0:0,0:0:0:0:
441,48,87438,6,0,P|497:74|430:151,1,184,8|8,0:0|0:0,0:0:0:0:
291,195,87970,1,0,0:0:0:0:
445,154,88148,1,8,0:0:0:0:
291,195,88325,2,0,L|169:197,2,92,0|8|0,0:0|0:0|0:0,0:0:0:0:
54,232,88858,6,8,P|43:169|161:128,1,184
401,196,89568,2,0,L|296:197,1,92,8|0,0:0|0:0,0:0:0:0:
162,128,89923,2,0,L|158:25,1,92,8|0,0:0|0:0,0:0:0:0:
412,51,90278,6,8,L|208:45,1,184
385,143,90811,1,0,0:0:0:0:
226,206,90988,1,8,0:3:0:0:
185,189,91078,1,8,0:3:0:0:
184,145,91167,1,8,0:3:0:0:
223,126,91255,1,8,0:3:0:0:
390,94,91344,2,8,L|500:92,1,92,8|8,0:3|0:3,0:3:0:0:
214,258,91698,6,0,L|322:254,2,92,12|0|0,0:0|0:0|0:0,0:0:0:0:
472,292,92231,2,0,P|479:259|358:184,1,184,8|0,0:0|0:0,0:0:0:0:
211,171,92763,2,0,L|97:166,1,92,4|0,0:2|0:0,0:0:0:0:
356,251,93118,6,0,L|153:248,1,184,8|4,0:0|0:3,0:0:0:0:
427,197,93651,2,0,L|433:96,1,92,8|0,0:0|0:0,0:0:0:0:
267,89,94006,1,4,0:3:0:0:
358,89,94183,1,8,0:0:0:0:
450,89,94361,1,8,0:0:0:0:
200,94,94538,6,0,P|122:94|77:192,1,184,4|8,0:0|0:0,0:0:0:0:
336,207,95071,2,4,P|388:190|324:114,1,184,4|4,0:3|0:3,0:3:0:0:
184,127,95603,2,0,L|72:131,1,92,8|0,0:0|0:0,0:0:0:0:
354,109,95958,5,4,0:0:0:0:
197,114,96136,2,8,L|192:227,1,92,8|8,0:3|0:3,0:3:0:0:
430,286,96491,2,0,L|206:286,1,184,4|0,0:0|0:0,0:0:0:0:
410,184,97024,2,8,L|488:188,2,46
157,148,97379,6,0,L|148:41,1,92,4|0,0:0|0:0,0:0:0:0:
292,45,97734,2,0,L|398:48,1,92,8|4,0:1|0:3,0:0:0:0:
235,62,98089,2,0,P|160:70|124:177,1,184,0|8,0:0|0:1,0:0:0:0:
270,173,98621,1,0,0:0:0:0:
32,189,98799,6,0,P|25:127|135:78,1,184,4|8,0:3|0:1,0:0:0:0:
275,212,99332,2,0,L|74:198,1,184,4|4,0:3|0:3,0:0:0:0:
236,120,99864,1,8,0:1:0:0:
92,199,100042,1,0,0:0:0:0:
331,88,100219,6,0,L|432:91,1,92,4|0,0:3|0:0,0:0:0:0:
262,154,100574,2,0,L|358:155,1,92,8|4,0:1|0:3,0:0:0:0:
196,90,100929,2,0,L|194:-7,1,92,0|4,0:0|0:3,0:0:0:0:
358,26,101284,2,0,L|359:127,1,92,8|0,0:1|0:0,0:0:0:0:
112,183,101639,6,0,L|335:182,1,184,4|8,0:3|0:1,0:0:0:0:
60,276,102172,2,4,P|14:257|76:173,1,184,4|4,0:3|0:3,0:3:0:0:
212,166,102704,1,8,0:1:0:0:
66,169,102882,1,0,0:0:0:0:
316,122,103059,6,0,L|427:121,1,92,4|0,0:3|0:0,0:0:0:0:
254,181,103414,2,0,L|369:180,1,92,8|4,0:1|0:3,0:0:0:0:
179,219,103769,2,0,P|123:182|202:111,1,184,0|8,0:0|0:1,0:0:0:0:
331,91,104302,1,0,0:0:0:0:
74,201,104479,6,0,P|23:168|96:96,1,184,4|8,0:3|0:1,0:0:0:0:
326,175,105012,2,0,L|103:167,1,184,4|0,0:3|0:0,0:0:0:0:
291,94,105545,1,8,0:1:0:0:
143,168,105722,1,0,0:0:0:0:
401,220,105900,6,0,L|410:109,1,92,4|0,0:3|0:0,0:0:0:0:
255,91,106255,2,0,L|383:93,1,92,8|4,0:1|0:3,0:0:0:0:
193,162,106609,2,0,L|286:160,2,92,0|8|8,0:0|0:1|0:1,0:0:0:0:
45,112,107142,1,0,0:0:0:0:
326,161,107320,5,4,0:3:0:0:
183,164,107497,1,8,0:1:0:0:
326,161,107675,1,8,0:1:0:0:
183,164,107852,1,4,0:3:0:0:
429,203,108029,1,8,0:3:0:0:
476,189,108119,1,8,0:3:0:0:
474,146,108208,1,8,0:3:0:0:
428,132,108297,1,8,0:3:0:0:
216,106,108385,2,8,L|111:106,1,92,8|8,0:1|0:1,0:1:0:0:
373,266,108740,6,0,L|178:268,1,184,4|8,0:0|0:1,0:0:0:0:
437,178,109450,2,0,L|441:60,1,92,8|0,0:1|0:0,0:0:0:0:
279,72,109805,2,0,L|174:71,1,92,8|0,0:1|0:0,0:0:0:0:
439,250,110160,6,8,P|492:231|421:166,1,184,8|8,0:1|0:1,0:1:0:0:
175,176,110870,2,0,L|166:68,1,92,8|0,0:1|0:0,0:0:0:0:
314,69,111225,2,0,L|429:72,1,92,8|0,0:1|0:0,0:0:0:0:
160,144,111580,6,0,L|353:145,1,184,4|0,0:0|0:0,0:0:0:0:
94,262,112113,2,0,P|33:224|91:156,1,184,4|4,0:0|0:3,0:0:0:0:
244,168,112645,1,8,0:1:0:0:
91,155,112823,1,8,0:1:0:0:
331,231,113000,5,4,0:0:0:0:
170,190,113178,2,8,L|165:84,1,92,8|8,0:1|0:1,0:1:0:0:
404,143,113533,1,4,0:0:0:0:
261,137,113710,1,4,0:3:0:0:
219,124,113800,1,4,0:3:0:0:
199,84,113887,1,4,0:3:0:0:
217,43,113976,1,8,0:1:0:0:
259,28,114065,1,8,0:1:0:0:
404,143,114243,1,8,0:1:0:0:
147,231,114420,6,0,L|361:224,1,184,4|8,0:0|0:1,0:0:0:0:
56,175,114953,2,0,L|247:173,1,184,4|0,0:0|0:0,0:0:0:0:
84,93,115485,2,0,L|86:212,1,92,8|0,0:1|0:0,0:0:0:0:
351,265,115840,6,0,L|136:267,1,184,4|8,0:3|0:1,0:0:0:0:
317,188,116373,1,0,0:0:0:0:
168,266,116550,2,0,L|164:152,1,92,4|0,0:3|0:0,0:0:0:0:
317,188,116905,2,0,L|430:187,1,92,8|0,0:1|0:0,0:0:0:0:
168,245,117261,6,0,P|102:221|171:154,1,184,4|8,0:3|0:1,0:0:0:0:
392,184,117793,2,0,L|184:185,2,184,4|2|2,0:0|0:0|0:0,0:0:0:0:
121,113,118681,6,0,L|253:111,2,92,4|8|8,0:3|0:1|0:1,0:0:0:0:
385,264,119213,2,0,P|447:236|368:192,1,184,4|4,0:3|0:3,0:0:0:0:
133,150,119746,2,8,L|71:148,2,46,8|8|8,0:1|0:1|0:1,0:1:0:0:
385,249,120101,6,0,L|178:248,1,184,4|8,0:0|0:1,0:0:0:0:
349,175,120633,1,0,0:0:0:0:
202,248,120811,2,0,L|102:251,1,92,8|0,0:1|0:0,0:0:0:0:
268,127,121166,2,0,L|381:127,1,92,8|0,0:1|0:0,0:0:0:0:
96,229,121521,6,8,P|38:206|115:129,1,184,8|8,0:1|0:1,0:1:0:0:
338,168,122231,2,0,L|340:63,1,92,8|0,0:1|0:0,0:0:0:0:
197,55,122586,2,0,L|89:52,1,92,8|0,0:1|0:0,0:0:0:0:
359,52,122941,6,0,P|407:73|351:167,1,184,4|8,0:0|0:1,0:0:0:0:
294,162,123385,1,8,0:1:0:0:
225,159,123474,1,8,0:1:0:0:
465,236,123651,2,0,P|469:177|358:123,1,184,4|8,0:0|0:1,0:0:0:0:
312,118,124095,1,8,0:1:0:0:
140,99,124184,2,8,L|73:97,1,46,8|8,0:1|0:1,0:1:0:0:
305,210,124361,6,0,L|432:207,1,92,4|8,0:0|0:1,0:0:0:0:
236,131,124716,2,0,L|122:132,1,92,8|4,0:1|0:3,0:0:0:0:
192,182,124982,1,4,0:3:0:0:
375,120,125071,2,8,L|386:21,1,92,8|8,0:3|0:3,0:3:0:0:
135,39,125426,2,8,L|14:37,1,92,8|8,0:3|0:3,0:3:0:0:
283,41,125781,6,0,P|357:45|406:150,1,184,4|8,0:0|0:1,0:0:0:0:
107,173,126314,2,0,L|219:174,2,92,4|0|0,0:3|0:0|0:0,0:0:0:0:
350,251,126846,1,8,0:1:0:0:
208,254,127024,1,0,0:0:0:0:
445,171,127201,6,0,L|337:174,2,92,4|0|8,0:3|0:0|0:1,0:0:0:0:
296,116,127734,2,0,L|195:113,2,92,4|0|0,0:3|0:0|0:0,0:0:0:0:
142,195,128266,2,0,L|32:195,1,92,8|0,0:1|0:0,0:0:0:0:
307,90,128621,6,0,L|500:89,1,184,4|4,0:0|0:3,0:0:0:0:
226,196,129154,2,0,L|426:193,1,184,4|4,0:0|0:3,0:0:0:0:
140,112,129687,1,4,0:0:0:0:
447,220,130042,6,0,L|455:27,1,184,4|0,0:0|0:0,0:0:0:0:
368,17,130574,1,4,0:3:0:0:
130,201,130752,2,0,L|293:196,1,138,4|0,0:0|0:0,0:0:0:0:
104,272,131107,2,0,P|56:253|111:212,1,138,4|0,0:0|0:0,0:0:0:0:
290,181,131462,6,0,L|481:187,1,184,6|8,0:0|0:1,0:0:0:0:
232,271,131994,2,0,P|169:246|242:197,1,184,4|0,0:3|0:0,0:0:0:0:
381,172,132527,1,8,0:0:0:0:
232,190,132704,1,8,0:0:0:0:
475,115,132882,6,0,L|285:114,1,184,4|8,0:3|0:0,0:0:0:0:
37,217,133414,2,0,L|238:210,1,184,4|0,0:3|0:0,0:0:0:0:
66,137,133947,1,8,0:0:0:0:
221,210,134124,1,8,0:0:0:0:
473,152,134302,6,0,L|358:147,1,92,4|0,0:3|0:0,0:0:0:0:
230,124,134657,1,8,0:0:0:0:
382,148,134834,2,0,L|384:56,1,92,4|0,0:3|0:0,0:0:0:0:
112,69,135190,2,0,L|215:69,1,92,0|8,0:0|0:0,0:0:0:0:
363,119,135545,1,8,0:0:0:0:
84,227,135722,6,0,P|21:206|96:142,1,184,4|8,0:3|0:0,0:0:0:0:
318,176,136255,2,0,L|130:177,1,184,4|0,0:3|0:0,0:0:0:0:
372,83,136787,2,8,L|497:82,1,92
191,217,137142,6,0,L|381:216,1,184,4|8,0:0|0:0,0:0:0:0:
119,146,137675,2,0,L|311:143,1,184,4|0,0:3|0:0,0:0:0:0:
139,68,138207,2,8,L|16:69,1,92
310,222,138562,6,0,L|97:218,1,184,4|8,0:3|0:0,0:0:0:0:
224,152,139095,1,4,0:3:0:0:
384,127,139272,2,0,L|381:31,1,92
221,37,139627,2,8,L|112:39,1,92
383,260,139982,6,0,P|451:222|365:185,1,184,4|8,0:3|0:0,0:0:0:0:
239,168,140515,1,4,0:3:0:0:
391,129,140692,2,0,L|392:29,1,92
154,47,141048,2,8,L|40:50,1,92,8|0,0:0|0:0,0:0:0:0:
332,213,141403,6,0,L|214:206,1,92,4|0,0:3|0:0,0:0:0:0:
88,156,141758,1,8,0:0:0:0:
324,97,141935,2,0,P|424:115|432:191,1,184,4|0,0:3|0:0,0:0:0:0:
176,228,142468,1,8,0:0:0:0:
135,220,142556,1,8,0:0:0:0:
132,178,142645,1,8,0:0:0:0:
172,165,142734,1,8,0:0:0:0:
345,147,142823,6,0,L|442:148,1,92,12|0,0:0|0:0,0:0:0:0:
276,212,143178,2,0,L|395:212,1,92,8|0,0:0|0:0,0:0:0:0:
125,134,143533,2,0,L|28:135,1,92,8|0,0:0|0:0,0:0:0:0:
194,199,143888,2,0,L|75:199,1,92,8|0,0:0|0:0,0:0:0:0:
418,159,144243,6,0,L|425:45,1,92,12|0,0:0|0:0,0:0:0:0:
281,40,144598,1,8,0:0:0:0:
424,67,144775,1,0,0:0:0:0:
144,159,144953,2,0,L|137:45,1,92,8|0,0:0|0:0,0:0:0:0:
281,40,145308,1,8,0:0:0:0:
138,67,145485,1,0,0:0:0:0:
451,184,145663,6,0,L|344:185,2,92,4|8|8,0:0|0:0|0:0,0:0:0:0:
191,129,146195,2,0,L|84:126,1,92,4|0,0:0|0:0,0:0:0:0:
344,69,146550,2,0,L|342:191,1,92,0|8,0:0|0:0,0:0:0:0:
191,170,146905,1,8,0:0:0:0:
431,193,147083,6,0,L|210:197,1,184,4|8,0:0|0:0,0:0:0:0:
386,124,147616,1,4,0:3:0:0:
104,69,147793,2,8,L|36:73,2,46
339,183,148148,1,8,0:0:0:0:
191,182,148326,1,8,0:0:0:0:
440,226,148503,6,0,P|490:203|408:122,1,184,4|8,0:0|0:0,0:0:0:0:
202,230,149036,1,0,0:0:0:0:
344,147,149213,2,4,L|349:38,1,92,4|4,0:3|0:3,0:3:0:0:
178,45,149568,2,0,L|54:46,1,92,8|0,0:0|0:0,0:0:0:0:
330,242,149923,5,4,0:3:0:0:
192,235,150101,1,0,0:0:0:0:
330,242,150278,1,8,0:0:0:0:
192,235,150456,1,8,0:0:0:0:
434,170,150633,6,0,L|441:65,1,92,4|4,0:3|0:3,0:0:0:0:
381,48,150900,1,4,0:3:0:0:
220,117,150988,2,8,L|156:118,1,46
330,39,151166,2,8,L|389:40,1,46
176,195,151343,5,4,0:0:0:0:
256,192,151521,12,0,152408,0:0:0:0:
310,178,152763,5,8,0:1:0:0:
135,160,153029,2,8,L|136:4,1,138,8|8,0:1|0:1,0:1:0:0:
411,227,153473,1,8,0:1:0:0:
226,200,153739,2,8,L|372:200,1,138,8|8,0:1|0:1,0:1:0:0:
84,283,154183,6,0,P|16:255|97:228,1,184,4|8,0:0|0:0,0:0:0:0:
319,231,154716,2,0,L|119:225,1,184,4|0,0:3|0:0,0:0:0:0:
279,151,155248,1,8,0:0:0:0:
424,143,155426,1,8,0:0:0:0:
171,198,155603,6,0,P|80:207|61:297,1,184,4|8,0:3|0:0,0:0:0:0:
316,276,156136,2,0,L|98:273,1,184,4|0,0:3|0:0,0:0:0:0:
279,195,156668,2,8,L|283:78,1,92
38,88,157024,6,0,L|246:85,1,184,4|8,0:3|0:0,0:0:0:0:
148,38,157467,1,8,0:0:0:0:
74,145,157556,2,0,P|69:84|191:48,1,184,4|0,0:0|0:0,0:0:0:0:
324,123,158089,1,8,0:0:0:0:
148,38,158266,1,8,0:0:0:0:
413,123,158444,5,4,0:3:0:0:
264,225,158621,2,8,L|375:223,1,92
207,126,158976,2,0,P|117:126|88:224,1,184,4|0,0:3|0:0,0:0:0:0:
231,224,159509,1,8,0:0:0:0:
82,202,159686,1,8,0:0:0:0:
328,203,159864,6,0,L|336:84,1,92,4|0,0:3|0:0,0:0:0:0:
180,96,160219,1,8,0:0:0:0:
334,111,160396,2,0,L|436:109,1,92,4|0,0:3|0:0,0:0:0:0:
279,207,160751,2,0,L|171:205,2,92,0|8|8,0:0|0:0|0:0,0:0:0:0:
33,225,161284,6,0,L|224:225,1,184,4|8,0:0|0:0,0:0:0:0:
485,223,161816,2,0,L|273:221,1,184,4|0,0:3|0:0,0:0:0:0:
457,158,162349,2,8,L|467:55,1,92
224,133,162704,6,0,L|433:129,1,184,4|8,0:3|0:0,0:0:0:0:
265,212,163237,2,0,L|262:99,1,92,4|0,0:3|0:0,0:0:0:0:
427,103,163592,2,0,L|312:106,1,92,0|8,0:0|0:0,0:0:0:0:
175,123,163947,1,8,0:0:0:0:
475,228,164124,6,0,L|343:223,2,92,4|0|8,0:3|0:0|0:0,0:0:0:0:
231,211,164657,2,0,L|456:207,1,184,4|0,0:3|0:0,0:0:0:0:
273,128,165189,1,8,0:0:0:0:
130,97,165367,1,8,0:0:0:0:
376,202,165544,5,4,0:0:0:0:
227,193,165722,1,4,0:3:0:0:
376,202,165899,1,8,0:0:0:0:
227,193,166077,2,0,L|122:196,1,92,4|0,0:3|0:0,0:0:0:0:
297,122,166432,1,4,0:3:0:0:
135,195,166609,1,8,0:0:0:0:
297,122,166787,1,8,0:0:0:0:
54,119,166964,5,4,0:3:0:0:
209,127,167142,1,0,0:0:0:0:
54,119,167319,1,8,0:1:0:0:
209,127,167497,2,0,L|312:128,1,92,4|0,0:3|0:0,0:0:0:0:
57,221,167852,1,4,0:3:0:0:
196,221,168029,1,8,0:0:0:0:
57,221,168207,1,8,0:0:0:0:
320,143,168384,5,4,0:3:0:0:
187,136,168562,1,0,0:0:0:0:
320,143,168739,1,8,0:0:0:0:
187,136,168917,2,0,L|78:131,1,92,4|0,0:3|0:0,0:0:0:0:
368,227,169272,2,0,L|146:230,1,184,4|0,0:2|0:0,0:0:0:0:
447,296,169805,6,0,P|492:277|421:197,1,184,4|8,0:0|0:0,0:0:0:0:
195,172,170337,2,0,L|397:170,1,184,4|4,0:3|0:3,0:0:0:0:
240,88,170870,1,8,0:0:0:0:
378,170,171047,1,8,0:0:0:0:
142,249,171225,6,0,P|86:219|163:138,1,184,4|8,0:3|0:0,0:0:0:0:
201,121,171668,1,8,0:0:0:0:
270,115,171757,1,8,0:0:0:0:
127,60,171935,1,4,0:3:0:0:
270,115,172112,1,4,0:3:0:0:
29,187,172290,2,0,L|20:76,1,92,8|0,0:0|0:0,0:0:0:0:
296,212,172645,6,0,L|92:212,1,184,4|8,0:0|0:0,0:0:0:0:
392,153,173177,2,0,L|187:155,1,184,4|0,0:3|0:0,0:0:0:0:
493,84,173710,2,8,L|374:81,1,92
160,263,174065,6,0,L|265:263,1,92,4|0,0:3|0:0,0:0:0:0:
95,190,174420,2,0,L|210:191,1,92,8|0,0:0|0:0,0:0:0:0:
344,263,174775,2,0,L|239:263,1,92,4|0,0:3|0:0,0:0:0:0:
409,190,175130,2,0,L|294:191,1,92,8|0,0:0|0:0,0:0:0:0:
70,138,175485,6,0,L|185:139,2,92,4|8|8,0:0|0:0|0:0,0:0:0:0:
339,193,176018,1,4,0:3:0:0:
202,120,176195,1,8,0:0:0:0:
65,84,176373,1,8,0:0:0:0:
346,74,176550,2,8,L|412:73,2,46
96,239,176905,5,2,2:0:0:0:
49,228,176995,1,2,2:0:0:0:
48,185,177084,1,2,2:0:0:0:
98,172,177172,1,2,2:0:0:0:
206,155,177261,1,2,2:0:0:0:
251,156,177350,1,2,2:0:0:0:
297,157,177439,1,2,2:0:0:0:
343,158,177527,1,2,2:0:0:0:
245,78,177615,5,2,2:0:0:0:
199,76,177705,1,2,2:0:0:0:
153,74,177794,1,2,2:0:0:0:
107,72,177883,1,2,2:0:0:0:
207,11,177971,1,2,2:0:0:0:
252,11,178060,1,2,2:0:0:0:
298,12,178149,1,2,2:0:0:0:
344,12,178238,1,2,2:0:0:0:
141,190,178325,5,4,0:0:0:0:
256,192,178503,12,0,179390,0:0:0:0:
173,249,179745,6,0,P|114:215|199:148,1,184,4|8,0:0|0:0,0:0:0:0:
327,165,180278,2,0,L|138:164,1,184,4|4,0:3|0:3,0:0:0:0:
287,236,180811,1,2,0:0:0:0:
143,164,180988,1,2,0:0:0:0:
407,273,181166,6,0,P|460:245|388:172,1,184,4|8,0:3|0:0,0:0:0:0:
254,166,181698,2,0,L|456:160,1,184,4|4,0:3|0:3,0:0:0:0:
289,74,182231,1,2,0:0:0:0:
437,160,182408,1,2,0:0:0:0:
192,214,182586,6,0,L|192:98,1,92,4|0,0:3|0:0,0:0:0:0:
325,88,182941,1,8,0:0:0:0:
80,114,183118,2,0,L|71:14,1,92,4|0,0:3|0:0,0:0:0:0:
336,154,183473,2,0,L|232:154,2,92,4|2|2,0:3|0:0|0:0,0:0:0:0:
82,239,184006,5,4,0:3:0:0:
220,238,184183,1,0,0:0:0:0:
82,239,184361,1,8,0:0:0:0:
347,172,184538,2,0,L|127:172,1,184,4|4,0:3|0:3,0:0:0:0:
324,73,185071,2,2,L|336:198,1,92
75,273,185426,6,0,L|281:269,1,184,4|8,0:3|0:0,0:0:0:0:
116,207,185958,2,4,P|64:186|136:108,1,184,4|4,0:3|0:3,0:3:0:0:
266,88,186491,2,2,L|395:93,1,92
116,242,186846,6,0,P|123:171|242:146,1,184,4|8,0:3|0:0,0:0:0:0:
371,143,187379,1,8,0:1:0:0:
218,134,187556,2,0,L|210:16,1,92,8|8,0:0|0:1,0:0:0:0:
377,52,187911,2,0,L|385:-51,1,92,4|0,0:3|0:0,0:0:0:0:
103,251,188266,6,0,P|48:232|115:161,1,184,4|8,0:3|0:0,0:0:0:0:
343,212,188799,2,4,L|154:210,1,184,4|4,0:3|0:3,0:3:0:0:
314,145,189331,2,2,L|428:147,1,92
161,192,189686,6,0,L|364:195,1,184,4|8,0:3|0:0,0:0:0:0:
82,250,190219,2,0,P|26:216|103:156,1,184,4|8,0:3|0:1,0:0:0:0:
239,157,190751,1,0,0:0:0:0:
89,149,190929,2,8,L|166:150,1,46,8|8,0:3|0:3,0:3:0:0:
329,253,191106,6,0,P|379:229|191:118,1,460,6|0,0:0|0:0,0:0:0:0:
360,168,192171,2,8,L|370:54,1,92,8|8,0:3|0:3,0:3:0:0:
120,181,192526,5,4,0:2:0:0:
325,188,192793,1,4,0:2:0:0:
120,181,193059,1,4,0:2:0:0:
422,179,193237,1,4,0:2:0:0:
216,188,193504,1,4,0:2:0:0:
422,179,193770,1,4,0:2:0:0:
139,124,193947,6,8,L|215:116,1,46,8|8,0:3|0:3,0:3:0:0:
344,89,194124,2,8,L|416:82,1,46,8|8,0:3|0:3,0:3:0:0:
216,67,194302,2,0,L|106:68,1,92,8|2,2:3|2:0,2:0:0:0:
276,145,194657,6,0,P|343:156|360:226,1,138,4|0,2:0|2:0,2:0:0:0:
203,233,195012,2,0,L|59:226,1,138,4|0,2:0|2:0,2:0:0:0:
274,253,195368,6,0,P|346:217|269:178,1,202.400006176758,6|8,0:0|0:0,0:0:0:0:
18,172,195899,2,0,L|239:172,1,202.400006176758,4|0,0:3|0:0,0:0:0:0:
59,88,196432,1,8,0:0:0:0:
220,172,196609,1,8,0:0:0:0:
460,254,196787,6,0,L|212:251,1,202.400006176758,4|8,0:3|0:0,0:0:0:0:
496,180,197319,2,0,L|271:174,1,202.400006176758,4|0,0:3|0:0,0:0:0:0:
454,107,197852,1,8,0:0:0:0:
293,174,198029,1,8,0:0:0:0:
53,213,198207,6,0,L|51:99,1,101.200003088379,4|0,0:3|0:0,0:0:0:0:
321,92,198562,1,8,0:0:0:0:
172,85,198739,2,0,L|165:189,1,101.200003088379,4|0,0:3|0:0,0:0:0:0:
431,217,199095,2,0,L|297:211,1,101.200003088379,0|8,0:0|0:0,0:0:0:0:
163,159,199450,1,8,0:0:0:0:
421,208,199627,6,0,P|481:182|396:105,1,202.400006176758,4|8,0:3|0:0,0:0:0:0:
176,156,200160,1,4,0:3:0:0:
315,113,200337,1,0,0:0:0:0:
455,94,200515,1,0,0:0:0:0:
176,156,200692,2,8,L|45:157,1,101.200003088379
346,256,201047,6,0,L|134:254,1,202.400006176758,4|8,0:0|0:0,0:0:0:0:
414,298,201580,2,0,P|474:272|391:199,1,202.400006176758,4|0,0:3|0:0,0:0:0:0:
162,154,202112,2,8,L|59:157,1,101.200003088379
311,234,202467,6,0,L|101:239,1,202.400006176758,4|8,0:3|0:0,0:0:0:0:
210,180,203000,1,4,0:3:0:0:
455,133,203177,2,0,L|238:132,1,202.400006176758,0|8,0:0|0:0,0:0:0:0:
360,199,203710,1,8,0:0:0:0:
112,237,203887,6,0,P|42:201|117:149,1,202.400006176758,4|8,0:3|0:0,0:0:0:0:
271,147,204420,1,4,0:3:0:0:
114,147,204597,2,0,L|111:35,1,101.200003088379
360,35,204953,1,8,0:0:0:0:
208,30,205130,1,8,0:0:0:0:
451,60,205308,6,0,L|455:181,1,101.200003088379,4|0,0:3|0:0,0:0:0:0:
205,182,205663,2,0,L|86:181,1,101.200003088379,8|0,0:0|0:0,0:0:0:0:
256,111,206018,2,0,L|362:106,1,101.200003088379,4|0,0:3|0:0,0:0:0:0:
196,65,206373,1,8,0:0:0:0:
150,75,206461,1,8,0:0:0:0:
150,122,206550,1,8,0:0:0:0:
195,132,206639,1,8,0:0:0:0:
393,145,206728,6,0,L|511:144,2,101.200003088379,4|0|8,0:2|0:0|0:0,0:0:0:0:
231,143,207260,1,0,0:0:0:0:
393,145,207438,2,0,L|276:144,2,101.200003088379,8|0|8,0:0|0:0|0:0,0:0:0:0:
231,143,207970,1,0,0:0:0:0:
482,144,208148,6,0,L|356:139,1,101.200003088379,4|0,0:2|0:0,0:0:0:0:
231,143,208503,1,8,0:0:0:0:
380,139,208680,1,0,0:0:0:0:
100,210,208858,2,0,L|226:205,1,101.200003088379,8|0,0:0|0:0,0:0:0:0:
351,209,209213,1,8,0:0:0:0:
202,205,209390,1,0,0:0:0:0:
475,146,209568,5,4,0:2:0:0:
329,131,209745,1,0,0:0:0:0:
475,146,209923,1,8,0:0:0:0:
220,78,210100,2,0,L|105:83,1,101.200003088379,4|4,0:2|0:3,0:0:0:0:
366,61,210455,2,0,L|373:175,1,101.200003088379,0|8,0:0|0:0,0:0:0:0:
128,168,210811,1,0,0:0:0:0:
410,79,210988,6,0,L|182:79,1,202.400006176758,4|8,0:2|0:0,0:0:0:0:
372,162,211521,1,4,0:3:0:0:
132,233,211698,1,4,0:3:0:0:
86,226,211788,1,4,0:3:0:0:
88,180,211877,1,4,0:3:0:0:
134,177,211965,1,4,0:3:0:0:
352,66,212054,2,0,L|468:67,1,101.200003088379,4|4,0:2|0:3,0:0:0:0:
215,31,212408,6,0,P|129:36|82:149,1,202.400006176758,4|8,0:0|0:0,0:0:0:0:
234,166,212941,1,4,0:3:0:0:
78,130,213118,2,0,L|78:13,1,101.200003088379
231,30,213473,1,8,0:0:0:0:
86,27,213651,1,0,0:0:0:0:
332,189,213828,5,4,0:3:0:0:
172,187,214006,1,4,0:3:0:0:
421,137,214183,1,8,0:0:0:0:
172,187,214361,2,0,L|167:73,1,101.200003088379,0|4,0:0|0:3,0:0:0:0:
433,65,214716,6,4,L|347:62,1,50.6000015441895,4|4,0:3|0:3,0:3:0:0:
214,51,214893,1,4,0:3:0:0:
161,55,214983,1,4,0:3:0:0:
161,101,215072,1,4,0:3:0:0:
217,109,215161,1,4,0:3:0:0:
418,206,215248,6,0,P|476:189|399:102,1,202.400006176758,4|8,0:0|0:0,0:0:0:0:
171,246,215781,2,0,L|385:250,1,202.400006176758,4|0,0:3|0:0,0:0:0:0:
101,176,216313,1,8,0:0:0:0:
55,166,216403,1,8,0:0:0:0:
53,119,216492,1,8,0:0:0:0:
99,107,216581,1,8,0:0:0:0:
306,157,216668,6,4,L|461:156,2,151.800004632569,4|4|4,0:2|0:2|0:2,0:2:0:0:
38,118,217379,1,4,0:2:0:0:
260,67,217645,1,4,0:2:0:0:
481,60,217911,1,4,0:2:0:0:
210,265,218089,6,0,P|138:229|215:190,1,202.400006176758,4|8,0:0|0:0,0:0:0:0:
497,181,218621,2,0,L|276:181,1,202.400006176758,4|0,0:3|0:0,0:0:0:0:
455,94,219154,1,8,0:0:0:0:
294,181,219331,1,8,0:0:0:0:
56,255,219509,6,0,L|304:252,1,202.400006176758,4|8,0:3|0:0,0:0:0:0:
16,180,220041,2,0,L|241:174,1,202.400006176758,4|0,0:3|0:0,0:0:0:0:
58,108,220574,1,8,0:0:0:0:
219,174,220751,1,8,0:0:0:0:
459,213,220929,6,0,L|461:99,1,101.200003088379,4|0,0:3|0:0,0:0:0:0:
191,92,221284,1,8,0:0:0:0:
340,85,221461,2,0,L|347:189,1,101.200003088379,4|0,0:3|0:0,0:0:0:0:
81,217,221817,2,0,L|215:211,1,101.200003088379,0|8,0:0|0:0,0:0:0:0:
349,159,222172,1,8,0:0:0:0:
91,208,222349,6,0,P|31:182|116:105,1,202.400006176758,4|8,0:3|0:0,0:0:0:0:
336,156,222882,1,4,0:3:0:0:
197,113,223059,1,0,0:0:0:0:
57,94,223237,1,0,0:0:0:0:
336,156,223414,2,8,L|467:157,1,101.200003088379
166,256,223769,6,0,L|378:254,1,202.400006176758,4|8,0:0|0:0,0:0:0:0:
98,298,224302,2,0,P|38:272|121:199,1,202.400006176758,4|0,0:3|0:0,0:0:0:0:
350,154,224834,2,8,L|453:157,1,101.200003088379
201,234,225189,6,0,L|411:239,1,202.400006176758,4|8,0:3|0:0,0:0:0:0:
302,180,225722,1,4,0:3:0:0:
57,133,225899,2,0,L|274:132,1,202.400006176758,0|8,0:0|0:0,0:0:0:0:
152,199,226432,1,8,0:0:0:0:
400,237,226609,6,0,P|470:201|395:149,1,202.400006176758,4|8,0:3|0:0,0:0:0:0:
241,147,227142,1,4,0:3:0:0:
398,147,227319,2,0,L|401:35,1,101.200003088379
158,39,227675,1,8,0:0:0:0:
304,30,227852,1,8,0:0:0:0:
61,60,228030,6,0,L|57:181,1,101.200003088379,4|0,0:3|0:0,0:0:0:0:
307,182,228385,2,0,L|426:181,1,101.200003088379,8|4,0:0|0:3,0:0:0:0:
256,111,228740,2,0,L|150:106,1,101.200003088379,8|4,0:0|0:3,0:0:0:0:
316,65,229095,1,8,0:0:0:0:
362,75,229183,1,8,0:0:0:0:
362,122,229272,1,8,0:0:0:0:
317,132,229361,1,8,0:0:0:0:
119,145,229450,6,0,L|1:144,2,101.200003088379,4|0|8,0:2|0:0|0:0,0:0:0:0:
281,143,229982,1,0,0:0:0:0:
119,145,230160,2,0,L|236:144,2,101.200003088379,8|0|8,0:0|0:0|0:0,0:0:0:0:
281,143,230692,1,0,0:0:0:0:
30,144,230870,6,0,L|156:139,1,101.200003088379,4|0,0:2|0:0,0:0:0:0:
281,143,231225,1,8,0:0:0:0:
132,139,231402,1,0,0:0:0:0:
412,210,231580,2,0,L|286:205,1,101.200003088379,8|0,0:0|0:0,0:0:0:0:
161,209,231935,1,8,0:0:0:0:
310,205,232112,1,0,0:0:0:0:
37,146,232290,5,4,0:2:0:0:
183,131,232467,1,8,0:0:0:0:
37,146,232645,1,8,0:0:0:0:
292,78,232822,2,0,L|407:83,1,101.200003088379,4|8,0:2|0:0,0:0:0:0:
146,61,233177,2,0,L|139:175,1,101.200003088379,4|8,0:2|0:0,0:0:0:0:
384,168,233533,1,8,0:0:0:0:
146,62,233710,6,0,L|374:62,1,202.400006176758,4|8,0:0|0:0,0:0:0:0:
175,146,234243,1,0,0:0:0:0:
417,143,234420,1,4,0:3:0:0:
463,137,234510,1,4,0:3:0:0:
466,90,234598,1,4,0:3:0:0:
421,78,234687,1,4,0:3:0:0:
192,51,234775,2,8,L|76:52,1,101.200003088379
327,38,235130,6,0,P|413:43|460:156,1,202.400006176758,4|8,0:0|0:0,0:0:0:0:
296,164,235663,1,4,0:3:0:0:
463,137,235840,2,0,L|463:20,1,101.200003088379
301,34,236195,1,8,0:0:0:0:
463,35,236373,1,0,0:0:0:0:
189,190,236550,5,4,0:3:0:0:
340,187,236728,1,0,0:0:0:0:
99,137,236905,1,8,0:0:0:0:
340,187,237083,2,0,L|345:73,1,101.200003088379,4|0,0:3|0:0,0:0:0:0:
79,65,237438,2,8,L|165:62,1,50.6000015441895
298,51,237615,1,8,0:0:0:0:
351,55,237705,1,8,0:0:0:0:
351,101,237794,1,8,0:0:0:0:
295,109,237883,1,8,0:0:0:0:
97,174,237970,5,4,0:0:0:0:
256,192,238148,12,0,239035,0:0:0:0:
411,150,239390,5,4,0:0:0:0:
207,89,239657,1,4,0:0:0:0:
411,150,239923,1,4,0:0:0:0:
105,178,240100,5,4,0:0:0:0:
310,115,240367,1,4,0:0:0:0:
105,178,240633,1,4,0:0:0:0:
422,267,240812,6,0,P|477:237|412:143,1,202.400006176758,4|8,0:0|0:0,0:0:0:0:
133,209,241344,2,0,L|335:204,1,184,4|0,0:3|0:0,0:0:0:0:
71,159,241876,2,8,L|65:43,1,92
356,136,242231,6,0,L|157:133,1,184,4|8,0:3|0:0,0:0:0:0:
407,234,242764,2,0,L|409:119,1,92,4|0,0:3|0:0,0:0:0:0:
132,108,243119,2,0,L|239:105,2,92,0|8|8,0:0|0:0|0:0,0:0:0:0:
379,244,243651,6,0,L|160:246,1,184,4|8,0:0|0:0,0:0:0:0:
435,184,244184,2,0,P|490:147|412:78,1,184,4|0,0:3|0:0,0:0:0:0:
165,69,244716,2,8,L|42:74,1,92
329,238,245071,6,0,L|131:229,1,184,4|8,0:3|0:0,0:0:0:0:
417,175,245604,2,0,L|425:65,1,92,4|0,0:3|0:0,0:0:0:0:
187,79,245959,2,0,L|393:85,1,184,8|0,0:0|0:0,0:0:0:0:
51,214,246491,6,0,L|42:104,1,92,4|0,0:3|0:0,0:0:0:0:
291,118,246846,2,0,L|407:115,1,92,8|0,0:0|0:0,0:0:0:0:
227,201,247202,2,0,L|124:202,1,92,4|0,0:3|0:0,0:0:0:0:
291,118,247557,2,0,L|407:115,1,92,8|0,0:0|0:0,0:0:0:0:
86,275,247912,6,0,P|20:246|99:197,1,184,4|8,0:0|0:0,0:0:0:0:
318,225,248444,2,0,L|102:215,1,184,4|0,0:3|0:0,0:0:0:0:
369,122,248977,2,8,L|502:123,1,92
134,176,249332,6,0,L|118:48,1,92,4|0,0:3|0:0,0:0:0:0:
360,45,249687,2,0,L|484:47,1,92,8|0,0:0|0:0,0:0:0:0:
295,144,250042,2,0,L|403:143,1,92,4|0,0:3|0:0,0:0:0:0:
219,209,250397,2,0,L|106:212,1,92,8|0,0:0|0:0,0:0:0:0:
367,296,250752,5,4,0:3:0:0:
220,226,250929,2,0,L|209:107,1,92,8|4,0:0|0:3,0:0:0:0:
451,114,251284,2,0,L|249:106,1,184,4|0,0:3|0:0,0:0:0:0:
435,177,251817,2,8,L|511:176,2,46
170,238,252172,6,0,L|397:237,1,184,4|8,0:2|0:0,0:0:0:0:
72,210,252882,2,0,L|61:102,1,92,8|0,0:0|0:0,0:0:0:0:
217,85,253237,1,8,0:0:0:0:
63,118,253415,1,0,0:0:0:0:
305,61,253592,6,0,P|388:68|419:178,1,184,4|8,0:2|0:0,0:0:0:0:
263,167,254125,1,0,0:0:0:0:
426,151,254302,1,8,0:0:0:0:
263,167,254480,2,0,L|134:162,2,92,0|8|0,0:0|0:0|0:0,0:0:0:0:
20,251,255012,6,0,L|10:58,1,184,4|8,0:2|0:0,0:0:0:0:
289,137,255722,2,0,L|171:128,1,92,8|0,0:0|0:0,0:0:0:0:
322,57,256077,2,0,L|418:57,1,92,8|0,0:0|0:0,0:0:0:0:
176,223,256432,6,0,P|121:198|188:114,1,184,4|8,0:2|0:0,0:0:0:0:
326,105,256965,1,0,0:0:0:0:
76,75,257142,6,4,L|159:64,1,46,4|4,0:3|0:3,0:3:0:0:
273,27,257320,2,4,L|345:22,1,46,4|4,0:3|0:3,0:3:0:0:
273,27,257497,1,8,0:0:0:0:
228,94,257587,1,8,0:0:0:0:
275,118,257675,1,8,0:0:0:0:
321,147,257764,1,8,0:0:0:0:
110,270,257852,6,0,P|43:245|120:224,1,184,4|8,0:0|0:0,0:0:0:0:
347,217,258385,2,0,L|132:207,1,184,4|0,0:3|0:0,0:0:0:0:
399,116,258917,2,8,L|499:112,1,92
211,185,259273,6,0,L|399:182,1,184,4|8,0:3|0:0,0:0:0:0:
131,155,259805,2,0,L|121:44,1,92,4|0,0:3|0:0,0:0:0:0:
417,79,260160,2,0,L|305:73,2,92,0|8|8,0:0|0:0|0:0,0:0:0:0:
176,208,260693,6,0,L|389:211,1,184,4|8,0:3|0:0,0:0:0:0:
96,281,261225,2,0,P|42:261|110:173,1,184,4|0,0:3|0:0,0:0:0:0:
231,157,261758,1,8,0:0:0:0:
82,168,261935,1,8,0:0:0:0:
337,155,262113,5,4,0:2:0:0:
196,109,262290,2,8,L|186:7,1,92
424,92,262645,2,0,L|223:89,1,184,4|0,0:2|0:0,0:0:0:0:
400,156,263178,2,8,L|472:156,2,46
265,164,263532,6,0,L|379:225,1,92,2|0,0:0|0:0,0:0:0:0:
83,243,263887,2,0,P|31:218|112:150,1,184,4|0,0:2|0:0,0:0:0:0:
368,197,264420,2,0,P|430:172|357:115,1,184,4|0,0:2|0:0,0:0:0:0:
98,142,264953,5,4,0:2:0:0:
256,192,265130,12,0,269213,0:0:0:0:
