osu file format v14

[General]
AudioFilename: audio.ogg
AudioLeadIn: 0
PreviewTime: 62224
Countdown: 0
SampleSet: Soft
StackLeniency: 0.2
Mode: 0
LetterboxInBreaks: 0
WidescreenStoryboard: 0

[Editor]
DistanceSpacing: 1
BeatDivisor: 4
GridSize: 4
TimelineZoom: 2.7

[Metadata]
Title:Garasu no Hanazono
TitleUnicode:硝子の花園
Artist:Ayase Eli (CV: Nanjo Yoshino) & Tojo Nozomi (CV: Kusuda Aina)
ArtistUnicode:絢瀬絵里 (CV: 南條愛乃) & 東條希 (CV: 楠田亜衣奈)
Creator:God Haachama
Version:Insane
Source:ラブライブ!School idol project
Tags:LoveLive! sif festival µ's u's Muse Garden of Glass NozoEli Eri videogame japanese jpop j-pop pop anime yuri gay lesbian Nanjou Toujou Zekk Shirahane Suou Kirishima- Skyflame Vaporfly red crewmate
BeatmapID:3559682
BeatmapSetID:1741262

[Difficulty]
HPDrainRate:5
CircleSize:4.3
OverallDifficulty:8.7
ApproachRate:9
SliderMultiplier:1.6
SliderTickRate:1

[Events]
//Background and Video events
0,0,"girls.jpg",0,0
//Break Periods
//Storyboard Layer 0 (Background)
//Storyboard Layer 1 (Fail)
//Storyboard Layer 2 (Pass)
//Storyboard Layer 3 (Foreground)
//Storyboard Layer 4 (Overlay)
//Storyboard Sound Samples

[TimingPoints]
528,355.029585798817,4,2,1,70,1,0
528,-125,4,2,1,70,0,0
705,-125,4,2,1,5,0,0
794,-125,4,2,1,70,0,0
971,-125,4,2,1,5,0,0
1060,-200,4,2,1,70,0,0
1948,-200,4,2,1,60,0,0
2303,-90.9090909090909,4,2,1,60,0,0
3368,-111.111111111111,4,2,1,70,0,0
3545,-111.111111111111,4,2,1,5,0,0
3634,-111.111111111111,4,2,1,70,0,0
3812,-111.111111111111,4,2,1,5,0,0
3900,-125,4,2,1,70,0,0
4255,-125,4,2,1,60,0,0
4788,-66.6666666666667,4,2,1,50,0,0
4965,-66.6666666666667,4,2,1,5,0,0
5054,-66.6666666666667,4,2,1,60,0,0
5232,-66.6666666666667,4,2,1,5,0,0
5320,-66.6666666666667,4,2,1,50,0,0
5498,-83.3333333333333,4,2,1,60,0,0
5675,-83.3333333333333,4,2,1,5,0,0
5764,-83.3333333333333,4,2,1,70,0,0
5942,-83.3333333333333,4,2,1,5,0,0
6030,-83.3333333333333,4,2,1,60,0,0
6208,-90.9090909090909,4,2,1,75,0,0
8959,-90.9090909090909,4,2,1,5,0,0
9048,-90.9090909090909,4,2,1,75,0,0
11800,-90.9090909090909,4,2,1,5,0,0
11888,-90.9090909090909,4,2,1,75,0,0
13220,-90.9090909090909,4,2,1,5,0,0
13309,-90.9090909090909,4,2,1,75,0,0
14374,-125,4,2,1,75,0,0
14640,-125,4,2,1,5,0,0
14729,-90.9090909090909,4,2,1,75,0,0
16060,-90.9090909090909,4,2,1,5,0,0
16149,-90.9090909090909,4,2,1,75,0,0
20675,-90.9090909090909,4,2,1,5,0,0
20764,-90.9090909090909,4,2,1,75,0,0
24581,-90.9090909090909,4,2,1,5,0,0
24670,-90.9090909090909,4,2,1,75,0,0
25735,-125,4,2,1,75,0,0
26001,-125,4,2,1,5,0,0
26090,-90.9090909090909,4,2,1,75,0,0
27510,-90.9090909090909,4,2,1,70,0,0
28397,-90.9090909090909,4,2,1,60,0,0
28930,-125,4,2,1,50,0,0
29906,-125,4,2,1,5,0,0
29995,-125,4,2,1,50,0,0
35587,-125,4,2,1,5,0,0
35675,-125,4,2,1,50,0,0
39936,-125,4,2,1,55,0,0
40025,-125,4,2,1,60,0,0
40113,-125,4,2,1,65,0,0
40202,-125,4,2,1,70,0,0
40291,-125,4,2,1,75,0,0
40646,-111.111111111111,4,2,1,75,0,0
41977,-111.111111111111,4,2,1,5,0,0
42066,-111.111111111111,4,2,1,75,0,0
43131,-111.111111111111,4,2,1,70,0,0
43397,-111.111111111111,4,2,1,5,0,0
43486,-111.111111111111,4,2,1,70,0,0
43930,-111.111111111111,4,2,1,5,0,0
44019,-111.111111111111,4,2,1,70,0,0
45971,-111.111111111111,4,2,1,60,0,0
47303,-111.111111111111,4,2,1,5,0,0
47391,-111.111111111111,4,2,1,60,0,0
48723,-111.111111111111,4,2,1,5,0,0
48812,-111.111111111111,4,2,1,60,0,0
49078,-111.111111111111,4,2,1,5,0,0
49167,-111.111111111111,4,2,1,60,0,0
50143,-111.111111111111,4,2,1,5,0,0
50232,-111.111111111111,4,2,1,60,0,0
51119,-71.4285714285714,4,2,1,60,0,0
51297,-71.4285714285714,4,2,1,70,0,0
51652,-71.4285714285714,4,2,1,75,0,0
52007,-100,4,2,1,75,0,0
54492,-125,4,2,1,70,0,0
54758,-125,4,2,1,5,0,0
54847,-90.9090909090909,4,2,1,70,0,0
54936,-90.9090909090909,4,2,1,67,0,0
55025,-90.9090909090909,4,2,1,64,0,0
55113,-90.9090909090909,4,2,1,61,0,0
55202,-111.111111111111,4,2,1,60,0,0
55468,-111.111111111111,4,2,1,5,0,0
55557,-83.3333333333333,4,2,1,60,0,0
55646,-83.3333333333333,4,2,1,63,0,0
55735,-83.3333333333333,4,2,1,66,0,0
55823,-83.3333333333333,4,2,1,69,0,0
55912,-83.3333333333333,4,2,1,70,0,0
57332,-100,4,2,1,70,0,0
59817,-166.666666666667,4,2,1,70,0,0
60084,-166.666666666667,4,2,1,5,0,0
60172,-166.666666666667,4,2,1,70,0,0
60705,-142.857142857143,4,2,1,70,0,0
60971,-142.857142857143,4,2,1,5,0,0
61060,-142.857142857143,4,2,1,70,0,0
61238,-125,4,2,1,70,0,0
61504,-125,4,2,1,5,0,0
61593,-125,4,2,1,70,0,0
62125,-62.5,4,2,1,70,0,0
62347,-62.5,4,2,1,50,0,0
62658,-100,4,2,1,70,0,0
63013,-90.9090909090909,4,2,3,80,0,0
63900,-90.9090909090909,4,2,5,80,0,0
64078,-90.9090909090909,4,2,4,80,0,0
64255,-90.9090909090909,4,2,5,80,0,0
64433,-90.9090909090909,4,2,3,80,0,0
65320,-90.9090909090909,4,2,5,80,0,0
65498,-90.9090909090909,4,2,4,80,0,0
65675,-90.9090909090909,4,2,2,80,0,0
66119,-90.9090909090909,4,2,2,5,0,0
66208,-90.9090909090909,4,2,6,80,0,0
66741,-90.9090909090909,4,2,7,80,0,0
66918,-90.9090909090909,4,2,1,80,0,0
67096,-90.9090909090909,4,2,8,80,0,0
67273,-90.9090909090909,4,2,1,80,0,0
68338,-90.9090909090909,4,2,3,80,0,0
68604,-90.9090909090909,4,2,3,5,0,0
68693,-90.9090909090909,4,2,5,80,0,0
69758,-90.9090909090909,4,2,3,80,0,0
70113,-90.9090909090909,4,2,8,80,0,0
70468,-90.9090909090909,4,2,3,80,0,0
70823,-90.9090909090909,4,2,5,80,0,0
71178,-90.9090909090909,4,2,4,80,0,0
71800,-90.9090909090909,4,2,4,5,0,0
71888,-90.9090909090909,4,2,4,80,0,0
72066,-90.9090909090909,4,2,2,80,0,0
72421,-90.9090909090909,4,2,1,80,0,0
72865,-90.9090909090909,4,2,1,5,0,0
72954,-90.9090909090909,4,2,1,80,0,0
73309,-90.9090909090909,4,2,9,80,0,0
73486,-90.9090909090909,4,2,1,80,0,0
73664,-90.9090909090909,4,2,4,80,0,0
74019,-90.9090909090909,4,2,2,80,0,0
74107,-90.9090909090909,4,2,1,80,0,0
74374,-90.9090909090909,4,2,6,80,0,0
74729,-90.9090909090909,4,2,11,80,0,0
74906,-90.9090909090909,4,2,6,80,0,0
75084,-90.9090909090909,4,2,1,80,0,0
75794,-90.9090909090909,4,2,10,80,0,0
76504,-90.9090909090909,4,2,1,80,0,0
77214,-90.9090909090909,4,2,4,80,0,0
77569,-90.9090909090909,4,2,10,80,0,0
77746,-90.9090909090909,4,2,4,80,0,0
78101,-90.9090909090909,4,2,5,80,0,0
78456,-90.9090909090909,4,2,3,80,0,0
78989,-90.9090909090909,4,2,5,80,0,0
79344,-90.9090909090909,4,2,3,80,0,0
79433,-90.9090909090909,4,2,1,80,0,0
79699,-90.9090909090909,4,2,8,80,0,0
79877,-62.5,4,2,1,80,0,0
80054,-90.9090909090909,4,2,7,80,0,0
80409,-90.9090909090909,4,2,1,80,0,0
80764,-90.9090909090909,4,2,4,80,0,0
81474,-90.9090909090909,4,2,8,80,0,0
81829,-90.9090909090909,4,2,3,80,0,0
82007,-90.9090909090909,4,2,5,80,0,0
82184,-62.5,4,2,1,80,0,0
82362,-62.5,4,2,3,80,0,0
82451,-62.5,4,2,1,80,0,0
82717,-62.5,4,2,3,80,0,0
82806,-62.5,4,2,1,80,0,0
82894,-62.5,4,2,5,80,0,1
83959,-62.5,4,2,5,75,0,0
84314,-71.4285714285714,4,2,4,60,0,0
84492,-71.4285714285714,4,2,4,5,0,0
84581,-71.4285714285714,4,2,1,70,0,0
84758,-71.4285714285714,4,2,1,5,0,0
84847,-71.4285714285714,4,2,1,60,0,0
85025,-71.4285714285714,4,2,1,70,0,0
85202,-71.4285714285714,4,2,1,5,0,0
85291,-71.4285714285714,4,2,1,80,0,0
85468,-71.4285714285714,4,2,1,5,0,0
85557,-71.4285714285714,4,2,1,70,0,0
85735,-90.9090909090909,4,2,1,75,0,0
88486,-90.9090909090909,4,2,1,5,0,0
88575,-90.9090909090909,4,2,1,75,0,0
91326,-90.9090909090909,4,2,1,5,0,0
91415,-90.9090909090909,4,2,1,75,0,0
92746,-90.9090909090909,4,2,1,5,0,0
92835,-90.9090909090909,4,2,1,75,0,0
93900,-125,4,2,1,75,0,0
94167,-125,4,2,1,5,0,0
94255,-90.9090909090909,4,2,1,75,0,0
95587,-90.9090909090909,4,2,1,5,0,0
95675,-90.9090909090909,4,2,1,75,0,0
99936,-90.9090909090909,4,2,1,75,0,0
100202,-90.9090909090909,4,2,1,5,0,0
100291,-90.9090909090909,4,2,1,75,0,0
104107,-90.9090909090909,4,2,1,5,0,0
104196,-90.9090909090909,4,2,1,75,0,0
105261,-125,4,2,1,75,0,0
105528,-125,4,2,1,5,0,0
105616,-90.9090909090909,4,2,1,75,0,0
107569,-166.666666666667,4,2,1,75,0,0
108812,-68.9655172413793,4,2,1,70,0,0
109255,-166.666666666667,4,2,1,5,0,0
109344,-68.9655172413793,4,2,1,75,0,0
109788,-166.666666666667,4,2,1,5,0,0
109877,-312.5,4,2,1,80,0,0
112007,-312.5,4,2,1,70,0,0
112362,-312.5,4,2,1,60,0,0
112717,-312.5,4,2,1,50,0,0
113072,-312.5,4,2,1,40,0,0
113427,-312.5,4,2,1,30,0,0
113782,-312.5,4,2,1,20,0,0
114137,-312.5,4,2,1,10,0,0
114492,-136.986301369863,4,2,1,5,0,0

[Colours]
Combo1 : 160,66,255
Combo2 : 255,255,138
Combo3 : 62,158,255
Combo4 : 155,155,206

[HitObjects]
419,182,528,6,0,L|407:245,1,64,14|0,1:2|0:0,0:0:0:0:
502,328,794,6,0,P|505:296|513:265,1,64,10|0,0:0|0:0,0:0:0:0:
402,340,1060,6,0,P|307:355|232:292,1,200,14|0,1:2|1:2,0:0:0:0:
111,144,2125,1,8,0:0:0:0:
69,242,2303,1,8,0:0:0:0:
69,242,2391,2,0,L|155:226,1,88.000002685547,0|8,1:2|0:3,0:0:0:0:
227,153,2658,1,4,0:3:0:0:
233,146,2746,2,0,L|217:59,1,88.000002685547,12|12,0:3|0:3,0:0:0:0:
283,7,3013,1,12,0:3:0:0:
283,7,3101,1,4,0:3:0:0:
283,7,3190,1,8,0:3:0:0:
499,134,3368,6,0,P|466:119|430:120,1,71.9999978027344,14|0,1:2|0:0,0:0:0:0:
336,99,3634,6,0,L|348:169,1,71.9999978027344,10|0,0:0|0:0,0:0:0:0:
287,245,3900,6,0,B|259:226|223:231|223:231|204:258|175:267,1,128,14|0,1:2|1:2,0:0:0:0:
348,169,4433,1,8,0:0:0:0:
348,169,4788,6,0,B|318:143|318:143|334:95|334:95|340:116|346:121,1,120.000004577637,10|0,0:0|0:0,0:0:0:0:
415,263,5054,6,0,B|445:237|445:237|429:189|429:189|423:210|416:215,1,120.000004577637,10|0,0:3|0:0,0:0:0:0:
357,341,5320,5,6,0:3:0:0:
281,281,5498,6,0,P|234:280|194:305,1,95.9999970703126,10|0,0:0|0:0,0:0:0:0:
118,248,5764,6,0,L|134:153,1,95.9999970703126,2|0,1:2|0:0,0:0:0:0:
76,78,6030,5,2,1:2:0:0:
41,328,6208,6,0,P|112:280|193:304,1,176.000005371094,6|8,1:2|0:0,0:0:0:0:
401,209,6741,2,0,P|319:233|248:185,1,176.000005371094,0|0,1:2|1:2,0:0:0:0:
174,100,7273,2,0,L|189:13,1,88.000002685547,10|0,0:0|0:0,0:0:0:0:
37,143,7628,6,0,L|21:56,1,88.000002685547,2|0,1:2|0:0,0:0:0:0:
158,221,7983,1,10,0:0:0:0:
104,312,8161,2,0,P|64:329|20:328,1,88.000002685547,10|0,0:0|0:0,0:0:0:0:
46,235,8516,1,2,1:2:0:0:
193,358,8693,2,0,L|322:380,1,132.00000402832,8|0,0:0|0:0,0:0:0:0:
390,338,9048,6,0,B|390:278|413:220|413:220|395:246|369:253,1,176.000005371094,2|8,1:2|0:0,0:0:0:0:
268,156,9581,2,0,B|244:110|276:42|276:42|279:75|299:93,1,176.000005371094,0|0,1:2|1:2,0:0:0:0:
175,179,10113,2,0,L|88:163,1,88.000002685547,10|0,0:0|0:0,0:0:0:0:
299,92,10468,6,0,L|385:107,1,88.000002685547,2|0,1:2|0:0,0:0:0:0:
231,20,10823,1,10,0:0:0:0:
333,186,11001,2,0,P|372:204|416:202,1,88.000002685547,10|0,0:0|0:0,0:0:0:0:
385,107,11356,1,2,1:2:0:0:
259,245,11533,2,0,L|282:374,1,132.00000402832,8|0,0:0|0:0,0:0:0:0:
365,381,11888,2,0,P|373:335|351:295,1,88.000002685547,2|0,1:2|0:0,0:0:0:0:
161,257,12243,6,0,L|74:272,1,88.000002685547,10|0,0:0|1:2,0:0:0:0:
160,88,12599,2,0,L|73:72,1,88.000002685547,2|0,0:0|1:2,0:0:0:0:
243,176,12954,2,0,B|279:168|300:143|300:143|330:139|362:159,1,132.00000402832,10|0,0:0|0:0,0:0:0:0:
435,128,13309,6,0,L|450:41,1,88.000002685547,2|0,1:2|0:0,0:0:0:0:
328,243,13664,1,10,0:0:0:0:
393,317,13841,2,0,P|431:336|475:334,1,88.000002685547,10|0,0:0|0:0,0:0:0:0:
450,242,14196,1,2,1:2:0:0:
297,358,14374,2,0,P|256:333|201:333,1,96,8|0,0:0|0:0,0:0:0:0:
117,297,14729,2,0,P|126:340|132:383,1,88.000002685547,2|0,1:2|0:0,0:0:0:0:
227,216,15084,6,0,L|242:129,1,88.000002685547,10|0,0:0|1:2,0:0:0:0:
161,14,15439,2,0,P|139:51|143:94,1,88.000002685547,2|0,0:0|1:2,0:0:0:0:
326,188,15794,2,0,P|385:161|447:177,1,132.00000402832,10|0,0:0|0:0,0:0:0:0:
469,165,16149,5,2,1:2:0:0:
412,339,16326,2,0,P|392:300|395:256,1,88.000002685547,2|8,1:2|0:0,0:0:0:0:
217,305,16681,2,0,B|138:335|136:256|49:282,1,176.000005371094,6|8,1:2|0:0,0:0:0:0:
95,384,17214,1,8,0:0:0:0:
95,384,17303,1,8,0:0:0:0:
95,384,17391,1,0,1:2:0:0:
231,215,17569,6,0,L|215:128,1,88.000002685547,6|0,1:2|0:0,0:0:0:0:
312,255,17924,2,0,P|352:271|396:268,1,88.000002685547,8|0,0:0|0:0,0:0:0:0:
127,165,18279,2,0,P|83:163|42:178,1,88.000002685547,8|0,0:0|1:2,0:0:0:0:
0,257,18634,1,10,0:0:0:0:
68,76,18812,1,0,1:2:0:0:
196,224,18989,6,0,L|180:310,1,88.000002685547,14|0,0:0|0:0,0:0:0:0:
387,124,19344,1,10,0:0:0:0:
279,77,19522,2,0,L|294:163,1,88.000002685547,2|8,0:0|0:0,0:0:0:0:
486,311,19877,1,2,1:2:0:0:
382,347,20054,2,0,L|397:260,1,88.000002685547,8|0,0:0|1:2,0:0:0:0:
232,285,20409,6,0,P|166:284|112:320,1,132.00000402832,14|0,0:0|0:0,0:0:0:0:
42,283,20764,2,0,P|21:244|24:201,1,88.000002685547,8|0,0:0|0:0,0:0:0:0:
137,87,21119,2,0,L|121:173,1,88.000002685547,8|0,0:0|1:2,0:0:0:0:
248,68,21474,1,10,0:0:0:0:
53,20,21652,1,0,1:2:0:0:
235,176,21829,6,0,P|273:156|317:159,1,88.000002685547,6|0,1:2|0:0,0:0:0:0:
296,249,22184,1,10,0:0:0:0:
248,68,22362,1,2,1:2:0:0:
403,193,22539,5,8,0:0:0:0:
399,214,22628,1,8,0:0:0:0:
395,236,22717,1,2,1:2:0:0:
391,257,22806,1,8,0:0:0:0:
401,282,22894,1,8,0:0:0:0:
510,252,23072,1,8,0:0:0:0:
310,342,23249,6,0,B|268:318|222:330|222:330|198:367|155:377,1,176.000005371094,6|8,1:2|0:0,0:0:0:0:
48,289,23782,2,0,P|42:245|32:202,1,88.000002685547,8|0,0:0|1:2,0:0:0:0:
206,236,24137,1,0,1:2:0:0:
152,49,24314,2,0,L|129:178,1,132.00000402832,10|0,0:0|0:0,0:0:0:0:
206,236,24670,6,0,P|245:216|288:219,1,88.000002685547,2|0,1:2|0:0,0:0:0:0:
463,83,25025,1,10,0:0:0:0:
360,48,25202,2,0,L|375:134,1,88.000002685547,2|0,1:2|0:0,0:0:0:0:
493,258,25557,1,2,1:2:0:0:
429,331,25735,2,0,P|387:310|334:324,1,96,8|0,0:0|0:0,0:0:0:0:
247,295,26090,6,0,L|262:381,1,88.000002685547,2|0,1:2|0:0,0:0:0:0:
323,224,26445,1,8,0:0:0:0:
146,308,26622,2,0,L|59:292,1,88.000002685547,8|0,0:0|0:0,0:0:0:0:
262,381,26977,1,0,1:2:0:0:
145,124,27155,2,0,P|127:164|129:207,1,88.000002685547,8|0,0:0|0:0,0:0:0:0:
63,64,27510,5,8,0:0:0:0:
219,179,27687,1,8,0:0:0:0:
59,292,27865,1,0,1:2:0:0:
219,179,28042,6,0,B|305:168|296:239|381:228,1,176.000005371094,4|8,1:2|0:0,0:0:0:0:
480,111,28575,1,10,0:0:0:0:
480,111,28664,1,8,0:3:0:0:
480,111,28752,1,6,0:3:0:0:
367,47,28930,6,0,L|378:110,1,64,6|2,1:2|0:0,0:0:0:0:
465,268,29285,2,0,P|469:236|476:204,1,64,10|10,0:0|0:0,0:0:0:0:
326,229,29640,2,0,L|223:247,1,96,2|0,0:0|0:0,0:0:0:0:
231,245,29995,1,10,0:0:0:0:
114,140,30172,1,2,0:0:0:0:
114,140,30350,2,0,L|177:151,1,64,0|2,1:2|0:0,0:0:0:0:
163,55,30705,1,8,0:0:0:0:
33,225,30883,2,0,P|87:254|145:232,1,128,2|0,1:2|1:2,0:0:0:0:
301,322,31415,1,10,0:0:0:0:
301,322,31593,1,2,0:0:0:0:
221,374,31770,6,0,L|209:311,1,64,2|2,1:2|0:0,0:0:0:0:
270,161,32125,2,0,P|275:192|281:223,1,64,10|10,0:0|0:0,0:0:0:0:
369,68,32480,1,2,0:0:0:0:
369,68,32658,1,2,0:0:0:0:
293,27,32835,2,0,P|264:40|232:43,1,64,8|0,0:0|0:0,0:0:0:0:
438,138,33190,6,0,L|501:127,1,64,2|0,1:2|0:0,0:0:0:0:
369,68,33545,1,8,0:0:0:0:
488,220,33723,2,0,P|498:281|468:337,1,128,0|0,1:2|1:2,0:0:0:0:
302,239,34255,1,10,0:0:0:0:
302,239,34433,1,2,0:0:0:0:
363,366,34610,6,0,L|374:302,1,64,2|2,1:2|0:0,0:0:0:0:
212,344,34965,2,0,P|241:332|273:333,1,64,10|10,0:0|0:0,0:0:0:0:
110,187,35320,2,0,L|127:281,1,96,2|0,0:0|0:0,0:0:0:0:
127,282,35675,1,10,0:0:0:0:
224,145,35853,1,2,0:0:0:0:
224,145,36030,2,0,L|212:208,1,64,0|2,1:2|0:0,0:0:0:0:
136,95,36385,1,8,0:0:0:0:
317,195,36563,2,0,B|352:174|387:183|387:183|407:215|450:228,1,128,2|0,1:2|1:2,0:0:0:0:
373,90,37096,1,10,0:0:0:0:
373,90,37273,1,2,0:0:0:0:
289,290,37451,6,0,P|320:290|350:278,1,64,2|2,1:2|0:0,0:0:0:0:
203,177,37806,2,0,L|192:241,1,64,10|10,0:0|0:0,0:0:0:0:
109,126,38161,2,0,L|98:63,1,64,2|0,0:0|0:0,0:0:0:0:
191,89,38516,1,10,0:0:0:0:
75,207,38693,2,0,P|46:197|14:196,1,64,2|0,0:0|1:2,0:0:0:0:
191,89,39048,2,0,L|254:100,1,64,10|8,0:0|0:0,0:0:0:0:
447,266,39403,5,2,0:0:0:0:
447,266,39492,1,2,0:0:0:0:
447,266,39581,2,0,L|452:234,3,32,2|2|2|2,0:0|0:0|0:0|0:0,0:0:0:0:
424,160,39936,5,10,0:0:0:0:
386,149,40025,1,8,0:3:0:0:
350,160,40113,1,4,0:3:0:0:
325,188,40202,1,12,0:3:0:0:
318,226,40291,1,6,1:2:0:0:
32,376,40646,6,0,P|27:340|19:305,1,71.9999978027344,8|0,0:0|0:0,0:0:0:0:
115,184,41001,2,0,L|127:254,1,71.9999978027344,8|0,0:0|1:2,0:0:0:0:
172,102,41356,1,8,0:0:0:0:
23,207,41533,1,0,1:2:0:0:
214,295,41711,2,0,P|253:271|334:290,1,107.999996704102,8|0,0:0|0:0,0:0:0:0:
388,326,42066,6,0,L|400:255,1,71.9999978027344,10|0,0:0|0:0,0:0:0:0:
310,70,42421,2,0,P|296:102|299:138,1,71.9999978027344,10|0,0:0|1:2,0:0:0:0:
393,120,42776,1,10,0:0:0:0:
211,62,42954,1,0,1:2:0:0:
393,120,43131,6,0,L|499:101,1,107.999996704102,6|0,1:2|0:0,0:0:0:0:
499,101,43486,1,10,0:0:0:0:
350,239,43664,6,0,P|311:215|230:234,1,107.999996704102,2|0,1:2|0:0,0:0:0:0:
250,219,44019,1,0,1:2:0:0:
124,100,44196,2,0,L|136:170,1,71.9999978027344,8|0,0:0|0:0,0:0:0:0:
65,256,44551,5,0,1:2:0:0:
226,119,44729,1,8,0:0:0:0:
51,23,44906,1,8,0:0:0:0:
124,100,45084,2,0,L|111:170,1,71.9999978027344,4|8,1:2|0:0,0:0:0:0:
188,270,45350,1,8,0:0:0:0:
188,270,45439,2,0,L|181:235,1,35.9999989013672,8|8,0:3|0:0,0:0:0:0:
110,170,45616,1,10,0:0:0:0:
283,238,45794,1,8,0:0:0:0:
122,352,45971,6,0,P|62:357|-3:300,1,143.999995605469,6|8,1:2|0:0,0:0:0:0:
231,384,46504,2,0,L|372:358,1,143.999995605469,8|0,0:0|1:2,0:0:0:0:
488,259,47036,2,0,P|441:271|380:239,1,107.999996704102,10|0,0:0|0:0,0:0:0:0:
368,150,47391,6,0,P|404:146|438:137,1,71.9999978027344,2|0,1:2|0:0,0:0:0:0:
372,358,47746,2,0,P|408:362|442:370,1,71.9999978027344,10|0,0:0|1:2,0:0:0:0:
253,244,48101,2,0,P|220:255|184:256,1,71.9999978027344,2|0,0:0|1:2,0:0:0:0:
114,192,48456,2,0,L|132:85,1,107.999996704102,10|0,0:0|0:0,0:0:0:0:
56,4,48812,6,0,P|29:46|43:117,1,107.999996704102,2|0,1:2|0:0,0:0:0:0:
33,101,49167,1,10,0:0:0:0:
212,160,49344,6,0,L|282:147,1,71.9999978027344,2|0,1:2|0:0,0:0:0:0:
455,115,49699,6,0,P|422:99|387:101,1,71.9999978027344,2|8,1:2|0:0,0:0:0:0:
354,268,50054,6,0,L|360:303,1,35.9999989013672,2|0,0:0|0:0,0:0:0:0:
305,366,50232,5,2,1:2:0:0:
443,331,50409,1,2,1:2:0:0:
408,193,50587,1,10,0:0:0:0:
270,228,50764,1,6,1:2:0:0:
39,371,51119,6,0,P|34:343|28:316,1,55.9999982910157,8|0,0:0|0:0,0:0:0:0:
137,224,51297,1,10,0:0:0:0:
132,251,51385,1,0,1:2:0:0:
127,279,51474,1,8,0:3:0:0:
19,133,51652,1,6,1:2:0:0:
19,133,52007,6,0,P|28:171|32:211,1,80,10|2,0:0|0:0,0:0:0:0:
176,94,52362,2,0,L|162:15,1,80,8|0,0:0|1:2,0:0:0:0:
285,196,52717,1,10,0:0:0:0:
285,196,52894,1,0,1:2:0:0:
355,125,53072,6,0,P|391:109|431:110,1,80,10|0,0:0|0:0,0:0:0:0:
213,275,53427,2,0,P|173:276|136:260,1,80,10|0,0:0|0:0,0:0:0:0:
192,181,53782,1,10,0:0:0:0:
192,181,53959,1,0,1:2:0:0:
58,362,54137,2,0,P|41:327|44:286,1,80,10|0,0:0|1:2,0:0:0:0:
264,366,54492,6,0,P|306:339|374:353,1,96,6|0,1:2|0:0,0:0:0:0:
429,332,54847,2,0,L|421:375,3,44.0000013427735,8|8|8|4,0:0|0:0|0:3|0:3,0:0:0:0:
336,216,55202,6,0,P|319:164|344:96,1,107.999996704102,2|0,1:2|0:0,0:0:0:0:
299,43,55557,2,0,P|275:42|252:51,1,47.9999985351563,8|8,0:0|0:0,0:0:0:0:
182,18,55735,2,0,P|164:34|154:56,1,47.9999985351563,10|4,0:3|0:3,0:0:0:0:
77,319,55912,5,2,1:2:0:0:
237,224,56090,1,8,0:0:0:0:
77,119,56267,1,8,0:0:0:0:
131,214,56445,5,8,0:3:0:0:
130,224,56533,1,8,0:3:0:0:
129,234,56622,1,6,0:3:0:0:
305,318,56800,5,4,0:3:0:0:
303,306,56888,1,4,0:3:0:0:
302,294,56977,1,14,0:3:0:0:
445,98,57155,2,0,L|453:145,1,47.9999985351563,12|12,0:3|0:3,0:0:0:0:
456,162,57332,6,0,P|400:109|411:32,1,160,6|8,1:2|0:0,0:0:0:0:
501,250,57865,2,0,B|505:304|480:364|480:364|492:345|510:334,1,160,8|0,0:0|0:0,0:0:0:0:
340,198,58397,1,10,0:0:0:0:
340,198,58575,1,2,0:0:0:0:
215,255,58752,6,0,B|136:245|144:310|67:300,1,160,2|8,1:2|0:0,0:0:0:0:
243,150,59285,2,0,P|270:91|194:2,1,160,2|0,1:2|1:2,0:0:0:0:
340,198,59817,2,0,L|410:210,1,71.9999978027344,10|0,0:0|0:0,0:0:0:0:
472,159,60172,5,2,1:2:0:0:
472,159,60528,5,0,1:2:0:0:
297,282,60705,2,0,L|214:296,1,83.9999974365235,10|0,0:0|0:0,0:0:0:0:
161,237,61060,5,8,0:0:0:0:
350,360,61238,2,0,L|445:377,1,96,10|0,0:3|0:0,0:0:0:0:
504,324,61593,5,10,0:0:0:0:
16,80,62125,6,0,L|4:17,1,64,0|0,1:2|0:0,0:0:0:0:
91,137,62303,2,0,L|86:168,7,32,10|2|2|2|2|2|2|2,0:0|0:0|0:0|0:0|0:0|0:0|1:2|0:0,0:0:0:0:
14,202,62658,2,0,L|92:188,1,80,10|8,0:0|0:3,0:0:0:0:
215,62,62924,5,4,0:3:0:0:
221,71,63013,2,0,L|205:157,1,88.000002685547,6|0,1:2|0:0,0:0:0:0:
121,47,63368,1,10,0:0:0:0:
310,133,63545,2,0,L|396:117,1,88.000002685547,10|0,0:0|0:0,0:0:0:0:
308,37,63900,1,2,1:2:0:0:
390,290,64078,2,0,P|408:250|406:207,1,88.000002685547,10|2,0:0|0:0,0:0:0:0:
169,283,64433,6,0,L|255:267,1,88.000002685547,2|0,1:2|0:0,0:0:0:0:
230,367,64788,1,10,0:0:0:0:
101,205,64965,2,0,P|66:180|22:180,1,88.000002685547,2|0,1:2|0:0,0:0:0:0:
236,79,65320,1,2,1:2:0:0:
147,0,65498,2,0,L|131:86,1,88.000002685547,10|2,0:0|0:0,0:0:0:0:
259,225,65853,6,0,P|312:188|376:196,1,132.00000402832,2|0,1:2|0:0,0:0:0:0:
376,196,66208,1,10,0:0:0:0:
488,109,66385,2,0,P|508:71|505:28,1,88.000002685547,10|0,0:0|0:0,0:0:0:0:
399,290,66741,2,0,L|383:203,1,88.000002685547,2|8,1:2|0:0,0:0:0:0:
505,267,67096,1,2,0:0:0:0:
305,360,67273,6,0,B|262:349|220:373|220:373|197:331|151:324,1,176.000005371094,0|8,1:2|0:0,0:0:0:0:
12,223,67806,2,0,B|52:254|52:254|30:377,1,176.000005371094,0|0,1:2|1:2,0:0:0:0:
151,324,68338,2,0,P|208:311|290:348,1,132.00000402832,10|0,0:0|0:0,0:0:0:0:
345,297,68693,6,0,L|361:211,1,88.000002685547,2|0,1:2|0:0,0:0:0:0:
230,33,69048,1,10,0:0:0:0:
162,109,69226,2,0,P|123:128|79:125,1,88.000002685547,10|0,0:0|0:0,0:0:0:0:
230,33,69581,1,0,1:2:0:0:
105,227,69758,2,0,P|61:218|18:211,1,88.000002685547,10|0,0:0|0:0,0:0:0:0:
230,33,70113,6,0,P|273:41|316:48,1,88.000002685547,2|0,1:2|0:0,0:0:0:0:
453,175,70468,2,0,P|470:136|466:92,1,88.000002685547,10|0,0:0|1:2,0:0:0:0:
356,299,70823,2,0,P|352:342|369:382,1,88.000002685547,2|0,0:0|1:2,0:0:0:0:
276,159,71178,2,0,P|240:134|197:129,1,88.000002685547,10|0,0:0|0:0,0:0:0:0:
14,230,71533,6,0,L|143:207,1,132.00000402832,2|0,1:2|0:0,0:0:0:0:
208,256,71888,1,8,0:0:0:0:
27,132,72066,1,10,0:0:0:0:
112,376,72243,2,0,P|129:336|127:292,1,88.000002685547,2|0,0:0|1:2,0:0:0:0:
300,353,72599,2,0,P|352:315|415:326,1,132.00000402832,10|0,0:0|0:0,0:0:0:0:
504,298,72954,2,0,P|495:341|488:384,1,88.000002685547,2|0,1:2|1:2,0:0:0:0:
377,122,73309,5,10,0:0:0:0:
351,217,73486,2,0,P|394:220|434:203,1,88.000002685547,0|2,1:2|0:0,0:0:0:0:
317,37,73841,1,8,0:0:0:0:
214,182,74019,1,10,0:0:0:0:
175,202,74107,1,8,0:0:0:0:
132,204,74196,1,8,0:3:0:0:
92,186,74285,1,4,0:3:0:0:
64,152,74374,6,0,P|72:108|79:65,1,88.000002685547,6|2,1:2|0:0,0:0:0:0:
168,289,74729,2,0,P|159:332|152:375,1,88.000002685547,10|2,0:0|0:0,0:0:0:0:
323,100,75084,5,10,0:0:0:0:
258,270,75261,1,2,1:2:0:0:
336,308,75439,5,10,0:0:0:0:
243,63,75616,1,2,1:2:0:0:
421,228,75794,6,0,P|377:220|334:212,1,88.000002685547,14|2,0:0|0:0,0:0:0:0:
152,375,76149,2,0,P|195:366|238:359,1,88.000002685547,10|2,0:0|0:0,0:0:0:0:
119,113,76504,5,10,0:0:0:0:
60,327,76681,1,2,1:2:0:0:
111,99,76859,5,10,0:0:0:0:
67,340,77036,1,2,1:2:0:0:
208,165,77214,5,6,1:2:0:0:
14,251,77391,1,2,0:0:0:0:
216,168,77569,1,10,0:0:0:0:
4,53,77746,6,0,P|12:96|19:139,1,88.000002685547,2|0,1:2|0:0,0:0:0:0:
275,259,78101,2,0,P|232:265|189:273,1,88.000002685547,2|8,1:2|0:0,0:0:0:0:
366,82,78456,1,2,0:0:0:0:
469,200,78634,6,0,P|425:191|382:184,1,88.000002685547,4|0,1:2|1:2,0:0:0:0:
257,10,78989,2,0,P|265:53|272:96,1,88.000002685547,10|0,0:0|1:2,0:0:0:0:
190,274,79344,5,10,0:0:0:0:
156,246,79433,1,8,0:0:0:0:
138,206,79522,1,8,0:3:0:0:
140,163,79610,1,4,0:3:0:0:
160,124,79699,1,10,0:0:0:0:
291,196,79877,2,0,L|279:259,1,64,8|8,0:0|0:0,0:0:0:0:
320,351,80054,6,0,P|401:377|478:339,1,176.000005371094,6|8,1:2|0:0,0:0:0:0:
291,196,80587,1,8,0:0:0:0:
423,89,80764,2,0,L|407:175,1,88.000002685547,2|0,0:0|1:2,0:0:0:0:
188,8,81119,2,0,P|195:51|203:94,1,88.000002685547,8|0,0:0|0:0,0:0:0:0:
88,254,81474,5,6,1:2:0:0:
6,68,81652,1,8,0:0:0:0:
107,139,81829,5,10,0:0:0:0:
2,346,82007,1,10,0:3:0:0:
207,247,82184,5,4,0:3:0:0:
251,228,82273,1,8,0:0:0:0:
298,229,82362,1,10,0:0:0:0:
342,248,82451,1,8,0:3:0:0:
375,283,82539,6,0,L|363:346,1,64,4|8,0:3|0:3,0:0:0:0:
285,117,82717,6,0,L|274:54,1,64,6|12,0:3|0:3,0:0:0:0:
452,345,82894,6,0,B|547:363|596:200|550:125|361:86|286:212|346:233|171:361|15:280|42:104|152:55|230:138,1,768,6|0,1:2|0:0,0:0:0:0:
189,111,84314,6,0,P|208:131|190:111,1,111.999996582031,10|0,0:0|0:0,0:0:0:0:
89,203,84581,6,0,P|93:240|93:203,1,111.999996582031,10|0,0:3|0:0,0:0:0:0:
156,326,84847,5,6,0:3:0:0:
276,349,85025,6,0,P|257:329|275:349,1,111.999996582031,10|0,0:0|0:0,0:0:0:0:
356,243,85291,6,0,P|339:233|355:243,1,111.999996582031,2|0,1:2|0:0,0:0:0:0:
291,121,85557,5,2,1:2:0:0:
156,326,85735,6,0,P|85:364|-5:342,1,176.000005371094,14|8,1:2|0:0,0:0:0:0:
219,220,86267,2,0,B|259:220|298:253|298:253|342:220|380:228,1,176.000005371094,0|0,1:2|1:2,0:0:0:0:
166,21,86800,2,0,L|181:107,1,88.000002685547,10|0,0:0|0:0,0:0:0:0:
87,230,87155,6,0,L|0:214,1,88.000002685547,2|0,1:2|0:0,0:0:0:0:
60,130,87510,1,10,0:0:0:0:
151,318,87687,2,0,P|191:301|235:304,1,88.000002685547,10|0,0:0|0:0,0:0:0:0:
387,172,88042,1,2,1:2:0:0:
459,235,88220,2,0,P|403:268|340:257,1,132.00000402832,8|0,0:0|0:0,0:0:0:0:
287,197,88575,6,0,B|253:169|202:186|202:186|174:227|131:230,1,176.000005371094,2|8,1:2|0:0,0:0:0:0:
12,100,89107,2,0,B|34:226|34:226|22:206|0:193,1,176.000005371094,0|0,1:2|1:2,0:0:0:0:
143,25,89640,2,0,L|127:111,1,88.000002685547,10|0,0:0|0:0,0:0:0:0:
284,178,89995,6,0,L|371:163,1,88.000002685547,2|0,1:2|0:0,0:0:0:0:
310,85,90350,1,10,0:0:0:0:
445,266,90528,2,0,P|401:268|360:252,1,88.000002685547,10|0,0:0|0:0,0:0:0:0:
465,172,90883,1,2,1:2:0:0:
512,384,91060,2,0,P|455:352|392:367,1,132.00000402832,8|0,0:0|0:0,0:0:0:0:
313,350,91415,2,0,P|274:369|231:366,1,88.000002685547,2|0,1:2|0:0,0:0:0:0:
89,257,91770,6,0,L|73:170,1,88.000002685547,10|0,0:0|1:2,0:0:0:0:
19,383,92125,2,0,P|1:343|6:299,1,88.000002685547,2|0,0:0|1:2,0:0:0:0:
179,204,92480,2,0,L|308:226,1,132.00000402832,10|0,0:0|0:0,0:0:0:0:
364,164,92835,6,0,P|325:143|283:145,1,88.000002685547,2|0,1:2|0:0,0:0:0:0:
512,89,93190,1,10,0:0:0:0:
437,0,93368,2,0,L|421:86,1,88.000002685547,10|0,0:0|0:0,0:0:0:0:
512,251,93723,1,2,1:2:0:0:
450,326,93900,2,0,P|408:349|349:335,1,96,8|0,0:0|0:0,0:0:0:0:
291,381,94255,2,0,P|285:337|277:294,1,88.000002685547,2|0,1:2|0:0,0:0:0:0:
108,374,94610,6,0,P|159:352|198:354,1,88.000002685547,10|0,0:0|1:2,0:0:0:0:
51,277,94965,2,0,P|30:238|34:195,1,88.000002685547,2|0,0:0|1:2,0:0:0:0:
156,86,95320,2,0,L|133:215,1,132.00000402832,10|0,0:0|0:0,0:0:0:0:
127,221,95675,5,2,1:2:0:0:
261,93,95853,2,0,P|264:49|245:9,1,88.000002685547,2|8,1:2|0:0,0:0:0:0:
340,195,96208,6,0,B|427:183|418:255|503:244,1,176.000005371094,6|8,1:2|0:0,0:0:0:0:
461,135,96741,1,8,0:0:0:0:
461,135,96829,1,8,0:0:0:0:
461,135,96918,1,8,0:3:0:0:
267,303,97096,6,0,P|310:295|353:287,1,88.000002685547,6|0,1:2|0:0,0:0:0:0:
147,139,97451,2,0,P|103:147|60:154,1,88.000002685547,8|0,0:0|0:0,0:0:0:0:
276,6,97806,2,0,P|267:49|260:92,1,88.000002685547,8|0,0:0|1:2,0:0:0:0:
342,157,98161,1,10,0:0:0:0:
168,48,98338,1,0,1:2:0:0:
342,157,98516,6,0,P|381:174|425:169,1,88.000002685547,14|0,0:0|0:0,0:0:0:0:
394,79,98871,1,10,0:0:0:0:
289,245,99048,2,0,P|297:288|304:331,1,88.000002685547,2|8,0:0|0:0,0:0:0:0:
117,221,99403,1,2,1:2:0:0:
178,379,99581,2,0,P|185:335|193:292,1,88.000002685547,8|0,0:0|1:2,0:0:0:0:
30,31,99936,6,0,P|10:70|53:147,1,132.00000402832,14|0,0:0|0:0,0:0:0:0:
121,132,100291,2,0,P|112:89|105:46,1,88.000002685547,8|0,0:0|0:0,0:0:0:0:
209,164,100646,1,8,0:0:0:0:
30,268,100823,1,0,1:2:0:0:
217,347,101001,2,0,P|260:338|303:331,1,88.000002685547,10|0,0:0|1:2,0:0:0:0:
433,160,101356,6,0,P|424:203|417:246,1,88.000002685547,6|0,1:2|0:0,0:0:0:0:
338,124,101711,1,10,0:0:0:0:
512,236,101888,1,2,1:2:0:0:
274,197,102066,5,8,0:0:0:0:
249,160,102155,1,8,0:0:0:0:
243,117,102243,1,2,1:2:0:0:
255,75,102332,1,8,0:0:0:0:
285,42,102421,1,8,0:0:0:0:
338,124,102599,1,8,0:0:0:0:
164,238,102776,6,0,B|103:249|61:221|61:221|29:234|19:272,1,176.000005371094,6|8,1:2|0:0,0:0:0:0:
141,117,103309,2,0,P|160:79|157:35,1,88.000002685547,8|0,0:0|1:2,0:0:0:0:
30,103,103664,1,0,1:2:0:0:
164,238,103841,2,0,B|228:229|222:283|285:274,1,132.00000402832,10|0,0:0|0:0,0:0:0:0:
323,192,104196,6,0,P|280:199|237:207,1,88.000002685547,2|0,1:2|0:0,0:0:0:0:
265,107,104551,1,10,0:0:0:0:
397,276,104729,2,0,P|440:283|483:291,1,88.000002685547,2|0,1:2|0:0,0:0:0:0:
455,191,105084,1,2,1:2:0:0:
322,345,105261,2,0,P|279:366|231:365,1,96,8|0,0:0|0:0,0:0:0:0:
151,378,105616,6,0,P|158:334|166:291,1,88.000002685547,2|0,1:2|0:0,0:0:0:0:
97,111,105971,1,8,0:0:0:0:
1,230,106149,2,0,P|44:222|87:214,1,88.000002685547,8|0,0:0|0:0,0:0:0:0:
282,37,106504,1,0,1:2:0:0:
177,18,106681,2,0,P|184:61|192:104,1,88.000002685547,8|0,0:0|0:0,0:0:0:0:
406,303,107036,5,8,0:0:0:0:
456,113,107214,1,8,0:0:0:0:
281,173,107391,1,0,1:2:0:0:
368,215,107569,6,0,L|462:198,1,95.9999970703126,4|8,1:2|0:0,0:0:0:0:
321,369,108101,1,8,0:0:0:0:
321,369,108190,1,8,0:3:0:0:
321,369,108279,1,4,0:3:0:0:
100,183,108812,6,0,B|212:91|189:-6|69:-12|41:78|90:137,1,290.000008850098,6|0,1:2|0:0,0:0:0:0:
100,183,109344,6,0,B|147:184|193:209|218:254|218:254|252:222|302:207|352:222,1,290.000008850098,6|0,1:2|0:0,0:0:0:0:
459,84,109877,6,0,B|485:-3|371:-41|324:8|304:134|359:163|444:176|502:194|520:240|530:292|515:364|494:405|433:410|368:356|410:288,1,665.6,6|0,1:2|0:0,0:0:0:0:
